osu file format v14

[General]
AudioFilename: audio.mp3
AudioLeadIn: 0
PreviewTime: 60461
Countdown: 0
SampleSet: Soft
StackLeniency: 0.6
Mode: 0
LetterboxInBreaks: 0
WidescreenStoryboard: 1

[Editor]
DistanceSpacing: 1.9
BeatDivisor: 4
GridSize: 4
TimelineZoom: 1

[Metadata]
Title:Future Strike (Tv Size)
TitleUnicode:Future Strike (Tv Size)
Artist:Yui Ogura
ArtistUnicode:Yui Ogura
Creator:YukiPlays
Version:Insane
Source:Vivid Strike
Tags:Vivid Strike Opening Tv Size
BeatmapID:1413652
BeatmapSetID:668139

[Difficulty]
HPDrainRate:6
CircleSize:4
OverallDifficulty:5.4
ApproachRate:9
SliderMultiplier:2
SliderTickRate:1

[Events]
//Background and Video events
0,0,"maxresdefault.jpg",0,0
Video,0,"vid.mp4"
//Break Periods
//Storyboard Layer 0 (Background)
//Storyboard Layer 1 (Fail)
//Storyboard Layer 2 (Pass)
//Storyboard Layer 3 (Foreground)
//Storyboard Sound Samples

[TimingPoints]
1697,352.941176470588,4,2,0,100,1,0
7829,-100,4,2,0,5,0,0
8358,-100,4,2,0,100,0,0
8535,-100,4,2,0,5,0,0
8711,-100,4,2,0,100,0,0
26535,-133.333333333333,4,2,0,100,0,0
36947,-100,4,2,0,100,0,0
61696,352.941176470588,4,2,0,100,1,1
88519,352.941176470588,4,2,0,100,1,0

[HitObjects]
459,48,1697,6,0,P|452:104|336:236,1,200,2|0,2:2|0:0,0:0:0:0:
218,296,2226,1,0,0:0:0:0:
225,126,2402,1,0,0:0:0:0:
74,206,2579,1,0,0:0:0:0:
74,206,2755,2,0,P|58:150|155:44,1,200,0|2,0:0|0:0,0:0:0:0:
404,260,3461,1,0,0:0:0:0:
404,260,3638,1,0,0:0:0:0:
459,48,4520,5,2,0:0:0:0:
448,60,5226,5,0,0:0:0:0:
432,76,5932,5,2,0:0:0:0:
416,92,6461,5,8,1:0:0:0:
408,100,6549,1,8,1:0:0:0:
400,108,6638,2,0,P|368:136|184:180,1,200,8|0,1:0|0:0,0:0:0:0:
48,162,7167,1,0,0:0:0:0:
163,36,7344,1,2,0:0:0:0:
454,332,7696,6,0,L|372:242,1,100
23,48,8402,6,0,L|101:130,1,100
207,245,8755,6,0,P|213:193|325:95,1,200,2|0,0:0|0:0,0:0:0:0:
366,260,9285,1,0,0:0:0:0:
484,139,9461,2,0,P|469:85|306:46,1,200
24,139,10167,6,0,L|98:216,1,100,2|0,0:0|0:0,0:0:0:0:
153,370,10520,1,0,0:0:0:0:
224,216,10696,1,0,0:0:0:0:
507,66,11049,6,0,L|432:133,1,100
264,102,11402,1,0,0:0:0:0:
264,102,11579,1,2,0:0:0:0:
68,312,11844,1,0,0:0:0:0:
61,169,12108,1,0,0:0:0:0:
61,169,12285,2,0,P|99:122|267:67,1,200
387,116,12814,5,8,1:0:0:0:
387,116,12902,1,8,1:0:0:0:
387,116,12991,1,10,1:0:0:0:
134,344,13520,1,8,1:0:0:0:
134,344,13608,1,8,1:0:0:0:
134,344,13696,1,8,1:0:0:0:
26,21,14226,1,8,1:0:0:0:
26,21,14314,1,8,1:0:0:0:
26,21,14402,2,0,P|24:88|176:256,1,300
455,60,15285,5,0,0:0:0:0:
457,229,15461,1,0,0:0:0:0:
328,116,15638,1,0,0:0:0:0:
311,284,15814,6,0,P|291:336|161:299,1,200,2|8,0:0|1:0,0:0:0:0:
164,316,16255,1,8,1:0:0:0:
160,312,16344,1,8,1:0:0:0:
156,308,16432,1,8,1:0:0:0:
152,304,16520,1,8,1:0:0:0:
70,155,16696,5,8,1:0:0:0:
70,155,16873,2,0,P|112:123|193:92,1,100
317,52,17226,6,0,P|274:90|216:224,1,200,2|8,0:0|1:0,0:0:0:0:
216,224,17667,1,8,1:0:0:0:
216,232,17755,1,8,1:0:0:0:
216,240,17844,1,8,1:0:0:0:
216,248,17932,1,8,1:0:0:0:
355,344,18108,5,8,1:0:0:0:
469,217,18285,1,0,0:0:0:0:
325,126,18461,1,8,1:0:0:0:
156,128,18638,6,8,L|104:128,2,50,10|8|8,1:0|1:0|1:0,1:0:0:0:
224,192,18991,5,8,1:0:0:0:
212,192,19079,1,8,1:0:0:0:
200,192,19167,1,8,1:0:0:0:
156,264,19344,6,8,L|100:264,2,50,8|8|8,1:0|1:0|1:0,1:0:0:0:
240,264,19696,5,8,1:0:0:0:
248,264,19785,1,8,1:0:0:0:
256,264,19873,1,8,1:0:0:0:
264,264,19961,1,8,1:0:0:0:
272,264,20049,2,0,P|328:264|412:124,1,200,10|8,1:0|1:0,0:0:0:0:
289,127,20755,1,8,1:0:0:0:
289,127,20932,6,0,L|193:211,1,100
150,323,21285,2,8,L|148:200,1,100,8|10,1:0|1:0,1:0:0:0:
308,34,21814,2,0,P|325:91|361:132,1,100,8|8,1:0|1:0,0:0:0:0:
349,122,22079,1,8,0:0:0:0:
349,122,22167,1,8,0:0:0:0:
348,280,22344,1,8,1:0:0:0:
71,84,22696,5,0,0:0:0:0:
71,84,22873,2,0,P|89:134|224:204,1,200,10|8,1:0|1:0,0:0:0:0:
216,204,23314,1,8,1:0:0:0:
220,204,23402,1,8,1:0:0:0:
224,204,23491,1,8,1:0:0:0:
228,204,23579,1,8,1:0:0:0:
364,103,23755,1,8,1:0:0:0:
124,259,24108,6,8,L|80:311,2,50,8|8|10,1:0|1:0|1:0,1:0:0:0:
212,259,24461,5,8,1:0:0:0:
220,251,24549,1,8,1:0:0:0:
228,243,24638,1,8,1:0:0:0:
332,259,24814,6,8,L|296:307,2,50,8|8|8,1:0|1:0|1:0,1:0:0:0:
436,263,25167,5,8,1:0:0:0:
440,255,25255,1,8,1:0:0:0:
444,247,25344,1,8,1:0:0:0:
448,239,25432,1,8,1:0:0:0:
452,231,25520,1,8,1:0:0:0:
456,223,25608,1,8,1:0:0:0:
460,215,25696,2,0,P|480:167|424:31,1,200,10|8,1:0|1:0,0:0:0:0:
254,39,26226,1,8,1:0:0:0:
162,181,26402,1,8,1:0:0:0:
162,181,26579,6,0,P|136:224|144:268,1,75.0000028610231
214,348,26932,1,0,0:0:0:0:
309,264,27108,2,0,B|346:224|325:187|325:187|446:107,1,225.000008583069,2|0,0:0|0:0,0:0:0:0:
331,45,27814,5,0,0:0:0:0:
331,45,27991,1,0,0:0:0:0:
212,91,28167,1,0,0:0:0:0:
212,91,28344,6,0,P|177:116|87:219,1,150.000005722046
120,320,28873,1,0,0:0:0:0:
234,265,29049,2,0,B|277:246|287:196|287:196|417:145,1,225.000008583069
403,274,29755,1,0,0:0:0:0:
292,339,29932,2,0,P|245:332|212:294,1,75.0000028610231,2|0,0:0|0:0,0:0:0:0:
49,129,30461,1,0,0:0:0:0:
109,376,30814,1,0,0:0:0:0:
236,155,31167,6,0,P|263:118|293:89,1,75.0000028610231,0|2,0:0|0:0,0:0:0:0:
408,70,31520,2,0,P|367:110|345:157,1,75.0000028610231
401,245,31873,2,0,P|438:189|472:165,1,75.0000028610231
312,323,32314,1,0,0:0:0:0:
235,147,32579,1,0,0:0:0:0:
117,195,32755,6,0,P|132:147|350:97,1,300.000011444092,2|0,0:0|0:0,0:0:0:0:
388,215,33638,1,0,0:0:0:0:
269,168,33814,1,0,0:0:0:0:
269,295,33991,2,0,P|234:318|40:132,1,375.000014305115
197,41,35138,5,0,0:0:0:0:
387,41,35402,1,0,0:0:0:0:
387,41,35579,2,0,L|391:204,1,150.000005722046,2|0,0:0|0:0,0:0:0:0:
191,351,36285,2,0,L|190:183,1,150.000005722046
189,73,36814,1,0,0:0:0:0:
189,73,36991,5,2,0:0:0:0:
317,184,37167,1,0,0:0:0:0:
317,184,37696,5,0,0:0:0:0:
226,328,37873,1,0,0:0:0:0:
40,41,38402,6,0,P|90:39|218:127,1,200,2|0,0:0|0:0,0:0:0:0:
203,287,38932,1,0,0:0:0:0:
48,216,39108,1,0,0:0:0:0:
78,383,39285,1,0,0:0:0:0:
125,220,39461,1,0,0:0:0:0:
125,220,39638,6,0,P|159:164|286:103,1,200
423,187,40167,1,0,0:0:0:0:
338,334,40344,2,0,P|287:357|224:240,1,200
269,98,40873,5,0,0:0:0:0:
103,136,41049,1,0,0:0:0:0:
30,290,41226,2,0,P|68:340|200:331,1,200,2|0,0:0|0:0,0:0:0:0:
160,168,41755,1,0,0:0:0:0:
470,29,42108,1,0,0:0:0:0:
303,325,42461,6,0,P|241:345|262:235,1,200
495,28,43167,1,0,0:0:0:0:
156,60,43520,1,8,0:0:0:0:
152,64,43608,1,8,0:0:0:0:
148,68,43696,1,8,0:0:0:0:
144,72,43785,1,8,0:0:0:0:
140,76,43873,1,8,0:0:0:0:
136,80,43961,1,8,0:0:0:0:
132,84,44049,2,0,P|96:128|80:272,1,200,10|0,0:0|0:0,0:0:0:0:
226,351,44579,1,0,0:0:0:0:
170,105,45285,6,0,P|198:155|247:188,1,100,0|2,0:0|0:0,0:0:0:0:
422,72,45726,1,0,0:0:0:0:
206,65,45991,2,0,B|257:66|273:109|273:109|483:185,1,300,0|8,0:0|0:0,0:0:0:0:
474,181,46608,1,8,0:0:0:0:
474,181,46696,1,8,0:0:0:0:
474,181,46785,1,8,0:0:0:0:
474,181,46873,1,10,0:0:0:0:
444,318,47049,5,0,0:0:0:0:
444,318,47226,2,0,P|461:253|377:116,1,200
162,64,47844,1,0,0:0:0:0:
3,263,48108,1,0,0:0:0:0:
3,263,48285,2,0,P|204:280|376:188,1,400
472,19,49167,1,0,0:0:0:0:
488,188,49344,1,0,0:0:0:0:
338,107,49520,5,0,0:0:0:0:
338,107,49696,2,0,P|283:77|165:152,1,200,2|0,0:0|0:0,0:0:0:0:
62,267,50226,5,0,0:0:0:0:
62,267,50402,2,0,P|85:319|183:257,1,200
195,96,50932,5,0,0:0:0:0:
195,96,51108,2,0,P|237:51|349:97,1,200,2|0,0:0|0:0,0:0:0:0:
353,269,51638,1,0,0:0:0:0:
183,270,51814,1,0,0:0:0:0:
267,121,51991,1,0,0:0:0:0:
7,341,52344,2,0,P|4:279|120:72,1,300
280,45,53049,5,0,0:0:0:0:
280,45,53226,2,0,P|325:66|380:211,1,200
222,136,53755,5,0,0:0:0:0:
222,136,53932,2,0,P|226:225|311:319,1,200,2|0,0:0|0:0,0:0:0:0:
375,159,54461,1,0,0:0:0:0:
500,274,54638,1,0,0:0:0:0:
509,104,54814,2,0,P|487:58|321:24,1,200
40,144,55520,5,8,0:0:0:0:
44,148,55608,1,8,0:0:0:0:
48,152,55696,1,8,0:0:0:0:
139,295,55873,5,0,0:0:0:0:
139,295,56049,2,0,P|160:238|266:109,1,200
243,127,57108,5,0,0:0:0:0:
243,127,57814,5,0,0:0:0:0:
243,127,58167,1,2,0:0:0:0:
243,127,58344,2,0,P|296:150|290:286,1,200
137,326,58873,6,0,P|82:313|160:64,1,400,0|2,0:0|0:0,0:0:0:0:
321,343,59932,1,0,0:0:0:0:
466,35,60285,1,0,0:0:0:0:
140,296,61696,6,0,P|150:270|200:172,1,100,2|0,0:0|0:0,0:0:0:0:
293,49,62049,1,0,1:0:0:0:
334,234,62225,1,0,0:0:0:0:
443,79,62402,1,2,0:0:0:0:
465,268,62578,2,0,L|384:177,1,100,0|0,0:0|1:0,0:0:0:0:
215,141,62931,2,0,L|302:233,1,100,0|2,0:0|0:0,0:0:0:0:
408,357,63284,5,0,0:0:0:0:
377,169,63460,1,0,1:0:0:0:
215,270,63637,1,0,0:0:0:0:
98,120,63813,2,0,P|101:70|162:51,1,100,2|0,0:0|0:0,0:0:0:0:
331,43,64166,2,0,P|382:68|397:122,1,100,0|0,1:0|0:0,0:0:0:0:
351,290,64519,5,2,0:0:0:0:
288,109,64696,1,0,0:0:0:0:
134,219,64872,1,0,1:0:0:0:
201,40,65049,1,0,0:0:0:0:
134,219,65225,2,0,P|103:265|28:181,2,200,2|0|2,0:0|1:0|0:0,0:0:0:0:
296,41,66284,6,0,P|340:83|354:240,1,200,0|2,1:0|0:0,0:0:0:0:
269,331,66813,5,0,0:0:0:0:
261,327,66902,1,0,0:0:0:0:
253,323,66990,1,0,1:0:0:0:
245,319,67078,1,0,0:0:0:0:
237,315,67166,1,0,0:0:0:0:
229,311,67255,1,0,0:0:0:0:
221,307,67343,2,0,P|173:279|165:139,1,200,2|0,0:0|1:0,0:0:0:0:
365,12,67872,5,0,0:0:0:0:
365,12,67960,1,0,0:0:0:0:
365,12,68049,2,0,P|395:62|408:218,1,200,2|0,0:0|1:0,0:0:0:0:
279,338,68578,1,0,0:0:0:0:
191,170,68755,1,2,0:0:0:0:
75,321,68931,1,0,0:0:0:0:
75,321,69108,1,0,1:0:0:0:
22,137,69284,5,0,0:0:0:0:
22,137,69460,2,0,P|57:98|201:53,1,200,2|0,0:0|1:0,0:0:0:0:
499,279,70166,5,2,0:0:0:0:
372,136,70343,1,0,0:0:0:0:
351,324,70519,1,0,1:0:0:0:
464,171,70696,1,0,0:0:0:0:
284,231,70872,1,2,0:0:0:0:
380,67,71049,1,0,0:0:0:0:
380,257,71225,1,0,1:0:0:0:
234,136,71402,1,0,0:0:0:0:
35,324,71755,5,0,0:0:0:0:
35,324,71843,1,0,0:0:0:0:
35,324,71931,2,0,P|49:255|127:129,1,200,0|2,1:0|0:0,0:0:0:0:
263,26,72460,1,0,0:0:0:0:
267,216,72637,1,0,1:0:0:0:
409,91,72813,1,0,0:0:0:0:
409,91,72990,6,0,P|456:132|445:281,1,200,2|0,0:0|1:0,0:0:0:0:
272,223,73519,1,0,0:0:0:0:
377,64,73696,1,2,0:0:0:0:
187,51,73872,1,0,0:0:0:0:
78,206,74049,2,0,P|76:258|152:279,1,100,0|0,1:0|0:0,0:0:0:0:
297,246,74402,1,2,0:0:0:0:
297,246,74578,6,0,P|341:214|267:99,1,200
0,342,75284,2,0,L|90:245,1,100,0|0,0:0|1:0,0:0:0:0:
200,132,75637,1,0,0:0:0:0:
332,266,75813,2,0,L|407:342,2,100,2|0|0,0:0|0:0|1:0,0:0:0:0:
200,132,76343,1,0,0:0:0:0:
32,44,76519,2,0,B|105:52|101:101|101:101|409:81,1,400,2|2,0:0|0:0,0:0:0:0:
296,241,77402,1,0,0:0:0:0:
193,80,77578,1,0,1:0:0:0:
141,262,77755,5,0,0:0:0:0:
141,262,77843,1,0,0:0:0:0:
141,262,77931,2,0,P|175:203|285:114,1,200,2|0,0:0|1:0,0:0:0:0:
458,66,78460,1,0,0:0:0:0:
423,253,78637,1,2,0:0:0:0:
72,105,78990,5,0,1:0:0:0:
360,345,79696,5,0,1:0:0:0:
128,43,80049,6,0,P|200:59|294:154,1,200,2|0,0:0|1:0,0:0:0:0:
253,332,80578,1,0,0:0:0:0:
98,222,80755,1,2,0:0:0:0:
440,58,81107,1,0,1:0:0:0:
157,312,81460,6,0,P|101:310|64:236,1,100,2|0,0:0|0:0,0:0:0:0:
64,90,81813,1,0,1:0:0:0:
221,197,81990,1,0,0:0:0:0:
231,7,82166,1,2,0:0:0:0:
126,166,82343,1,0,0:0:0:0:
300,91,82519,1,0,1:0:0:0:
356,272,82696,6,0,L|448:322,1,100,0|2,0:0|0:0,0:0:0:0:
501,138,83049,2,0,L|405:86,1,100,0|0,0:0|1:0,0:0:0:0:
225,55,83402,1,0,0:0:0:0:
342,204,83578,1,2,0:0:0:0:
156,244,83755,1,0,0:0:0:0:
291,110,83931,1,0,1:0:0:0:
242,293,84107,5,0,0:0:0:0:
242,293,84196,1,0,0:0:0:0:
242,293,84284,1,2,0:0:0:0:
44,36,84813,5,0,0:0:0:0:
44,36,84902,1,0,0:0:0:0:
44,36,84990,1,2,0:0:0:0:
256,192,85519,5,0,0:0:0:0:
256,192,85607,1,0,0:0:0:0:
256,192,85696,1,2,0:0:0:0:
388,56,85872,2,0,P|428:116|400:252,1,200
256,192,86313,12,0,88519,0:0:0:0:
