osu file format v14

[General]
AudioFilename: audio.mp3
AudioLeadIn: 0
PreviewTime: 60461
Countdown: 0
SampleSet: Normal
StackLeniency: 0.8
Mode: 1
LetterboxInBreaks: 0
WidescreenStoryboard: 1

[Editor]
DistanceSpacing: 0.9
BeatDivisor: 4
GridSize: 4
TimelineZoom: 1

[Metadata]
Title:Future Strike (Tv Size)
TitleUnicode:Future Strike (Tv Size)
Artist:Yui Ogura
ArtistUnicode:Yui Ogura
Creator:YukiPlays
Version:Ikira's Muzukashii
Source:Vivid Strike
Tags:Vivid Strike Opening Tv Size
BeatmapID:1416584
BeatmapSetID:668139

[Difficulty]
HPDrainRate:5
CircleSize:2
OverallDifficulty:5
ApproachRate:6
SliderMultiplier:1.4
SliderTickRate:1

[Events]
//Background and Video events
0,0,"thumb-1920-743922.png",0,0
Video,0,"vid.mp4"
//Break Periods
//Storyboard Layer 0 (Background)
//Storyboard Layer 1 (Fail)
//Storyboard Layer 2 (Pass)
//Storyboard Layer 3 (Foreground)
//Storyboard Sound Samples

[TimingPoints]
1697,352.941176470588,4,1,0,100,1,0
61652,352.941176470588,4,1,0,100,1,0
61652,-66.6666666666667,4,1,0,100,0,1
88475,352.941176470588,4,1,0,100,1,0

[HitObjects]
272,192,1697,5,4,0:0:0:0:
288,212,2049,1,0,0:0:0:0:
292,232,2226,1,0,0:0:0:0:
292,232,2402,1,2,0:0:0:0:
300,224,2755,1,2,0:0:0:0:
272,224,3020,1,4,0:0:0:0:
288,252,3108,1,4,0:0:0:0:
272,224,3196,1,4,0:0:0:0:
292,232,3638,1,4,0:0:0:0:
288,220,3726,1,0,0:0:0:0:
288,220,3814,1,0,0:0:0:0:
276,232,4167,1,0,0:0:0:0:
252,232,4520,5,6,0:0:0:0:
248,220,4785,1,0,0:0:0:0:
264,224,5049,1,0,0:0:0:0:
256,236,5226,1,2,0:0:0:0:
264,224,5932,1,2,0:0:0:0:
256,200,6461,1,4,0:0:0:0:
256,200,6549,1,0,0:0:0:0:
256,200,6638,1,2,0:0:0:0:
264,200,6902,1,2,0:0:0:0:
236,188,7167,1,0,0:0:0:0:
260,192,7344,1,2,0:0:0:0:
260,184,7696,1,4,0:0:0:0:
276,192,8049,1,2,0:0:0:0:
276,200,8402,1,4,0:0:0:0:
256,192,8755,1,2,0:0:0:0:
256,192,8932,1,0,0:0:0:0:
256,192,9108,1,2,0:0:0:0:
256,192,9285,1,0,0:0:0:0:
256,192,9461,1,2,0:0:0:0:
252,200,9814,1,2,0:0:0:0:
256,192,10344,1,0,0:0:0:0:
260,188,10520,1,2,0:0:0:0:
260,188,10696,1,0,0:0:0:0:
264,184,11049,1,0,0:0:0:0:
288,176,11226,1,2,0:0:0:0:
252,200,11579,1,4,0:0:0:0:
272,188,11844,1,4,0:0:0:0:
252,184,12108,1,4,0:0:0:0:
248,188,12285,1,6,0:0:0:0:
260,200,12638,1,0,0:0:0:0:
260,200,12814,1,0,0:0:0:0:
260,216,12902,1,2,0:0:0:0:
260,200,12991,1,0,0:0:0:0:
280,204,13344,1,0,0:0:0:0:
264,220,13520,1,0,0:0:0:0:
268,220,13608,1,2,0:0:0:0:
268,220,13696,1,0,0:0:0:0:
264,188,14049,1,2,0:0:0:0:
264,184,14226,1,2,0:0:0:0:
256,200,14314,1,2,0:0:0:0:
260,200,14403,1,2,0:0:0:0:
256,192,14755,12,0,15814,0:0:0:0:
260,196,16167,5,2,0:0:0:0:
260,196,16344,1,0,0:0:0:0:
244,192,16432,1,2,0:0:0:0:
260,196,16520,1,0,0:0:0:0:
260,196,16696,1,0,0:0:0:0:
264,188,17049,1,0,0:0:0:0:
272,196,17226,1,2,0:0:0:0:
260,196,17579,1,0,0:0:0:0:
260,196,17667,1,2,0:0:0:0:
252,196,17755,1,0,0:0:0:0:
272,216,17844,1,2,0:0:0:0:
240,180,18108,1,2,0:0:0:0:
248,208,18461,1,0,0:0:0:0:
260,224,18638,1,2,0:0:0:0:
260,200,18991,1,0,0:0:0:0:
248,196,19344,1,2,0:0:0:0:
248,196,19696,1,0,0:0:0:0:
256,196,20049,1,2,0:0:0:0:
256,204,20226,1,0,0:0:0:0:
256,204,20402,1,0,0:0:0:0:
256,204,20755,1,2,0:0:0:0:
256,204,21108,1,0,0:0:0:0:
256,204,21461,1,2,0:0:0:0:
256,204,21550,1,0,0:0:0:0:
252,196,21814,1,0,0:0:0:0:
248,172,22167,1,2,0:0:0:0:
248,172,22520,1,0,0:0:0:0:
240,156,22873,1,2,0:0:0:0:
248,172,22961,1,0,0:0:0:0:
256,192,23226,1,0,0:0:0:0:
268,228,23402,1,0,0:0:0:0:
240,184,23579,1,2,0:0:0:0:
272,224,23755,1,0,0:0:0:0:
248,188,23932,1,0,0:0:0:0:
224,172,24285,1,6,0:0:0:0:
228,216,24461,1,4,0:0:0:0:
224,188,24638,1,4,0:0:0:0:
240,224,24814,1,4,0:0:0:0:
240,224,24991,1,6,0:0:0:0:
256,184,25167,1,4,0:0:0:0:
256,204,25344,1,4,0:0:0:0:
256,212,25520,1,4,0:0:0:0:
256,212,25608,1,4,0:0:0:0:
256,212,25696,1,6,0:0:0:0:
256,212,25873,1,4,0:0:0:0:
296,224,26226,1,4,0:0:0:0:
248,196,26402,1,6,0:0:0:0:
456,296,27108,2,0,L|260:172,1,210
260,200,28344,1,0,0:0:0:0:
260,200,28696,1,0,0:0:0:0:
264,196,28873,1,2,0:0:0:0:
260,200,29049,1,0,0:0:0:0:
260,200,29579,1,0,0:0:0:0:
260,200,29755,1,0,0:0:0:0:
252,192,29932,1,2,0:0:0:0:
252,208,30285,1,0,0:0:0:0:
252,208,30638,1,2,0:0:0:0:
252,208,30814,1,0,0:0:0:0:
252,208,31167,1,0,0:0:0:0:
264,188,32049,1,2,0:0:0:0:
264,188,32314,1,0,0:0:0:0:
264,208,32402,1,0,0:0:0:0:
268,204,32579,1,0,0:0:0:0:
416,284,32755,2,0,L|152:140,1,280
252,220,33814,1,2,0:0:0:0:
252,220,33991,1,2,0:0:0:0:
256,196,34873,1,0,0:0:0:0:
256,196,35226,1,0,0:0:0:0:
256,196,35579,1,2,0:0:0:0:
256,196,35932,1,2,0:0:0:0:
256,196,36285,1,2,0:0:0:0:
256,196,36638,1,4,0:0:0:0:
256,208,36991,1,4,0:0:0:0:
256,208,37167,1,4,0:0:0:0:
256,192,37696,1,0,0:0:0:0:
256,192,37785,1,2,0:0:0:0:
256,192,37873,1,0,0:0:0:0:
260,216,38402,1,4,0:0:0:0:
260,216,38755,1,2,0:0:0:0:
260,216,38932,1,0,0:0:0:0:
260,216,39108,1,0,0:0:0:0:
260,216,39461,1,2,0:0:0:0:
272,228,39726,1,0,0:0:0:0:
260,216,39814,1,0,0:0:0:0:
272,228,39991,1,0,0:0:0:0:
272,228,40167,1,2,0:0:0:0:
268,228,40344,1,0,0:0:0:0:
272,228,40873,1,2,0:0:0:0:
260,200,41049,1,0,0:0:0:0:
256,188,41226,1,2,0:0:0:0:
296,192,41402,1,0,0:0:0:0:
288,224,41755,1,0,0:0:0:0:
268,184,42108,1,2,0:0:0:0:
256,208,42373,1,0,0:0:0:0:
260,232,42461,1,2,0:0:0:0:
248,208,42549,1,0,0:0:0:0:
252,208,42726,1,2,0:0:0:0:
292,244,43167,1,2,0:0:0:0:
264,232,43608,1,0,0:0:0:0:
264,252,43696,1,0,0:0:0:0:
264,232,43785,1,0,0:0:0:0:
264,220,43873,1,0,0:0:0:0:
264,232,44049,1,2,0:0:0:0:
264,232,44314,1,4,0:0:0:0:
256,220,44579,1,4,0:0:0:0:
276,224,45285,1,0,0:0:0:0:
276,216,45461,1,2,0:0:0:0:
276,224,45726,1,4,0:0:0:0:
368,240,45991,2,0,L|56:40,1,350
276,236,47049,1,0,0:0:0:0:
264,228,47226,1,2,0:0:0:0:
260,240,47402,1,0,0:0:0:0:
248,296,47579,1,2,0:0:0:0:
264,236,47844,1,0,0:0:0:0:
260,244,48108,1,0,0:0:0:0:
260,240,48285,1,2,0:0:0:0:
256,192,48461,12,0,49520,0:0:0:0:
256,196,49696,5,4,0:0:0:0:
248,184,49961,1,2,0:0:0:0:
216,136,50226,1,0,0:0:0:0:
216,136,50402,1,4,0:0:0:0:
216,136,50667,1,2,0:0:0:0:
216,240,50932,1,0,0:0:0:0:
276,208,51108,1,4,0:0:0:0:
264,188,51373,1,2,0:0:0:0:
264,208,51638,1,0,0:0:0:0:
256,224,51814,1,6,0:0:0:0:
248,252,52079,1,2,0:0:0:0:
248,252,52344,1,2,0:0:0:0:
280,256,52520,1,0,0:0:0:0:
260,240,52961,1,0,0:0:0:0:
280,256,53049,1,0,0:0:0:0:
280,256,53138,1,2,0:0:0:0:
280,256,53402,1,4,0:0:0:0:
244,180,53667,1,0,0:0:0:0:
244,180,53755,1,0,0:0:0:0:
244,180,53844,1,2,0:0:0:0:
224,192,54108,1,4,0:0:0:0:
280,240,54461,1,4,0:0:0:0:
240,192,54638,1,0,0:0:0:0:
232,216,54902,1,0,0:0:0:0:
232,216,55079,1,0,0:0:0:0:
284,292,55255,1,2,0:0:0:0:
232,224,55344,1,2,0:0:0:0:
232,224,55432,1,2,0:0:0:0:
232,224,55520,1,2,0:0:0:0:
216,180,55873,1,0,0:0:0:0:
228,200,56049,1,2,0:0:0:0:
224,192,56314,1,0,0:0:0:0:
228,200,56402,1,0,0:0:0:0:
228,200,56579,1,0,0:0:0:0:
228,200,56755,1,2,0:0:0:0:
252,208,57020,1,0,0:0:0:0:
252,208,57108,1,0,0:0:0:0:
248,188,57285,1,0,0:0:0:0:
248,208,57461,1,2,0:0:0:0:
248,208,57726,1,0,0:0:0:0:
252,208,57814,1,0,0:0:0:0:
252,208,57991,1,0,0:0:0:0:
248,208,58167,1,2,0:0:0:0:
248,208,58432,1,0,0:0:0:0:
248,208,58608,1,2,0:0:0:0:
256,224,58785,1,2,0:0:0:0:
284,220,59226,1,0,0:0:0:0:
256,216,59402,1,2,0:0:0:0:
256,216,59579,1,0,0:0:0:0:
256,216,59755,1,2,0:0:0:0:
256,216,59932,1,0,0:0:0:0:
248,184,60108,1,2,0:0:0:0:
248,188,60285,1,0,0:0:0:0:
232,212,60549,1,2,0:0:0:0:
280,252,60638,1,2,0:0:0:0:
280,252,60902,1,0,0:0:0:0:
280,252,61079,1,0,0:0:0:0:
280,252,61255,1,0,0:0:0:0:
280,252,61432,1,0,0:0:0:0:
200,216,61652,1,6,0:0:0:0:
200,216,61828,1,0,0:0:0:0:
200,216,62004,1,0,0:0:0:0:
200,216,62181,1,0,0:0:0:0:
236,232,62357,1,6,0:0:0:0:
236,232,62534,1,0,0:0:0:0:
244,272,62710,1,0,0:0:0:0:
244,272,62887,1,0,0:0:0:0:
244,272,63063,1,6,0:0:0:0:
244,272,63240,1,0,0:0:0:0:
244,272,63416,1,0,0:0:0:0:
244,272,63504,1,0,0:0:0:0:
244,272,63593,1,0,0:0:0:0:
244,272,63769,1,6,0:0:0:0:
244,272,63946,1,0,0:0:0:0:
244,272,64122,1,0,0:0:0:0:
244,272,64299,1,0,0:0:0:0:
244,272,64475,1,6,0:0:0:0:
244,272,64740,1,6,0:0:0:0:
244,272,65004,1,6,0:0:0:0:
244,272,65181,1,0,0:0:0:0:
244,272,65357,1,0,0:0:0:0:
244,272,65534,1,0,0:0:0:0:
244,272,65710,1,0,0:0:0:0:
244,272,65887,1,6,0:0:0:0:
284,248,65975,1,0,0:0:0:0:
284,248,66416,1,0,0:0:0:0:
284,248,66504,1,0,0:0:0:0:
284,248,66593,1,2,0:0:0:0:
284,248,66857,1,0,0:0:0:0:
260,200,67122,1,0,0:0:0:0:
264,208,67299,1,2,0:0:0:0:
268,208,67475,1,0,0:0:0:0:
268,208,67652,1,0,0:0:0:0:
268,208,67828,1,0,0:0:0:0:
268,208,67916,1,0,0:0:0:0:
268,208,68004,1,2,0:0:0:0:
264,208,68269,1,0,0:0:0:0:
268,208,68534,1,0,0:0:0:0:
240,216,68710,1,2,0:0:0:0:
268,208,68887,1,0,0:0:0:0:
268,216,69063,1,0,0:0:0:0:
268,216,69240,1,0,0:0:0:0:
264,216,69416,1,2,0:0:0:0:
280,264,69681,1,2,0:0:0:0:
264,256,70034,1,2,0:0:0:0:
280,264,70122,1,2,0:0:0:0:
264,256,70299,1,0,0:0:0:0:
224,248,70475,1,2,0:0:0:0:
240,252,70828,1,2,0:0:0:0:
264,244,71181,1,2,0:0:0:0:
264,244,71357,1,0,0:0:0:0:
264,244,71534,1,2,0:0:0:0:
264,244,71710,1,0,0:0:0:0:
264,244,71799,1,0,0:0:0:0:
264,244,71887,1,2,0:0:0:0:
264,244,71975,1,0,0:0:0:0:
264,244,72152,1,0,0:0:0:0:
248,236,72240,1,2,0:0:0:0:
248,236,72416,1,0,0:0:0:0:
248,236,72593,1,2,0:0:0:0:
248,236,72769,1,0,0:0:0:0:
248,236,72946,1,6,0:0:0:0:
248,236,73210,1,0,0:0:0:0:
248,236,73475,1,0,0:0:0:0:
248,236,73652,1,6,0:0:0:0:
248,236,73828,1,0,0:0:0:0:
248,236,74004,1,0,0:0:0:0:
248,236,74181,1,0,0:0:0:0:
248,236,74357,1,6,0:0:0:0:
256,208,74534,1,0,0:0:0:0:
256,208,74710,1,0,0:0:0:0:
256,208,74887,1,0,0:0:0:0:
244,248,75063,1,6,0:0:0:0:
256,208,75240,1,0,0:0:0:0:
240,260,75416,1,0,0:0:0:0:
240,260,75593,1,0,0:0:0:0:
264,224,75769,1,6,0:0:0:0:
264,224,76034,1,6,0:0:0:0:
264,224,76299,1,6,0:0:0:0:
264,224,76475,1,2,0:0:0:0:
268,232,76651,1,0,0:0:0:0:
268,232,76828,1,0,0:0:0:0:
268,232,76916,1,0,0:0:0:0:
268,232,77004,1,0,0:0:0:0:
268,232,77181,1,2,0:0:0:0:
268,232,77357,1,0,0:0:0:0:
268,232,77534,1,0,0:0:0:0:
268,232,77710,1,0,0:0:0:0:
268,232,77799,1,0,0:0:0:0:
268,232,77887,1,2,0:0:0:0:
268,232,78151,1,0,0:0:0:0:
280,216,78416,1,0,0:0:0:0:
280,212,78504,1,0,0:0:0:0:
280,212,78593,1,2,0:0:0:0:
280,212,78857,1,0,0:0:0:0:
280,212,78946,1,2,0:0:0:0:
280,216,79299,1,4,0:0:0:0:
280,212,79563,1,0,0:0:0:0:
280,212,79651,1,2,0:0:0:0:
280,224,80004,1,4,0:0:0:0:
280,224,80181,1,2,0:0:0:0:
280,224,80357,1,4,0:0:0:0:
280,224,80534,1,2,0:0:0:0:
280,224,80710,1,4,0:0:0:0:
280,224,81063,1,2,0:0:0:0:
300,208,81328,1,0,0:0:0:0:
300,208,81416,1,0,0:0:0:0:
300,208,81504,1,0,0:0:0:0:
272,224,81769,1,2,0:0:0:0:
272,224,81946,1,0,0:0:0:0:
272,224,82122,1,2,0:0:0:0:
264,216,82299,1,0,0:0:0:0:
288,236,82475,1,2,0:0:0:0:
288,236,82651,1,0,0:0:0:0:
288,236,82828,1,6,0:0:0:0:
288,236,83093,1,6,0:0:0:0:
288,236,83357,1,6,0:0:0:0:
288,236,83534,1,2,0:0:0:0:
288,236,83710,1,0,0:0:0:0:
288,236,83887,1,0,0:0:0:0:
288,236,84063,1,0,0:0:0:0:
288,236,84151,1,0,0:0:0:0:
288,236,84240,1,2,0:0:0:0:
280,228,84416,1,0,0:0:0:0:
272,276,84593,1,0,0:0:0:0:
272,276,84769,1,0,0:0:0:0:
268,196,84857,1,0,0:0:0:0:
272,276,84946,1,2,0:0:0:0:
272,276,85122,1,0,0:0:0:0:
280,228,85299,1,0,0:0:0:0:
276,236,85475,1,0,0:0:0:0:
276,236,85563,1,0,0:0:0:0:
276,236,85651,1,2,0:0:0:0:
256,192,85828,12,0,88475,2:2:0:0:
