osu file format v14

[General]
AudioFilename: audio.mp3
AudioLeadIn: 0
PreviewTime: 60461
Countdown: 0
SampleSet: Normal
StackLeniency: 0.8
Mode: 1
LetterboxInBreaks: 0
WidescreenStoryboard: 1

[Editor]
DistanceSpacing: 0.9
BeatDivisor: 4
GridSize: 4
TimelineZoom: 1

[Metadata]
Title:Future Strike (Tv Size)
TitleUnicode:Future Strike (Tv Size)
Artist:Yui Ogura
ArtistUnicode:Yui Ogura
Creator:YukiPlays
Version:Ikira's Futsuu
Source:Vivid Strike
Tags:Vivid Strike Opening Tv Size
BeatmapID:1416344
BeatmapSetID:668139

[Difficulty]
HPDrainRate:5
CircleSize:2
OverallDifficulty:5
ApproachRate:6
SliderMultiplier:1.46799994659424
SliderTickRate:1

[Events]
//Background and Video events
Video,0,"vid.mp4"
0,0,"thumb-1920-743922.png",0,0
//Break Periods
//Storyboard Layer 0 (Background)
//Storyboard Layer 1 (Fail)
//Storyboard Layer 2 (Pass)
//Storyboard Layer 3 (Foreground)
//Storyboard Sound Samples

[TimingPoints]
1697,352.941176470588,4,1,0,100,1,0
61652,352.941176470588,4,1,0,100,1,1
88475,352.941176470588,4,1,0,100,1,0

[HitObjects]
47,323,1697,6,0,P|80:252|272:124,1,293.599989318848
192,152,3461,1,0,0:0:0:0:
420,116,3814,1,2,0:0:0:0:
208,152,4167,1,0,0:0:0:0:
356,160,4520,2,0,L|40:220,1,293.599989318848
272,244,6285,1,0,0:0:0:0:
252,192,6461,1,0,0:0:0:0:
192,228,6638,1,2,0:0:0:0:
96,165,6991,5,0,0:0:0:0:
200,288,7344,1,4,0:0:0:0:
200,288,7696,1,6,0:0:0:0:
205,72,8049,1,0,0:0:0:0:
352,232,8402,1,4,0:0:0:0:
208,208,8755,1,6,0:0:0:0:
256,200,8932,1,0,0:0:0:0:
248,192,9108,1,0,0:0:0:0:
248,192,9461,1,0,0:0:0:0:
136,199,9814,1,0,0:0:0:0:
248,192,10167,1,2,0:0:0:0:
248,192,10520,1,0,0:0:0:0:
248,192,10873,1,2,0:0:0:0:
248,192,11226,1,0,0:0:0:0:
224,212,11579,1,2,0:0:0:0:
212,204,11932,1,0,0:0:0:0:
260,196,12285,1,0,0:0:0:0:
260,196,12461,1,0,0:0:0:0:
260,196,12638,1,0,0:0:0:0:
260,196,12991,1,2,0:0:0:0:
260,196,13344,1,0,0:0:0:0:
260,196,13696,1,2,0:0:0:0:
260,196,14049,1,0,0:0:0:0:
256,192,14402,12,0,15461,0:0:0:0:
268,204,15814,5,6,0:0:0:0:
280,220,16167,1,0,0:0:0:0:
280,220,16520,1,2,0:0:0:0:
280,220,16873,1,0,0:0:0:0:
280,220,17226,1,2,0:0:0:0:
280,220,17579,1,0,0:0:0:0:
280,220,17932,1,2,0:0:0:0:
280,220,18285,1,0,0:0:0:0:
280,220,18638,1,6,0:0:0:0:
280,220,18991,1,0,0:0:0:0:
280,220,19344,1,2,0:0:0:0:
280,220,19696,1,0,0:0:0:0:
280,220,20049,1,6,0:0:0:0:
280,220,20402,1,6,0:0:0:0:
280,220,20755,1,4,0:0:0:0:
280,220,21461,1,6,0:0:0:0:
280,220,21814,1,0,0:0:0:0:
272,212,22167,1,2,0:0:0:0:
272,212,22520,1,0,0:0:0:0:
272,212,22873,1,2,0:0:0:0:
272,212,23226,1,0,0:0:0:0:
272,212,23579,1,2,0:0:0:0:
272,212,23932,1,0,0:0:0:0:
272,212,24285,1,6,0:0:0:0:
272,212,24638,1,0,0:0:0:0:
272,212,24991,1,6,0:0:0:0:
272,212,25344,1,0,0:0:0:0:
272,212,25696,1,6,0:0:0:0:
272,212,25961,1,2,0:0:0:0:
272,212,26226,1,0,0:0:0:0:
280,160,26402,1,4,0:0:0:0:
272,188,27108,1,0,2:2:0:0:
272,188,27814,1,0,2:2:0:0:
262,285,28432,1,0,0:0:0:0:
272,188,28696,1,2,0:0:0:0:
244,208,28873,1,0,0:0:0:0:
128,340,29049,1,2,0:0:0:0:
200,204,29579,1,0,0:0:0:0:
288,236,29755,1,0,0:0:0:0:
264,196,29932,1,2,0:0:0:0:
296,236,30285,1,0,0:0:0:0:
256,228,30461,1,2,0:0:0:0:
264,196,30638,1,0,0:0:0:0:
276,244,30991,1,0,0:0:0:0:
264,196,31344,1,4,0:0:0:0:
268,212,32138,1,0,0:0:0:0:
252,208,32402,1,2,0:0:0:0:
260,220,32579,1,0,0:0:0:0:
256,228,32755,1,2,0:0:0:0:
276,244,33108,1,0,0:0:0:0:
252,232,33461,1,2,0:0:0:0:
252,232,33814,1,0,0:0:0:0:
252,232,34167,1,2,0:0:0:0:
276,42,34873,1,0,0:0:0:0:
296,248,35138,1,2,0:0:0:0:
252,232,35402,1,0,0:0:0:0:
400,224,35579,2,0,L|232:176,1,146.799994659424
256,192,36638,1,0,0:0:0:0:
256,192,36991,1,2,0:0:0:0:
256,192,37167,1,0,0:0:0:0:
248,184,37696,1,0,0:0:0:0:
252,184,37873,1,2,0:0:0:0:
248,200,38402,1,4,0:0:0:0:
153,109,38755,5,2,0:0:0:0:
256,208,39108,1,0,0:0:0:0:
107,245,39461,1,2,0:0:0:0:
248,188,39814,1,0,0:0:0:0:
252,192,39991,1,2,0:0:0:0:
248,188,40167,1,0,0:0:0:0:
248,188,40520,1,2,0:0:0:0:
244,180,40873,1,0,0:0:0:0:
256,236,41049,1,2,0:0:0:0:
244,172,41226,1,0,0:0:0:0:
432,173,41579,1,2,0:0:0:0:
248,216,41932,1,0,0:0:0:0:
289,192,42285,1,2,0:0:0:0:
252,192,42638,1,0,0:0:0:0:
252,192,43344,1,0,0:0:0:0:
244,196,43520,1,2,0:0:0:0:
244,188,43696,1,0,0:0:0:0:
232,212,44049,1,0,0:0:0:0:
256,212,44402,1,0,0:0:0:0:
252,200,44667,1,6,0:0:0:0:
268,216,45285,1,0,0:0:0:0:
248,208,45461,1,0,0:0:0:0:
252,192,45726,1,0,0:0:0:0:
244,192,45991,1,6,0:0:0:0:
336,168,47049,1,2,0:0:0:0:
395,156,47226,1,2,0:0:0:0:
248,192,47402,1,2,0:0:0:0:
204,160,47579,1,2,0:0:0:0:
244,216,47844,1,2,0:0:0:0:
256,224,48108,1,2,0:0:0:0:
256,192,48285,12,0,49344,0:0:0:0:
260,196,49696,5,2,0:0:0:0:
260,208,50226,1,0,0:0:0:0:
260,188,50402,1,2,0:0:0:0:
236,192,50932,1,0,0:0:0:0:
256,200,51108,1,2,0:0:0:0:
288,248,51638,1,2,0:0:0:0:
248,196,51814,1,0,0:0:0:0:
250,332,52079,1,2,0:0:0:0:
256,200,52344,1,2,0:0:0:0:
252,260,53226,1,0,0:0:0:0:
232,204,53932,1,0,0:0:0:0:
272,240,54461,1,0,0:0:0:0:
280,244,54638,1,2,0:0:0:0:
233,282,54902,1,0,0:0:0:0:
288,212,55167,2,0,L|160:140,1,146.799994659424
252,196,56402,1,6,0:0:0:0:
268,204,57108,1,4,0:0:0:0:
256,232,57461,1,0,0:0:0:0:
256,232,57638,1,0,0:0:0:0:
256,232,57814,1,2,0:0:0:0:
256,168,58167,1,0,0:0:0:0:
264,192,58432,1,0,0:0:0:0:
280,224,58696,1,2,0:0:0:0:
256,192,58873,12,0,60461,0:0:0:0:
260,192,61652,5,4,0:0:0:0:
260,192,62004,1,2,0:0:0:0:
260,192,62357,1,0,0:0:0:0:
260,192,62710,1,2,0:0:0:0:
260,220,62887,1,0,0:0:0:0:
260,192,63063,1,0,0:0:0:0:
264,200,63416,1,2,0:0:0:0:
264,200,63769,1,0,0:0:0:0:
268,220,63946,1,0,0:0:0:0:
264,200,64122,1,2,0:0:0:0:
80,328,64475,1,0,0:0:0:0:
260,216,64828,1,2,0:0:0:0:
0,208,65181,1,0,0:0:0:0:
280,232,65534,1,2,0:0:0:0:
280,264,65710,1,0,0:0:0:0:
120,129,65887,1,0,0:0:0:0:
272,156,66240,1,2,0:0:0:0:
296,208,66593,1,0,0:0:0:0:
280,276,66769,1,0,0:0:0:0:
296,208,66946,1,2,0:0:0:0:
296,208,67299,1,4,0:0:0:0:
180,6,67652,1,0,0:0:0:0:
288,216,67828,1,2,0:0:0:0:
284,220,68181,1,2,0:0:0:0:
280,248,68357,1,0,0:0:0:0:
280,228,68710,1,4,0:0:0:0:
280,236,69416,1,0,0:0:0:0:
280,148,69769,1,2,0:0:0:0:
276,228,70122,1,0,0:0:0:0:
264,236,70828,1,0,0:0:0:0:
264,236,71181,1,6,0:0:0:0:
264,236,71357,1,6,0:0:0:0:
264,236,71534,1,6,0:0:0:0:
264,236,71710,1,6,0:0:0:0:
248,224,71887,1,6,0:0:0:0:
248,224,72063,1,6,0:0:0:0:
256,232,72240,1,6,0:0:0:0:
256,232,72416,1,6,0:0:0:0:
256,232,72593,1,6,0:0:0:0:
256,232,72946,1,4,0:0:0:0:
280,240,73299,1,2,0:0:0:0:
19,88,73652,5,0,0:0:0:0:
288,208,74004,5,2,0:0:0:0:
256,228,74181,1,0,0:0:0:0:
256,228,74357,1,0,0:0:0:0:
260,260,74710,1,2,0:0:0:0:
256,280,75063,1,0,0:0:0:0:
256,280,75240,1,0,0:0:0:0:
256,280,75416,1,2,0:0:0:0:
276,216,75769,1,0,0:0:0:0:
471,25,76122,1,2,0:0:0:0:
252,240,76475,1,4,0:0:0:0:
272,256,77181,1,4,0:0:0:0:
200,204,77710,1,4,0:0:0:0:
275,147,77887,5,2,0:0:0:0:
252,240,78063,1,0,0:0:0:0:
244,240,78416,1,0,0:0:0:0:
300,184,78593,1,2,0:0:0:0:
248,192,78946,1,4,0:0:0:0:
280,216,79651,1,2,0:0:0:0:
248,196,80004,1,2,0:0:0:0:
264,208,80357,1,0,0:0:0:0:
264,208,80710,1,2,0:0:0:0:
276,196,80887,1,0,0:0:0:0:
276,200,81240,1,0,0:0:0:0:
276,200,81416,1,2,0:0:0:0:
264,224,81769,1,0,0:0:0:0:
191,182,82122,5,2,0:0:0:0:
240,232,82475,1,0,0:0:0:0:
276,200,82828,1,2,0:0:0:0:
280,216,83534,1,2,0:0:0:0:
277,69,83887,1,0,0:0:0:0:
280,224,84063,1,0,0:0:0:0:
292,200,84240,1,2,0:0:0:0:
280,236,84593,1,0,0:0:0:0:
280,224,84769,1,0,0:0:0:0:
280,236,84946,1,2,0:0:0:0:
276,224,85299,1,0,0:0:0:0:
276,224,85475,1,0,0:0:0:0:
260,208,85651,1,6,0:0:0:0:
256,192,85828,12,0,88475,0:0:0:0:
