osu file format v14

[General]
AudioFilename: audio.mp3
AudioLeadIn: 0
PreviewTime: 60461
Countdown: 0
SampleSet: Soft
StackLeniency: 0.7
Mode: 0
LetterboxInBreaks: 0
WidescreenStoryboard: 1

[Editor]
DistanceSpacing: 1.6
BeatDivisor: 4
GridSize: 4
TimelineZoom: 1

[Metadata]
Title:Future Strike (Tv Size)
TitleUnicode:Future Strike (Tv Size)
Artist:Yui Ogura
ArtistUnicode:Yui Ogura
Creator:YukiPlays
Version:Hard
Source:Vivid Strike
Tags:Vivid Strike Opening Tv Size
BeatmapID:1413651
BeatmapSetID:668139

[Difficulty]
HPDrainRate:5
CircleSize:3.8
OverallDifficulty:5
ApproachRate:8
SliderMultiplier:1.2
SliderTickRate:1

[Events]
//Background and Video events
0,0,"1481419547754.png",0,0
Video,0,"vid.mp4"
//Break Periods
//Storyboard Layer 0 (Background)
//Storyboard Layer 1 (Fail)
//Storyboard Layer 2 (Pass)
//Storyboard Layer 3 (Foreground)
//Storyboard Sound Samples

[TimingPoints]
1697,352.941176470588,4,2,0,100,1,0
27108,-133.333333333333,4,2,0,100,0,0
36991,-100,4,2,0,100,0,0
61696,352.941176470588,4,2,0,100,1,1
88519,352.941176470588,4,2,0,100,1,0

[HitObjects]
454,52,1697,5,2,0:0:0:0:
454,52,1873,2,0,P|453:95|410:169,1,120
355,235,2402,1,0,0:0:0:0:
69,196,3108,5,2,0:0:0:0:
69,196,3285,2,0,P|109:170|193:174,1,120
333,167,3991,1,0,0:0:0:0:
333,167,4167,2,0,L|304:227,1,60
257,303,4520,1,2,0:0:0:0:
226,211,4697,1,0,0:0:0:0:
171,132,4873,1,0,0:0:0:0:
108,59,5049,1,0,0:0:0:0:
108,59,5226,2,0,P|78:73|67:260,1,240,0|2,0:0|0:0,0:0:0:0:
315,264,6461,5,8,1:0:0:0:
315,264,6549,1,8,1:0:0:0:
315,264,6638,2,0,P|340:236|357:150,1,120,8|0,1:0|0:0,0:0:0:0:
309,77,7167,1,0,0:0:0:0:
241,144,7344,1,2,0:0:0:0:
162,319,7697,6,0,P|127:332|52:183,1,240
170,53,8755,6,0,L|218:107,1,60,2|0,0:0|0:0,0:0:0:0:
287,40,9108,2,0,L|332:93,1,60
270,164,9461,2,0,L|357:255,1,120
161,239,10167,5,2,0:0:0:0:
161,239,10344,2,0,P|131:195|129:163,2,60
228,308,10873,1,0,0:0:0:0:
261,218,11049,1,0,0:0:0:0:
327,286,11226,1,0,0:0:0:0:
362,196,11402,1,0,0:0:0:0:
362,196,11579,6,0,P|372:154|334:109,1,90,2|0,0:0|0:0,0:0:0:0:
230,33,12108,2,0,P|195:44|165:81,1,60
174,347,12814,5,8,1:0:0:0:
174,347,12902,1,8,1:0:0:0:
174,347,12991,1,10,1:0:0:0:
381,147,13520,5,8,1:0:0:0:
381,147,13608,1,8,1:0:0:0:
381,147,13697,1,8,1:0:0:0:
112,42,14226,5,8,1:0:0:0:
112,42,14314,1,8,1:0:0:0:
112,42,14402,1,10,1:0:0:0:
41,106,14579,6,0,P|29:150|79:206,1,120
243,291,15284,5,0,0:0:0:0:
319,233,15461,1,0,0:0:0:0:
241,176,15637,1,0,0:0:0:0:
319,120,15814,1,2,0:0:0:0:
319,120,15991,6,0,P|300:88|256:76,1,60
188,52,16344,1,0,0:0:0:0:
104,100,16520,2,0,P|80:140|80:160,2,60
188,52,17049,5,0,0:0:0:0:
244,132,17226,1,2,0:0:0:0:
180,204,17402,1,0,0:0:0:0:
258,259,17579,2,0,P|301:273|328:252,2,60
180,204,18108,1,0,0:0:0:0:
250,138,18285,1,0,0:0:0:0:
334,182,18461,5,0,0:0:0:0:
334,182,18638,2,8,L|382:202,2,30,10|8|8,1:0|1:0|1:0,1:0:0:0:
290,96,18991,2,8,L|260:83,2,30,8|8|8,1:0|1:0|1:0,1:0:0:0:
384,79,19344,2,8,L|423:99,2,30,8|8|8,1:0|1:0|1:0,1:0:0:0:
320,7,19696,2,8,L|291:-9,4,30,8|8|8|8|10,1:0|1:0|1:0|1:0|1:0,1:0:0:0:
446,152,20402,5,8,1:0:0:0:
329,304,20755,1,8,1:0:0:0:
329,304,20932,2,0,L|270:268,1,60
281,176,21285,2,0,L|223:142,1,60,0|2,0:0|0:0,0:0:0:0:
54,225,21814,5,8,1:0:0:0:
54,225,21991,2,8,L|88:249,2,30,8|8|8,1:0|1:0|1:0,1:0:0:0:
119,154,22344,1,8,1:0:0:0:
207,323,22696,6,0,P|239:341|276:314,1,60,0|10,0:0|1:0,0:0:0:0:
369,177,23226,6,8,L|402:159,4,30,8|8|8|8|8,1:0|1:0|1:0|1:0|1:0,1:0:0:0:
278,144,23755,1,8,1:0:0:0:
210,74,23932,1,0,0:0:0:0:
160,155,24108,5,8,1:0:0:0:
160,155,24285,2,8,L|129:184,2,30,10|8|8,1:0|1:0|1:0,1:0:0:0:
256,151,24638,2,8,L|283:119,2,30,8|8|8,1:0|1:0|1:0,1:0:0:0:
275,245,24991,2,8,L|256:271,2,30,8|8|8,1:0|1:0|1:0,1:0:0:0:
368,222,25344,2,8,L|392:186,4,30,8|8|8|8|10,1:0|1:0|1:0|1:0|1:0,1:0:0:0:
490,73,26049,5,8,1:0:0:0:
490,73,26226,2,8,P|439:97|413:107,1,60,8|8,1:0|1:0,1:0:0:0:
348,138,26579,1,0,0:0:0:0:
282,68,26755,1,0,0:0:0:0:
282,68,26932,2,0,P|239:46|200:40,1,60,0|2,0:0|0:0,0:0:0:0:
99,216,27638,5,0,0:0:0:0:
203,314,27991,2,0,L|269:315,1,45.0000017166138
248,242,28344,2,0,L|141:241,1,90.0000034332277
101,195,28873,1,0,0:0:0:0:
149,141,29049,2,0,L|294:142,1,135.000005149841
356,140,29755,5,0,0:0:0:0:
412,94,29932,1,2,0:0:0:0:
353,52,30108,2,0,P|287:47|263:76,1,90.0000034332277
164,155,30814,1,0,0:0:0:0:
243,275,31167,1,0,0:0:0:0:
243,275,31344,6,0,L|198:320,1,45.0000017166138,2|0,0:0|0:0,0:0:0:0:
163,253,31696,2,0,L|207:212,1,45.0000017166138
150,168,32049,6,0,L|78:238,1,90.0000034332277
12,229,32579,1,0,0:0:0:0:
35,161,32755,2,0,P|53:128|185:68,1,180.000006866455,2|0,0:0|0:0,0:0:0:0:
315,103,33814,1,0,0:0:0:0:
315,103,33991,1,0,0:0:0:0:
315,103,34167,6,0,L|368:141,1,45.0000017166138,2|0,0:0|0:0,0:0:0:0:
306,185,34520,2,0,L|264:153,1,45.0000017166138
218,107,34873,6,0,P|185:94|133:110,1,90.0000034332277
98,171,35402,1,0,0:0:0:0:
145,225,35579,2,0,L|233:280,1,90.0000034332277,2|0,0:0|0:0,0:0:0:0:
306,156,36285,2,0,L|223:104,1,90.0000034332277
45,53,36991,5,2,0:0:0:0:
114,118,37167,1,0,0:0:0:0:
114,118,37696,5,0,0:0:0:0:
174,43,37873,1,0,0:0:0:0:
410,207,38402,6,0,P|393:246|368:269,1,60,2|0,0:0|0:0,0:0:0:0:
301,312,38755,1,0,0:0:0:0:
295,215,38932,1,0,0:0:0:0:
211,261,39108,1,0,0:0:0:0:
204,164,39285,2,0,L|144:208,1,60
84,264,39638,6,0,P|56:253|58:165,1,120
119,108,40167,1,0,0:0:0:0:
208,73,40344,2,0,B|249:52|263:81|263:81|325:88,1,120
385,157,40873,1,0,0:0:0:0:
301,203,41049,5,0,0:0:0:0:
367,272,41226,1,2,0:0:0:0:
367,272,41402,2,0,B|336:309|306:282|306:282|237:293,1,120
70,246,42108,1,0,0:0:0:0:
140,67,42461,1,0,0:0:0:0:
257,218,42814,5,0,0:0:0:0:
330,40,43167,1,0,0:0:0:0:
452,188,43520,5,8,0:0:0:0:
452,188,43608,1,8,0:0:0:0:
452,188,43696,1,8,0:0:0:0:
452,188,43785,1,8,0:0:0:0:
452,188,43873,2,8,L|427:223,2,30,8|8|10,0:0|0:0|0:0,0:0:0:0:
485,97,44226,2,0,P|469:56|432:48,2,60
388,263,44932,5,0,0:0:0:0:
388,263,45108,1,0,0:0:0:0:
388,263,45285,2,0,L|327:315,2,60,0|2|0,0:0|0:0|0:0,0:0:0:0:
433,178,45814,1,0,0:0:0:0:
383,95,45991,2,0,P|355:66|177:106,1,240
91,269,47049,5,0,0:0:0:0:
162,333,47226,1,0,0:0:0:0:
186,240,47402,1,0,0:0:0:0:
186,240,47579,2,0,P|207:204|261:157,1,90
354,80,48108,1,0,0:0:0:0:
271,30,48285,2,0,P|241:18|81:127,1,240,2|0,0:0|0:0,0:0:0:0:
92,211,49167,5,0,0:0:0:0:
164,148,49344,1,0,0:0:0:0:
173,243,49520,6,0,P|192:293|218:306,1,60,0|2,0:0|0:0,0:0:0:0:
336,324,49961,1,0,0:0:0:0:
431,215,50226,6,0,P|442:186|428:159,1,60
318,70,50667,1,0,0:0:0:0:
303,213,50932,6,0,P|290:255|257:278,1,60,0|2,0:0|0:0,0:0:0:0:
147,324,51373,1,0,0:0:0:0:
70,201,51638,5,0,0:0:0:0:
70,201,51814,1,0,0:0:0:0:
123,67,52079,2,0,P|167:51|214:74,1,90
167,154,52520,1,2,0:0:0:0:
374,274,52961,6,0,P|396:240|396:195,1,60
302,113,53403,1,0,0:0:0:0:
236,241,53667,6,0,P|213:282|187:295,1,60
59,284,54108,1,0,0:0:0:0:
102,96,54461,5,0,0:0:0:0:
102,96,54638,2,0,P|136:82|189:130,2,90
49,280,55520,5,8,0:0:0:0:
49,280,55608,1,8,0:0:0:0:
49,280,55696,1,8,0:0:0:0:
123,340,55873,5,0,0:0:0:0:
123,340,56049,2,0,P|167:324|215:259,1,120
468,44,57108,5,0,0:0:0:0:
122,206,57814,5,0,0:0:0:0:
192,271,57991,5,8,0:0:0:0:
192,271,58079,1,8,0:0:0:0:
192,271,58167,2,0,P|229:284|281:279,2,90,10|0|0,0:0|0:0|0:0,0:0:0:0:
115,213,58873,6,0,P|92:167|160:132,1,120
262,272,59579,2,0,P|318:245|308:195,1,120,2|0,0:0|0:0,0:0:0:0:
194,41,60285,1,0,0:0:0:0:
194,41,60461,1,0,0:0:0:0:
52,337,61696,6,0,L|121:305,1,60,2|0,0:0|0:0,0:0:0:0:
187,261,62048,1,0,1:0:0:0:
96,226,62225,1,0,0:0:0:0:
174,171,62401,1,2,0:0:0:0:
261,211,62578,2,0,P|296:222|327:200,1,60,0|0,0:0|1:0,0:0:0:0:
386,147,62931,2,0,P|397:111|378:91,1,60,0|2,0:0|0:0,0:0:0:0:
294,62,63284,6,0,P|257:70|232:107,1,60,0|0,0:0|1:0,0:0:0:0:
162,139,63637,1,0,0:0:0:0:
74,310,63990,2,0,L|114:234,1,60,0|0,0:0|1:0,0:0:0:0:
146,170,64343,1,0,0:0:0:0:
222,113,64519,1,2,0:0:0:0:
243,206,64696,1,0,0:0:0:0:
265,299,64872,2,0,L|342:300,1,60,0|0,1:0|0:0,0:0:0:0:
328,203,65225,2,0,P|281:203|326:84,1,240,2|2,0:0|0:0,0:0:0:0:
409,118,66107,5,0,0:0:0:0:
350,194,66284,1,0,1:0:0:0:
268,143,66460,1,0,0:0:0:0:
217,225,66637,1,2,0:0:0:0:
141,165,66813,2,0,P|113:146|51:71,1,120
129,16,67343,5,2,0:0:0:0:
307,104,67696,2,0,L|381:143,1,60,0|0,1:0|0:0,0:0:0:0:
412,316,68225,1,0,0:0:0:0:
129,263,68754,6,0,L|129:182,1,60,2|0,0:0|0:0,0:0:0:0:
187,126,69107,2,0,L|189:199,1,60,0|0,1:0|0:0,0:0:0:0:
191,282,69460,2,0,P|230:323|265:281,1,120,2|0,0:0|1:0,0:0:0:0:
397,146,70166,6,0,L|334:102,1,60,2|0,0:0|0:0,0:0:0:0:
268,57,70519,1,0,1:0:0:0:
264,153,70696,2,0,L|193:111,1,60,0|2,0:0|0:0,0:0:0:0:
132,69,71048,1,0,0:0:0:0:
125,165,71225,2,0,L|57:128,1,60,0|0,1:0|0:0,0:0:0:0:
156,308,71754,6,0,P|192:335|231:336,1,60,0|0,0:0|1:0,0:0:0:0:
300,318,72107,2,0,P|338:300|343:221,1,120
277,162,72637,1,0,1:0:0:0:
223,241,72813,1,0,0:0:0:0:
149,178,72990,6,0,P|130:148|184:90,1,120,2|0,0:0|1:0,0:0:0:0:
271,90,73519,1,0,0:0:0:0:
340,23,73696,1,2,0:0:0:0:
404,93,73872,1,0,0:0:0:0:
341,165,74048,2,0,L|341:247,1,60,0|0,1:0|0:0,0:0:0:0:
251,190,74401,1,2,0:0:0:0:
251,190,74578,6,0,P|215:177|134:194,1,120
26,350,75284,1,0,0:0:0:0:
26,350,75460,2,0,L|108:350,1,60,0|0,1:0|0:0,0:0:0:0:
177,321,75813,2,0,L|122:260,1,60
188,185,76166,1,0,1:0:0:0:
255,253,76343,1,0,0:0:0:0:
352,255,76519,2,0,P|395:233|305:115,1,240,2|2,0:0|0:0,0:0:0:0:
239,148,77401,5,0,0:0:0:0:
188,66,77578,1,0,1:0:0:0:
147,152,77754,2,0,L|146:232,1,60,0|2,0:0|0:0,0:0:0:0:
51,212,78107,2,0,L|51:142,1,60,0|0,0:0|1:0,0:0:0:0:
51,55,78460,2,0,P|76:32|126:29,1,60,0|2,0:0|0:0,0:0:0:0:
274,108,78990,5,0,1:0:0:0:
138,320,79695,5,0,1:0:0:0:
324,274,80048,6,0,L|369:225,1,60,2|0,0:0|0:0,0:0:0:0:
291,166,80401,2,0,L|247:219,1,60,0|0,1:0|0:0,0:0:0:0:
329,270,80754,2,0,L|346:207,1,60,2|0,0:0|0:0,0:0:0:0:
261,163,81107,2,0,L|246:232,1,60,0|0,1:0|0:0,0:0:0:0:
195,302,81460,5,2,0:0:0:0:
45,180,81813,1,0,1:0:0:0:
191,55,82166,1,2,0:0:0:0:
243,239,82519,1,0,1:0:0:0:
364,90,82872,5,2,0:0:0:0:
493,231,83225,1,0,1:0:0:0:
327,328,83578,1,2,0:0:0:0:
257,149,83931,1,0,1:0:0:0:
163,171,84107,5,0,0:0:0:0:
163,171,84195,1,0,0:0:0:0:
163,171,84284,1,2,0:0:0:0:
411,315,84813,5,0,0:0:0:0:
411,315,84901,1,0,0:0:0:0:
411,315,84990,1,2,0:0:0:0:
198,120,85519,5,0,0:0:0:0:
198,120,85607,1,0,0:0:0:0:
198,120,85695,1,2,0:0:0:0:
256,192,85784,12,2,88519,0:0:0:0:
