osu file format v14

[General]
AudioFilename: audio.mp3
AudioLeadIn: 0
PreviewTime: 60461
Countdown: 0
SampleSet: Soft
StackLeniency: 0.7
Mode: 0
LetterboxInBreaks: 0
WidescreenStoryboard: 1

[Editor]
DistanceSpacing: 1.6
BeatDivisor: 4
GridSize: 4
TimelineZoom: 1

[Metadata]
Title:Future Strike (Tv Size)
TitleUnicode:Future Strike (Tv Size)
Artist:Yui Ogura
ArtistUnicode:Yui Ogura
Creator:YukiPlays
Version:Rinne
Source:Vivid Strike
Tags:Vivid Strike Opening Tv Size
BeatmapID:1416511
BeatmapSetID:668139

[Difficulty]
HPDrainRate:6.4
CircleSize:4.4
OverallDifficulty:6
ApproachRate:9
SliderMultiplier:2
SliderTickRate:1

[Events]
//Background and Video events
0,0,"00056af4_358530.png",0,0
Video,0,"vid.mp4"
//Break Periods
//Storyboard Layer 0 (Background)
//Storyboard Layer 1 (Fail)
//Storyboard Layer 2 (Pass)
//Storyboard Layer 3 (Foreground)
//Storyboard Sound Samples

[TimingPoints]
461,352.941176470588,4,2,0,100,1,0
27108,-133.333333333333,4,2,0,100,0,0
36991,-100,4,2,0,100,0,0
46520,-133.333333333333,4,2,0,100,0,0
46873,-100,4,2,0,100,0,0
49696,-200,4,2,0,100,0,0
60461,-100,4,2,0,100,0,0
61696,352.941176470588,4,2,0,100,1,1
61696,-83.3333333333333,4,2,0,100,0,1
66813,-125,4,2,0,100,0,1
67343,-83.3333333333333,4,2,0,100,0,1
88519,352.941176470588,4,2,0,100,1,0

[HitObjects]
368,72,461,6,0,B|400:112|400:112|376:168,1,100
340,212,813,2,0,B|292:252|216:192|244:144|288:180|192:304,1,200
172,212,1343,1,0,0:0:0:0:
221,2,1519,1,0,0:0:0:0:
92,96,1696,2,0,B|248:56|248:136|248:192|364:180,1,300
499,107,2402,1,0,0:0:0:0:
483,266,2579,1,0,0:0:0:0:
357,180,2755,1,0,0:0:0:0:
297,32,2931,2,0,L|267:77,1,50
191,188,3108,1,0,0:0:0:0:
59,170,3285,2,0,P|39:220|125:332,1,200
191,188,3814,1,0,0:0:0:0:
308,313,3991,2,0,P|343:270|347:222,2,100
191,188,4519,2,0,B|248:84|280:187|341:186|376:84,1,200
298,27,5049,1,0,0:0:0:0:
444,41,5225,1,0,0:0:0:0:
458,88,5313,1,0,0:0:0:0:
459,138,5401,1,0,0:0:0:0:
447,187,5489,1,0,0:0:0:0:
424,230,5577,1,0,0:0:0:0:
389,266,5666,1,0,0:0:0:0:
347,292,5754,1,0,0:0:0:0:
299,306,5842,1,0,0:0:0:0:
249,307,5930,1,0,0:0:0:0:
315,183,6461,5,8,1:0:0:0:
315,183,6549,1,8,1:0:0:0:
315,183,6638,2,0,P|370:138|325:13,1,200,8|0,1:0|0:0,0:0:0:0:
226,133,7167,1,0,0:0:0:0:
125,18,7344,1,2,0:0:0:0:
62,298,7696,2,0,B|148:270|159:213|66:237|214:316,1,200
448,92,8402,2,0,B|362:120|351:177|444:153|296:74,1,200
381,20,8931,1,0,0:0:0:0:
297,157,9108,1,0,0:0:0:0:
213,20,9284,1,0,0:0:0:0:
112,143,9460,1,0,0:0:0:0:
97,190,9548,1,0,0:0:0:0:
100,240,9636,1,0,0:0:0:0:
120,286,9724,1,0,0:0:0:0:
153,322,9812,1,0,0:0:0:0:
197,346,9901,1,0,0:0:0:0:
247,353,9989,1,0,0:0:0:0:
295,343,10077,1,0,0:0:0:0:
338,317,10165,1,0,0:0:0:0:
419,245,10343,2,0,L|339:177,1,100
276,205,10696,2,0,P|271:109|360:107,1,200
417,251,11226,1,0,0:0:0:0:
354,102,11402,1,0,0:0:0:0:
201,51,11579,6,0,L|216:251,1,200,2|0,0:0|0:0,0:0:0:0:
346,344,12108,2,0,L|333:202,1,100
398,83,12461,1,8,1:0:0:0:
364,64,12549,1,8,1:0:0:0:
328,52,12638,1,8,1:0:0:0:
288,44,12726,1,8,1:0:0:0:
248,40,12814,1,8,1:0:0:0:
208,40,12902,1,8,1:0:0:0:
168,44,12991,2,0,P|104:60|36:172,1,200,10|0,1:0|0:0,0:0:0:0:
128,336,13520,5,8,1:0:0:0:
152,308,13608,1,8,1:0:0:0:
176,276,13696,1,8,1:0:0:0:
476,56,14226,5,8,1:0:0:0:
448,88,14314,1,8,1:0:0:0:
424,116,14402,2,0,P|384:152|248:168,2,150,10|0|0,1:0|0:0|0:0,0:0:0:0:
52,32,15285,5,0,0:0:0:0:
216,128,15461,1,0,0:0:0:0:
76,256,15638,1,0,0:0:0:0:
236,356,15814,1,2,0:0:0:0:
236,356,15991,2,0,P|296:344|326:306,1,100,0|8,0:0|1:0,0:0:0:0:
336,296,16255,1,8,1:0:0:0:
344,268,16344,1,8,1:0:0:0:
344,240,16432,1,8,1:0:0:0:
336,212,16520,1,8,1:0:0:0:
224,60,16696,2,0,P|180:28|88:140,1,200
184,264,17226,6,0,P|236:296|324:208,1,200,2|8,0:0|1:0,0:0:0:0:
324,188,17667,1,8,1:0:0:0:
324,156,17755,1,8,1:0:0:0:
324,128,17844,1,8,1:0:0:0:
324,100,17932,1,8,1:0:0:0:
505,44,18108,2,0,P|507:152|431:255,1,200
302,335,18638,5,2,0:0:0:0:
125,265,18814,5,8,1:0:0:0:
100,244,18902,1,8,1:0:0:0:
76,220,18991,1,8,1:0:0:0:
216,92,19167,5,8,1:0:0:0:
236,116,19255,1,8,1:0:0:0:
256,140,19344,1,8,1:0:0:0:
300,324,19520,5,8,1:0:0:0:
276,300,19608,1,8,1:0:0:0:
252,276,19696,1,8,1:0:0:0:
396,152,19873,5,8,1:0:0:0:
416,172,19961,1,8,1:0:0:0:
436,188,20049,2,0,P|488:204|472:88,1,200,10|0,1:0|0:0,0:0:0:0:
129,32,20755,1,0,0:0:0:0:
58,209,20932,5,0,0:0:0:0:
58,209,21108,1,0,0:0:0:0:
58,209,21285,1,0,0:0:0:0:
58,209,21461,2,0,P|68:266|224:294,1,200,2|8,0:0|1:0,0:0:0:0:
216,304,21902,1,8,1:0:0:0:
240,284,21991,1,8,1:0:0:0:
256,260,22079,1,8,1:0:0:0:
264,232,22167,1,8,1:0:0:0:
338,56,22344,2,0,P|385:19|449:136,1,200
281,140,22873,6,0,P|320:209|431:195,1,200,2|8,0:0|1:0,0:0:0:0:
444,172,23314,1,8,1:0:0:0:
444,140,23402,1,8,1:0:0:0:
428,112,23491,1,8,1:0:0:0:
408,88,23579,1,8,1:0:0:0:
228,25,23755,2,0,P|167:25|80:129,1,200,0|8,0:0|1:0,0:0:0:0:
80,148,24196,1,8,1:0:0:0:
80,176,24285,1,10,1:0:0:0:
244,272,24461,5,8,1:0:0:0:
244,240,24549,1,8,1:0:0:0:
244,208,24638,1,8,1:0:0:0:
312,32,24814,5,8,1:0:0:0:
312,60,24902,1,8,1:0:0:0:
312,88,24991,1,8,1:0:0:0:
416,248,25167,5,8,1:0:0:0:
412,216,25255,1,8,1:0:0:0:
396,188,25344,1,8,1:0:0:0:
372,164,25432,1,8,1:0:0:0:
348,148,25520,1,8,1:0:0:0:
320,136,25608,1,8,1:0:0:0:
292,128,25696,2,0,P|236:112|84:120,1,200,10|0,1:0|0:0,0:0:0:0:
18,292,26226,1,0,0:0:0:0:
206,313,26402,1,0,0:0:0:0:
377,228,26579,6,0,L|376:121,1,100
224,11,26932,1,0,0:0:0:0:
90,60,27108,2,0,P|63:94|129:241,1,225.000008583069,2|0,0:0|0:0,0:0:0:0:
264,276,27814,1,0,0:0:0:0:
277,133,27991,1,0,0:0:0:0:
155,207,28167,1,0,0:0:0:0:
45,298,28344,6,0,P|47:343|150:354,1,150.000005722046,0|0,0:0|0:0,2:0:0:0:
231,263,28873,1,0,0:0:0:0:
95,219,29049,2,0,P|63:187|158:61,1,225.000008583069
240,157,29755,1,0,0:0:0:0:
323,40,29932,1,2,0:0:0:0:
323,40,30108,2,0,L|324:200,1,150.000005722046
105,373,30814,1,0,0:0:0:0:
65,90,31167,1,0,0:0:0:0:
65,90,31344,6,0,L|158:89,1,75.0000028610231,2|0,0:0|0:0,0:0:0:0:
142,231,31696,2,0,L|58:231,1,75.0000028610231
67,88,32049,6,0,P|115:89|216:144,1,150.000005722046
239,272,32579,1,0,0:0:0:0:
364,205,32755,2,0,P|400:160|250:39,1,300.000011444092,2|0,0:0|0:0,0:0:0:0:
136,99,33638,1,0,0:0:0:0:
254,177,33814,1,0,0:0:0:0:
119,225,33991,2,0,P|123:281|355:254,1,375.000014305115
365,121,35049,6,0,P|328:69|263:117,1,150.000005722046
195,231,35579,1,2,0:0:0:0:
25,85,35932,2,0,P|47:12|112:56,1,150.000005722046
113,170,36461,1,0,0:0:0:0:
225,82,36638,1,0,0:0:0:0:
93,21,36814,1,0,0:0:0:0:
93,21,36991,5,2,0:0:0:0:
194,258,37167,1,0,0:0:0:0:
409,350,37696,5,0,0:0:0:0:
305,98,37873,1,0,0:0:0:0:
305,98,38049,2,0,P|256:68|152:152,1,200,0|2,0:0|0:0,0:0:0:0:
156,332,38579,1,0,0:0:0:0:
52,176,38755,1,0,0:0:0:0:
204,60,38932,1,8,1:0:0:0:
204,60,39020,1,8,1:0:0:0:
204,60,39108,2,0,P|256:32|308:84,1,100,8|0,1:0|0:0,0:0:0:0:
300,236,39461,1,0,0:0:0:0:
124,312,39638,6,0,L|124:184,1,100,0|2,0:0|0:0,0:0:0:0:
204,60,39991,2,0,L|204:160,1,100
296,328,40344,1,8,1:0:0:0:
296,328,40432,1,8,1:0:0:0:
296,328,40520,2,0,P|340:292|356:220,1,100,8|0,1:0|0:0,0:0:0:0:
352,64,40873,6,0,P|392:20|476:104,1,200,0|2,0:0|0:0,0:0:0:0:
408,268,41402,1,0,0:0:0:0:
220,300,41579,1,0,0:0:0:0:
380,196,41755,1,0,0:0:0:0:
192,156,41932,1,0,0:0:0:0:
192,156,42108,2,0,L|-16:116,2,200
380,212,43167,1,0,0:0:0:0:
364,52,43520,5,8,1:0:0:0:
344,44,43608,1,8,1:0:0:0:
316,40,43696,1,8,1:0:0:0:
288,40,43785,1,8,1:0:0:0:
264,48,43873,1,8,1:0:0:0:
244,64,43961,1,8,1:0:0:0:
232,84,44049,2,0,P|212:136|208:220,1,100,10|0,1:0|0:0,0:0:0:0:
288,351,44402,1,0,0:0:0:0:
387,188,44579,1,0,0:0:0:0:
199,105,44932,1,0,0:0:0:0:
199,105,45108,1,0,0:0:0:0:
199,105,45285,6,0,L|158:210,1,100,0|2,0:0|0:0,0:0:0:0:
209,382,45638,1,0,0:0:0:0:
84,238,45814,1,0,0:0:0:0:
153,60,45991,2,0,P|202:23|333:58,1,200
403,285,46520,6,8,L|357:237,1,37.5000014305115,8|8,1:0|1:0,1:0:0:0:
245,119,46696,2,8,L|280:161,1,37.5000014305115,8|8,1:0|1:0,1:0:0:0:
295,239,46873,2,0,P|277:302|212:295,1,100,2|0,0:0|0:0,0:0:0:0:
67,255,47226,1,0,0:0:0:0:
141,80,47402,1,0,0:0:0:0:
327,41,47579,2,0,P|385:75|402:165,1,150
246,276,48108,1,0,0:0:0:0:
246,276,48285,2,0,L|110:118,1,200,2|0,0:0|0:0,0:0:0:0:
94,10,48814,1,0,0:0:0:0:
44,194,48991,1,0,0:0:0:0:
215,113,49167,1,0,0:0:0:0:
27,80,49344,1,0,0:0:0:0:
170,203,49520,5,0,0:0:0:0:
170,203,49696,2,0,L|254:266,1,100,2|0,0:0|0:0,0:0:0:0:
344,248,50226,1,0,0:0:0:0:
376,158,50402,2,0,L|285:91,1,100
200,112,50932,1,0,0:0:0:0:
153,194,51108,2,0,L|154:306,1,100,2|0,0:0|0:0,0:0:0:0:
242,331,51638,5,0,0:0:0:0:
292,250,51814,1,0,0:0:0:0:
211,198,51991,1,0,0:0:0:0:
275,128,52167,1,0,0:0:0:0:
204,63,52344,1,0,0:0:0:0:
276,2,52520,1,2,0:0:0:0:
413,133,52873,5,0,0:0:0:0:
413,133,53049,1,0,0:0:0:0:
413,133,53226,2,0,P|411:175|382:220,1,75
261,250,53755,1,0,0:0:0:0:
174,209,53932,2,0,P|146:154|155:125,1,75,2|0,0:0|0:0,0:0:0:0:
255,51,54461,2,0,L|207:88,1,50
136,135,54814,1,0,0:0:0:0:
230,143,54991,1,0,0:0:0:0:
178,222,55167,2,0,P|183:268|232:297,1,100,0|8,0:0|1:0,0:0:0:0:
224,296,55608,5,8,1:0:0:0:
224,296,55696,1,8,1:0:0:0:
224,296,55785,1,8,1:0:0:0:
224,296,55873,1,8,1:0:0:0:
319,292,56049,2,0,P|357:264|389:208,1,100
264,78,57108,5,0,0:0:0:0:
155,263,57814,5,0,0:0:0:0:
86,85,58167,1,2,0:0:0:0:
86,85,58344,2,0,L|188:56,1,100
277,55,58873,5,0,0:0:0:0:
425,173,59226,1,0,0:0:0:0:
235,158,59579,1,2,0:0:0:0:
161,333,59932,1,0,0:0:0:0:
70,165,60285,1,0,0:0:0:0:
296,56,60461,1,0,0:0:0:0:
296,56,60638,2,0,P|334:74|362:218,1,200,0|2,0:0|0:0,0:0:0:0:
176,249,61167,1,8,1:0:0:0:
176,249,61255,1,8,1:0:0:0:
176,249,61344,2,0,L|84:136,1,100,8|0,1:0|0:0,0:0:0:0:
80,44,61696,6,0,P|142:58|287:167,1,239.999992675781,2|0,0:0|1:0,0:0:0:0:
192,370,62225,1,0,0:0:0:0:
31,208,62401,1,2,0:0:0:0:
187,41,62578,1,0,0:0:0:0:
187,41,62666,1,0,0:0:0:0:
187,41,62754,2,0,P|252:45|289:111,1,119.999996337891,0|0,1:0|0:0,0:0:0:0:
302,312,63107,5,2,0:0:0:0:
119,174,63284,1,0,0:0:0:0:
100,136,63372,1,0,0:0:0:0:
112,96,63460,1,0,1:0:0:0:
321,5,63637,2,0,P|254:24|222:82,1,119.999996337891,0|2,0:0|0:0,0:0:0:0:
165,283,63990,1,0,0:0:0:0:
165,283,64166,2,0,L|212:162,1,119.999996337891,0|0,1:0|0:0,0:0:0:0:
380,20,64519,5,2,0:0:0:0:
405,247,64696,1,0,0:0:0:0:
273,61,64872,1,0,1:0:0:0:
273,61,65048,2,0,P|199:42|133:56,1,119.999996337891,0|2,0:0|0:0,0:0:0:0:
15,227,65401,2,0,L|151:226,1,119.999996337891,0|0,0:0|1:0,0:0:0:0:
349,146,65754,2,0,L|184:147,1,119.999996337891,0|2,0:0|0:0,0:0:0:0:
14,66,66107,6,0,L|146:67,1,119.999996337891,0|0,0:0|1:0,0:0:0:0:
362,59,66460,1,0,0:0:0:0:
173,189,66637,1,2,0:0:0:0:
285,290,66813,2,0,L|252:230,1,40
177,98,66990,2,0,L|225:119,1,40,0|0,1:0|0:0,0:0:0:0:
376,177,67166,2,0,L|335:200,1,40
256,241,67343,6,0,P|184:250|136:230,1,119.999996337891,2|0,0:0|0:0,0:0:0:0:
8,46,67696,1,0,1:0:0:0:
85,277,67872,1,0,0:0:0:0:
128,300,67960,1,0,0:0:0:0:
176,304,68048,2,0,P|236:288|294:262,1,119.999996337891,2|0,0:0|0:0,0:0:0:0:
453,106,68401,1,0,1:0:0:0:
240,20,68578,1,0,0:0:0:0:
265,245,68754,5,2,0:0:0:0:
265,245,68931,2,0,P|216:264|161:207,1,119.999996337891,0|0,0:0|1:0,0:0:0:0:
83,30,69284,2,0,P|52:23|16:113,1,119.999996337891,0|2,0:0|0:0,0:0:0:0:
101,267,69637,1,0,0:0:0:0:
101,267,69725,1,0,0:0:0:0:
101,267,69813,2,0,P|161:292|222:294,1,119.999996337891,0|0,1:0|0:0,0:0:0:0:
368,216,70166,5,2,0:0:0:0:
232,31,70343,1,0,0:0:0:0:
63,183,70519,1,0,1:0:0:0:
281,116,70696,1,0,0:0:0:0:
183,321,70872,1,2,0:0:0:0:
112,104,71048,1,0,0:0:0:0:
288,249,71225,1,0,1:0:0:0:
357,32,71401,1,0,0:0:0:0:
357,32,71578,6,0,P|268:25|200:71,1,119.999996337891,2|0,0:0|0:0,0:0:0:0:
208,60,71843,1,0,0:0:0:0:
176,92,71931,1,0,1:0:0:0:
168,136,72019,1,0,0:0:0:0:
184,176,72107,1,0,0:0:0:0:
176,228,72196,1,0,0:0:0:0:
136,256,72284,1,2,0:0:0:0:
92,232,72372,1,0,0:0:0:0:
80,180,72460,1,0,0:0:0:0:
104,136,72548,1,0,0:0:0:0:
148,120,72637,1,0,1:0:0:0:
188,140,72725,1,0,0:0:0:0:
216,176,72813,1,0,0:0:0:0:
252,208,72901,1,0,0:0:0:0:
292,228,72990,6,0,P|356:224|396:132,1,119.999996337891,2|0,0:0|0:0,0:0:0:0:
250,5,73343,1,0,1:0:0:0:
117,189,73519,1,0,0:0:0:0:
266,362,73696,1,2,0:0:0:0:
204,143,73872,1,0,0:0:0:0:
204,143,73960,1,0,0:0:0:0:
204,143,74048,2,0,P|242:84|300:77,1,119.999996337891,0|0,1:0|0:0,0:0:0:0:
497,165,74401,5,2,0:0:0:0:
315,303,74578,1,0,0:0:0:0:
315,303,74666,1,0,0:0:0:0:
315,303,74754,2,0,P|253:326|193:307,1,119.999996337891,0|0,1:0|0:0,0:0:0:0:
62,132,75107,1,2,0:0:0:0:
283,73,75284,1,0,0:0:0:0:
132,243,75460,1,0,1:0:0:0:
96,17,75637,1,0,0:0:0:0:
280,150,75813,6,0,L|389:218,1,119.999996337891,2|0,0:0|0:0,0:0:0:0:
156,172,76166,2,0,L|262:239,1,119.999996337891,0|0,1:0|0:0,0:0:0:0:
32,197,76519,2,0,L|151:278,1,119.999996337891,2|0,0:0|0:0,0:0:0:0:
131,264,76784,1,0,0:0:0:0:
131,264,76872,1,0,1:0:0:0:
348,331,77048,1,0,0:0:0:0:
372,103,77225,5,2,0:0:0:0:
219,271,77401,1,0,0:0:0:0:
126,61,77578,1,0,1:0:0:0:
349,21,77754,2,0,L|273:124,1,119.999996337891,0|2,0:0|0:0,0:0:0:0:
164,215,78107,1,0,0:0:0:0:
352,343,78284,1,0,1:0:0:0:
396,352,78372,1,0,0:0:0:0:
444,340,78460,1,0,0:0:0:0:
468,296,78548,1,0,0:0:0:0:
460,248,78637,6,0,P|440:188|296:96,1,239.999992675781,2|0,0:0|1:0,0:0:0:0:
152,184,79343,1,2,0:0:0:0:
312,24,79695,1,0,1:0:0:0:
417,175,79960,2,0,P|388:239|256:294,1,179.999994506836
296,293,80313,1,0,0:0:0:0:
296,293,80401,1,0,1:0:0:0:
84,206,80578,1,0,0:0:0:0:
228,30,80754,2,0,P|301:27|326:165,1,239.999992675781,2|0,0:0|1:0,0:0:0:0:
300,196,81195,1,0,0:0:0:0:
276,232,81284,1,0,0:0:0:0:
256,276,81372,1,0,0:0:0:0:
224,312,81460,5,2,0:0:0:0:
3,249,81637,1,0,0:0:0:0:
129,59,81813,1,0,1:0:0:0:
149,286,81990,1,0,0:0:0:0:
30,91,82166,1,2,0:0:0:0:
257,110,82343,1,0,0:0:0:0:
389,294,82519,1,0,1:0:0:0:
180,203,82695,1,0,0:0:0:0:
397,133,82872,5,2,0:0:0:0:
247,304,83048,1,0,0:0:0:0:
226,76,83225,1,0,1:0:0:0:
58,229,83401,1,0,0:0:0:0:
278,170,83578,1,2,0:0:0:0:
109,322,83754,1,0,0:0:0:0:
82,94,83931,1,0,1:0:0:0:
300,29,84107,1,0,0:0:0:0:
300,29,84195,1,0,0:0:0:0:
300,29,84284,5,2,0:0:0:0:
410,196,84813,5,0,0:0:0:0:
410,196,84901,1,0,0:0:0:0:
410,196,84990,1,2,0:0:0:0:
159,209,85519,5,0,0:0:0:0:
159,209,85607,1,0,0:0:0:0:
159,209,85695,2,0,P|151:148|184:97,1,119.999996337891,2|0,0:0|0:0,0:0:0:0:
256,193,86225,1,0,0:0:0:0:
256,192,86401,12,2,88519,0:0:0:0:
