osu file format v14

[General]
AudioFilename: audio.mp3
AudioLeadIn: 0
PreviewTime: 60461
Countdown: 0
SampleSet: Soft
StackLeniency: 0.7
Mode: 0
LetterboxInBreaks: 0
WidescreenStoryboard: 1

[Editor]
DistanceSpacing: 1.2
BeatDivisor: 4
GridSize: 4
TimelineZoom: 1

[Metadata]
Title:Future Strike (Tv Size)
TitleUnicode:Future Strike (Tv Size)
Artist:Yui Ogura
ArtistUnicode:Yui Ogura
Creator:YukiPlays
Version:Normal
Source:Vivid Strike
Tags:Vivid Strike Opening Tv Size
BeatmapID:1413653
BeatmapSetID:668139

[Difficulty]
HPDrainRate:4.2
CircleSize:3.3
OverallDifficulty:5
ApproachRate:5.5
SliderMultiplier:0.999999999999999
SliderTickRate:1

[Events]
//Background and Video events
0,0,"1481419894374.png",0,0
Video,0,"vid.mp4"
//Break Periods
2,16014,25908
//Storyboard Layer 0 (Background)
//Storyboard Layer 1 (Fail)
//Storyboard Layer 2 (Pass)
//Storyboard Layer 3 (Foreground)
//Storyboard Sound Samples

[TimingPoints]
1697,352.941176470588,4,2,0,100,1,0
27108,-125,4,2,0,100,0,0
36991,-100,4,2,0,100,0,0
61696,352.941176470588,4,2,0,100,1,1
88519,352.941176470588,4,2,0,100,1,0

[HitObjects]
81,65,1697,6,0,B|153:104|130:179|233:199,1,200
265,214,2579,1,0,0:0:0:0:
309,217,2755,2,0,P|354:215|368:154,1,99.9999999999999
279,72,3638,5,0,0:0:0:0:
58,118,4520,6,0,P|22:157|105:246,1,200
275,292,5932,6,0,P|341:310|318:212,1,200
189,98,7344,5,0,0:0:0:0:
132,167,7696,2,0,P|106:205|147:252,1,99.9999999999999
208,202,8402,2,0,P|210:252|258:280,1,99.9999999999999
332,311,9108,1,0,0:0:0:0:
389,241,9461,1,0,0:0:0:0:
372,152,9814,1,0,0:0:0:0:
295,103,10167,6,0,L|181:66,2,99.9999999999999
366,158,11226,1,0,0:0:0:0:
383,246,11579,5,0,0:0:0:0:
383,246,11844,2,0,P|350:271|320:297,1,74.9999999999999
283,311,12285,1,0,0:0:0:0:
194,295,12638,1,0,0:0:0:0:
127,234,12991,6,0,P|106:196|201:103,2,200
179,276,14667,1,0,0:0:0:0:
243,297,14932,1,0,0:0:0:0:
309,236,15285,6,0,L|356:191,1,50
310,172,15638,2,0,L|271:213,1,50
364,320,27108,6,0,B|344:296|344:252|264:244|292:176,1,160
248,84,28344,1,0,0:0:0:0:
181,56,28696,1,0,0:0:0:0:
123,98,29049,1,0,0:0:0:0:
92,201,29579,5,0,0:0:0:0:
92,201,29755,1,0,0:0:0:0:
92,201,29932,2,0,B|114:229|109:263|109:263|168:299,1,120
218,325,30814,1,0,0:0:0:0:
290,324,31167,2,0,P|331:325|414:202,1,200
379,146,32402,1,0,0:0:0:0:
327,95,32755,6,0,P|288:64|258:149,1,160
280,278,34167,1,0,0:0:0:0:
163,193,34873,5,0,0:0:0:0:
163,193,35138,2,0,L|82:114,1,99.9999999999999
71,58,35932,1,0,0:0:0:0:
139,52,36285,2,0,L|209:118,1,79.9999999999999
261,170,36991,6,0,L|306:213,1,50
431,213,37696,2,0,L|390:176,1,50
245,76,38402,6,0,P|207:59|150:86,1,99.9999999999999
112,122,38932,1,0,0:0:0:0:
90,177,39108,2,0,L|84:250,1,50
191,285,39638,6,0,L|313:285,1,99.9999999999999
351,289,40167,1,0,0:0:0:0:
351,289,40344,2,0,P|387:268|349:177,1,150
305,157,41049,1,0,0:0:0:0:
249,134,41226,2,0,L|196:112,1,50
84,95,41755,2,0,P|76:62|132:16,1,99.9999999999999
235,40,42461,1,0,0:0:0:0:
333,108,42814,5,0,0:0:0:0:
344,227,43167,5,0,0:0:0:0:
344,227,43344,5,0,0:0:0:0:
344,227,43520,2,0,L|232:262,1,99.9999999999999
191,274,44049,6,0,L|113:297,2,74.9999999999999
217,156,44932,1,0,0:0:0:0:
118,87,45285,1,0,0:0:0:0:
118,87,45461,2,0,L|44:109,2,74.9999999999999
235,60,46344,5,0,0:0:0:0:
235,60,46520,1,0,0:0:0:0:
406,113,47049,6,0,L|407:266,1,150
316,341,47932,1,0,0:0:0:0:
225,261,48285,2,0,B|233:219|245:214|245:214|121:122,1,200
286,42,49520,5,0,0:0:0:0:
286,42,49696,1,0,0:0:0:0:
415,167,50226,5,0,0:0:0:0:
415,167,50402,1,0,0:0:0:0:
237,200,50932,5,0,0:0:0:0:
237,200,51108,1,0,0:0:0:0:
104,322,51638,5,0,0:0:0:0:
104,322,51814,2,0,P|65:343|26:319,2,74.9999999999999
148,281,52520,1,0,0:0:0:0:
129,162,52873,5,0,0:0:0:0:
129,162,53049,5,0,0:0:0:0:
129,162,53226,1,0,0:0:0:0:
248,27,53755,5,0,0:0:0:0:
248,27,53932,1,0,0:0:0:0:
357,169,54461,5,0,0:0:0:0:
357,169,54638,2,0,P|386:201|396:253,2,74.9999999999999
255,104,55520,5,0,0:0:0:0:
255,104,55696,1,0,0:0:0:0:
255,104,55873,5,0,0:0:0:0:
255,104,56049,2,0,P|207:109|150:140,1,99.9999999999999
48,343,57108,1,0,0:0:0:0:
273,260,57814,1,0,0:0:0:0:
231,147,58167,5,0,0:0:0:0:
231,147,58344,2,0,L|340:252,1,150
459,249,59226,1,0,0:0:0:0:
434,131,59579,1,0,0:0:0:0:
320,91,59932,1,0,0:0:0:0:
230,170,60285,1,0,0:0:0:0:
75,326,61696,6,0,B|101:304|110:256|110:256|203:181,1,200
289,97,62754,1,0,0:0:0:0:
336,207,63108,1,0,0:0:0:0:
336,207,63284,5,0,0:0:0:0:
336,207,63460,2,0,L|367:267,1,50
389,303,63813,1,0,0:0:0:0:
421,353,63990,1,0,0:0:0:0:
421,353,64166,2,0,L|475:325,1,50
504,284,64519,6,0,P|513:251|490:189,1,99.9999999999999
449,148,65048,1,0,0:0:0:0:
402,109,65225,2,0,B|356:70|320:78|320:78|200:71,1,200
119,149,66284,1,0,0:0:0:0:
119,149,66460,1,0,0:0:0:0:
119,149,66637,6,0,P|99:175|110:248,1,99.9999999999999
138,288,67166,1,0,0:0:0:0:
193,310,67343,2,0,P|232:318|296:303,1,99.9999999999999
349,238,67872,1,0,0:0:0:0:
421,73,68401,1,0,0:0:0:0:
479,178,68754,5,0,0:0:0:0:
479,178,68931,2,0,P|488:217|451:268,1,99.9999999999999
406,297,69460,2,0,B|384:311|349:302|349:302|307:341,1,99.9999999999999
200,308,70166,5,0,0:0:0:0:
287,225,70519,1,0,0:0:0:0:
194,148,70872,1,0,0:0:0:0:
293,80,71225,1,0,0:0:0:0:
293,80,71401,2,0,P|267:55|112:79,1,200
68,181,72460,1,0,0:0:0:0:
68,181,72637,1,0,0:0:0:0:
148,269,72990,6,0,P|181:294|252:289,1,99.9999999999999
294,274,73519,1,0,0:0:0:0:
346,244,73696,2,0,P|350:214|213:150,1,200
187,187,74578,2,0,L|133:289,1,99.9999999999999
51,193,75284,5,0,0:0:0:0:
51,193,75460,1,0,0:0:0:0:
51,193,75637,2,0,P|44:155|135:80,1,150
172,67,76343,1,0,0:0:0:0:
231,58,76519,2,0,B|264:53|287:29|287:29|377:141,1,200
400,187,77401,1,0,0:0:0:0:
401,307,77754,6,0,L|335:308,1,50
347,247,78107,2,0,L|451:247,1,99.9999999999999
507,249,78637,1,0,0:0:0:0:
485,130,78990,1,0,0:0:0:0:
262,218,79695,1,0,0:0:0:0:
207,110,80048,5,0,0:0:0:0:
207,110,80225,2,0,P|164:167|163:168,1,50
148,202,80578,1,0,0:0:0:0:
112,250,80754,1,0,0:0:0:0:
227,282,81107,1,0,0:0:0:0:
346,276,81460,6,0,P|394:253|398:201,1,99.9999999999999
286,175,82166,2,0,P|323:151|319:98,1,99.9999999999999
217,110,82872,2,0,P|231:70|190:26,1,99.9999999999999
113,114,83578,2,0,P|107:74|43:60,1,99.9999999999999
32,172,84284,5,0,0:0:0:0:
237,295,84989,1,0,0:0:0:0:
256,192,85695,12,0,88519,0:0:0:0:
