osu file format v14

[General]
AudioFilename: audio.mp3
AudioLeadIn: 0
PreviewTime: 60461
Countdown: 0
SampleSet: Soft
StackLeniency: 0.6
Mode: 0
LetterboxInBreaks: 0
WidescreenStoryboard: 0

[Editor]
DistanceSpacing: 0.9
BeatDivisor: 4
GridSize: 4
TimelineZoom: 1

[Metadata]
Title:Future Strike (Tv Size)
TitleUnicode:Future Strike (Tv Size)
Artist:Yui Ogura
ArtistUnicode:Yui Ogura
Creator:YukiPlays
Version:Easy
Source:Vivid Strike
Tags:Vivid Strike Opening Tv Size
BeatmapID:1413614
BeatmapSetID:668139

[Difficulty]
HPDrainRate:3
CircleSize:3
OverallDifficulty:3
ApproachRate:4
SliderMultiplier:0.799999999999999
SliderTickRate:1

[Events]
//Background and Video events
0,0,"maxresdefault-30.jpg",0,0
Video,0,"vid.mp4"
//Break Periods
2,16013,25788
//Storyboard Layer 0 (Background)
//Storyboard Layer 1 (Fail)
//Storyboard Layer 2 (Pass)
//Storyboard Layer 3 (Foreground)
//Storyboard Sound Samples

[TimingPoints]
1697,352.941176470588,4,2,0,100,1,0
61652,352.941176470588,4,2,0,100,1,1
88475,352.941176470588,4,2,0,100,1,0

[HitObjects]
47,323,1697,6,0,P|80:252|288:120,1,320
420,116,3814,1,0,0:0:0:0:
444,256,4520,2,0,B|400:280|384:336|384:336|172:288,1,320
96,165,6638,5,0,0:0:0:0:
205,72,7344,1,0,0:0:0:0:
205,72,7696,2,0,P|258:53|360:89,2,160
136,199,9814,1,0,0:0:0:0:
136,199,10167,6,0,P|158:255|363:204,1,320
312,77,12285,1,0,0:0:0:0:
169,95,12991,6,0,L|141:184,1,79.9999999999999
210,201,13696,2,0,L|237:124,1,79.9999999999999
306,142,14402,2,0,P|288:228|96:340,1,320
439,49,27108,6,0,P|434:92|319:252,1,240
262,285,28520,1,0,0:0:0:0:
128,340,29226,1,0,0:0:0:0:
27,236,29932,6,0,P|4:180|186:91,1,320
310,154,32049,2,0,L|374:88,1,79.9999999999999
420,49,32755,6,0,P|450:92|436:206,2,160
276,42,34873,1,0,0:0:0:0:
144,100,35579,6,0,L|102:187,2,79.9999999999999
191,45,36638,1,0,0:0:0:0:
191,45,36991,2,0,P|253:27|306:105,2,160
153,109,38755,5,0,0:0:0:0:
107,245,39461,1,0,0:0:0:0:
214,340,40167,2,0,P|281:347|353:280,1,160
432,173,41579,1,0,0:0:0:0:
289,192,42285,1,0,0:0:0:0:
289,192,42638,6,0,L|210:243,1,79.9999999999999
177,178,43344,2,0,L|252:130,2,79.9999999999999
66,238,44667,6,0,P|23:226|62:130,1,180
167,132,45991,6,0,B|200:107|205:82|205:82|351:117,1,200
395,156,47226,1,0,0:0:0:0:
422,222,47579,2,0,P|426:250|389:302,1,79.9999999999999
334,319,48285,6,0,B|301:302|293:271|293:271|118:318,1,240
63,276,49696,6,0,L|63:104,1,160
207,114,51108,2,0,L|208:290,1,160
250,332,52167,1,0,0:0:0:0:
321,320,52520,2,0,P|353:309|406:196,1,160
327,83,53932,6,0,B|324:168|324:168|274:247,1,160
233,282,54991,1,0,0:0:0:0:
163,302,55344,2,0,P|122:299|125:199,1,160
177,162,56402,6,0,L|308:66,2,160
118,203,58167,2,0,L|180:273,1,79.9999999999999
223,312,58873,2,0,P|402:296|383:201,1,320
150,45,61652,6,0,L|109:129,1,79.9999999999999
178,150,62357,2,0,L|216:71,1,79.9999999999999
278,108,63063,2,0,P|256:168|145:308,1,240
80,328,64475,1,0,0:0:0:0:
0,208,65181,1,0,0:0:0:0:
120,129,65887,1,0,0:0:0:0:
120,129,66240,6,0,L|177:184,1,79.9999999999999
228,133,66946,2,0,L|168:76,1,79.9999999999999
180,6,67652,1,0,0:0:0:0:
246,31,68004,6,0,L|310:88,1,79.9999999999999
358,133,68710,2,0,B|395:170|393:194|393:194|484:163,1,160
506,100,69769,1,0,0:0:0:0:
445,60,70122,6,0,L|364:106,1,79.9999999999999
419,156,70828,2,0,L|343:203,1,79.9999999999999
298,148,71534,2,0,B|256:193|293:247|293:247|80:217,1,320
19,88,73652,5,0,0:0:0:0:
148,25,74357,2,0,B|177:25|202:109|202:109|404:20,1,320
471,25,76122,1,0,0:0:0:0:
489,94,76475,2,0,P|483:146|402:212,1,160
275,147,77887,5,0,0:0:0:0:
207,273,78593,6,0,L|127:222,1,79.9999999999999
187,175,79299,2,0,L|263:226,1,79.9999999999999
315,256,80004,2,0,P|350:263|367:165,2,160
191,182,82122,5,0,0:0:0:0:
95,74,82828,2,0,P|130:22|233:39,1,160
277,69,83887,1,0,0:0:0:0:
335,26,84240,2,0,P|385:11|497:39,1,160
256,192,85651,12,0,88475,0:0:0:0:
