osu file format v14

[General]
AudioFilename: Horie Yui - Sweet & Sweet CHERRY(TV Size).mp3
AudioLeadIn: 2000
PreviewTime: 55542
Countdown: 0
SampleSet: Soft
StackLeniency: 0.7
Mode: 0
LetterboxInBreaks: 0
WidescreenStoryboard: 0

[Editor]
Bookmarks: 90248
DistanceSpacing: 1.2
BeatDivisor: 4
GridSize: 4
TimelineZoom: 1

[Metadata]
Title:Sweet & Sweet CHERRY
TitleUnicode:Sweet & Sweet CHERRY
Artist:Yui Horie
ArtistUnicode:堀江由衣
Creator:Gaia
Version:Normal
Source:ゴールデンタイム
Tags:cRyo[iceeicee] golden time tv size ending ed nopan
BeatmapID:1212523
BeatmapSetID:572206

[Difficulty]
HPDrainRate:3
CircleSize:3.5
OverallDifficulty:3
ApproachRate:5
SliderMultiplier:1.6
SliderTickRate:2

[Events]
//Background and Video events
0,0,"bg.jpg",0,0
//Break Periods
//Storyboard Layer 0 (Background)
//Storyboard Layer 1 (Fail)
//Storyboard Layer 2 (Pass)
//Storyboard Layer 3 (Foreground)
//Storyboard Sound Samples

[TimingPoints]
-1485,576.036866359447,4,2,1,15,1,0
243,-142.857142857143,4,2,1,15,0,0
821,-142.857142857143,4,2,1,20,0,0
1397,-142.857142857143,4,2,1,15,0,0
1827,-142.857142857143,4,2,1,25,0,0
2547,-142.857142857143,4,2,1,20,0,0
3987,-142.857142857143,4,2,1,25,0,0
4087,-142.857142857143,4,2,1,30,0,0
4419,-142.857142857143,4,2,1,20,0,0
5427,-111.111111111111,4,1,1,15,0,0
5715,-111.111111111111,4,1,1,10,0,0
6579,-111.111111111111,4,2,11,35,0,0
7155,-111.111111111111,4,2,1,25,0,0
7443,-111.111111111111,4,1,11,10,0,0
7729,-111.111111111111,4,2,2,55,0,0
7875,-111.111111111111,4,2,2,25,0,0
8017,-111.111111111111,4,1,11,45,0,0
8306,-111.111111111111,4,2,2,55,0,0
8307,-125,4,2,2,55,0,0
8451,-125,4,2,11,55,0,0
8594,-125,4,2,11,45,0,0
8667,-125,4,2,2,5,0,0
8883,-125,4,3,11,80,0,0
9387,-125,4,2,12,55,0,0
10035,-100,4,2,1,55,0,0
10899,-100,4,2,11,65,0,0
10999,-100,4,2,1,55,0,0
12339,-100,4,2,11,65,0,0
12439,-100,4,2,1,55,0,0
13203,-100,4,2,11,65,0,0
13303,-100,4,2,1,35,0,0
13491,-100,4,2,11,65,0,0
13591,-100,4,2,1,55,0,0
14644,-100,4,2,1,55,0,0
15490,-100,4,2,11,65,0,0
15796,-100,4,2,11,55,0,0
15868,-100,4,2,1,55,0,0
16084,-100,4,2,11,60,0,0
16638,-100,4,2,3,55,0,0
16738,-100,4,2,1,5,0,0
16876,-100,4,2,1,55,0,0
16948,-100,4,2,1,55,0,0
17213,-100,4,2,11,65,0,0
17934,-100,4,2,11,55,0,0
18676,-100,4,2,11,75,0,0
19252,-100,4,2,3,55,0,0
21556,-100,4,1,3,35,0,0
21656,-100,4,2,3,55,0,0
22400,-100,4,2,11,25,0,0
22688,-100,4,2,1,55,0,0
23552,-100,4,2,3,55,0,0
24704,-100,4,2,1,55,0,0
25713,-100,4,2,3,55,0,0
26164,-100,4,1,3,35,0,0
26264,-100,4,2,3,55,0,0
27297,-100,4,2,1,55,0,0
27316,-100,4,2,1,55,0,0
27873,-100,4,2,11,85,0,0
28108,-100,4,2,2,55,0,0
28180,-100,4,2,3,75,0,0
28449,-100,4,2,3,55,0,0
28468,-100,4,2,3,55,0,0
30773,-100,4,1,11,35,0,0
30873,-100,4,2,3,55,0,0
31565,-100,4,1,10,25,0,0
31925,-100,4,2,2,45,0,0
32213,-100,4,2,11,45,0,0
32717,-100,4,2,1,45,0,0
34930,-100,4,2,3,55,0,0
36370,-100,4,2,1,55,0,0
36677,-100,4,2,1,25,0,0
36749,-100,4,2,1,5,0,0
36821,-100,4,1,10,55,0,0
37090,-100,4,2,10,55,0,0
37301,-100,4,2,11,55,0,0
37397,-100,4,2,11,25,0,0
37685,-100,4,2,3,55,0,0
38819,-100,4,2,4,45,0,0
38919,-100,4,2,3,55,0,0
39395,-100,4,2,4,45,0,0
39495,-100,4,2,3,55,0,0
40835,-100,4,1,10,45,0,0
41123,-100,4,2,1,55,0,0
41987,-100,4,2,3,45,0,0
42131,-100,4,2,3,55,0,0
43157,-100,4,2,11,55,0,0
43949,-100,4,2,3,55,0,0
44453,-100,4,2,3,5,0,0
44553,-100,4,2,3,55,0,0
45732,-100,4,2,1,55,0,0
45750,-100,4,2,1,55,0,0
45894,-100,4,2,11,55,0,0
45994,-100,4,2,1,55,0,0
46182,-100,4,2,11,55,0,0
46282,-100,4,2,1,55,0,0
46470,-100,4,2,11,55,0,0
46596,-100,4,2,10,35,0,0
46614,-100,4,2,10,35,0,0
46884,-100,4,2,3,55,0,0
46902,-100,4,2,3,55,0,0
47622,-100,4,2,11,5,0,0
47766,-100,4,2,11,55,0,0
48054,-100,4,1,11,55,0,0
48900,-100,4,2,3,55,0,0
49206,-100,4,2,3,40,0,0
49306,-100,4,2,3,55,0,0
50070,-100,4,1,10,45,0,0
50358,-100,4,1,11,35,0,0
50502,-100,4,2,11,55,0,0
51493,-100,4,2,10,45,0,0
51510,-100,4,2,10,45,0,0
51593,-100,4,2,3,55,0,0
52374,-100,4,2,10,45,0,0
52474,-100,4,2,3,55,0,0
53814,-100,4,2,3,45,0,0
55542,-100,4,2,3,45,0,0
55813,-100,4,2,3,55,0,0
55974,-100,4,2,3,5,0,0
56118,-100,4,2,3,55,0,1
57558,-100,4,2,11,65,0,1
57658,-100,4,2,3,40,0,1
57990,-100,4,2,11,65,0,1
58350,-100,4,2,3,55,0,1
62023,-100,4,2,11,65,0,1
62383,-100,4,2,3,55,0,1
62599,-100,4,2,11,65,0,1
62815,-100,4,2,3,5,0,1
62959,-100,4,2,3,55,0,1
63463,-100,4,2,3,45,0,1
63879,-100,4,2,11,65,0,1
63967,-100,4,2,3,5,0,1
64167,-100,4,2,11,95,0,1
64267,-100,4,2,3,5,0,1
64399,-100,4,2,11,65,0,1
64687,-100,4,2,3,55,0,1
66919,-100,4,2,3,45,0,1
67207,-100,4,2,11,65,0,1
67567,-100,4,2,3,55,0,1
71095,-100,4,2,11,55,0,1
71887,-100,4,2,3,55,0,1
72247,-100,4,2,3,55,0,1
73399,-100,4,2,3,55,0,1
73975,-100,4,2,2,55,0,0
74335,-142.857142857143,4,2,12,55,0,0
74551,-142.857142857143,4,2,12,55,0,0
75127,-142.857142857143,4,2,12,45,0,0
76856,-142.857142857143,4,2,12,50,0,0
77720,-142.857142857143,4,2,12,55,0,0
78008,-142.857142857143,4,2,12,60,0,0
78584,-142.857142857143,4,2,12,50,0,0
79160,-142.857142857143,4,2,10,60,0,0
79260,-142.857142857143,4,2,12,50,0,0
79736,-142.857142857143,4,2,12,40,0,0
80312,-142.857142857143,4,2,12,60,0,0
80600,-142.857142857143,4,2,12,50,0,0
80888,-142.857142857143,4,2,12,45,0,0
81176,-142.857142857143,4,2,12,40,0,0
81464,-142.857142857143,4,2,11,5,0,0

[Colours]
Combo1 : 243,243,243
Combo2 : 255,102,102
Combo3 : 205,155,255
Combo4 : 187,0,94
Combo5 : 255,157,111

[HitObjects]
170,275,243,54,0,L|181:194,1,55.9999982910157
192,131,819,1,2,0:0:0:0:
329,16,1395,2,0,L|344:85,1,55.9999982910157,0|0,0:0|0:0,0:0:0:0:
400,137,1971,2,0,L|385:206,1,55.9999982910157,2|2,0:0|0:0,0:0:0:0:
406,279,2547,1,0,0:0:0:0:
406,279,2835,6,0,P|355:266|296:251,1,111.999996582031,2|2,0:0|0:0,0:0:0:0:
209,233,3699,2,0,P|187:268|181:304,2,55.9999982910157,2|2|2,0:0|0:0|0:0,0:0:0:0:
268,166,4563,1,0,0:0:0:0:
330,101,4851,2,0,P|320:74|304:51,1,55.9999982910157,2|2,0:0|0:0,0:0:0:0:
207,24,5427,54,0,L|90:45,2,107.999996704102,4|0|0,1:0|0:0|0:0,0:0:0:0:
167,116,6579,2,0,P|133:184|151:268,1,143.999995605469,8|2,2:1|0:0,0:0:0:0:
308,360,7731,6,0,P|311:327|325:279,1,71.9999978027344,2|2,0:0|2:1,0:0:0:0:
401,250,8307,2,0,P|397:225|379:170,1,64,2|2,0:0|2:1,0:0:0:0:
324,124,8883,1,2,2:3:0:0:
152,178,9459,2,0,P|156:153|174:98,1,64,2|2,0:0|2:0,0:0:0:0:
240,52,10035,6,0,P|160:72|82:84,1,160,4|8,1:0|2:2,0:0:0:0:
4,136,10899,1,4,2:3:0:0:
4,232,11187,2,0,P|17:274|56:308,1,80,0|0,3:0|3:0,0:0:0:0:
128,340,11763,1,8,2:2:0:0:
176,260,12051,6,0,B|199:148|199:148|259:122,1,160,2|2,0:0|0:0,0:0:0:0:
324,80,12915,2,0,P|338:131|319:177,1,80,8|4,2:2|2:3,0:0:0:0:
348,252,13491,2,0,P|389:231|456:230,1,80,4|0,2:3|0:0,0:0:0:0:
472,144,14067,2,0,L|520:156,2,40,8|2|2,0:0|0:0|0:0,0:0:0:0:
388,100,14644,38,0,P|330:111|269:126,1,120,4|0,1:1|0:0,0:0:0:0:
224,140,15220,2,0,P|182:133|138:119,1,80,8|4,3:2|2:3,0:0:0:0:
52,101,15796,2,0,P|67:156|79:205,1,80,4|4,1:0|0:3,0:0:0:0:
108,210,16228,2,0,P|98:248|86:287,1,80,4|4,0:3|0:3,0:0:0:0:
62,328,16660,1,4,0:0:0:0:
142,379,16948,6,0,B|227:367|227:367|255:324,2,120,4|2|2,1:0|2:0|0:0,0:0:0:0:
62,328,18100,2,0,P|17:264|87:187,1,160,8|8,2:1|2:3,0:0:0:0:
116,20,19252,6,0,P|199:47|254:64,1,120,4|2,1:0|0:0,0:0:0:0:
266,88,19828,2,0,P|302:79|363:73,1,80,8|4,0:2|2:3,0:0:0:0:
432,112,20404,2,0,P|451:166|407:236,1,120,0|0,1:3|1:0,0:0:0:0:
396,257,20980,2,0,B|356:251|317:243,1,80,8|0,0:2|0:0,0:0:0:0:
237,189,21556,38,0,L|133:212,1,80
73,162,22132,2,0,P|61:106|79:81,1,80,8|4,0:0|2:0,0:0:0:0:
101,52,22564,1,4,0:0:0:0:
101,52,22708,2,0,L|205:75,1,80,0|0,1:0|2:3,0:0:0:0:
262,21,23284,2,0,P|290:56|318:99,1,80,8|0,0:0|0:0,0:0:0:0:
403,105,23860,6,0,L|384:236,1,120,0|0,1:2|0:0,0:0:0:0:
344,248,24436,2,0,P|352:284|359:332,1,80,8|0,2:2|1:3,0:0:0:0:
278,379,25012,2,0,P|227:363|158:335,1,120,0|0,1:3|1:3,0:0:0:0:
138,298,25588,2,0,P|97:304|44:319,1,80,8|0,0:0|0:0,0:0:0:0:
7,240,26164,6,0,P|-5:179|45:108,1,120,0|2,0:0|0:0,0:0:0:0:
50,92,26740,2,0,L|144:109,1,80,8|0,0:0|1:0,0:0:0:0:
209,53,27316,2,0,L|291:38,1,80,2|2,1:2|1:2,0:0:0:0:
381,17,27892,2,0,P|364:116|362:158,1,120,4|0,0:3|0:0,0:0:0:0:
386,177,28468,22,0,P|403:227|377:283,1,80,4|2,1:0|2:0,0:0:0:0:
365,287,28900,1,2,0:0:0:0:
365,287,29044,2,0,P|325:272|258:252,1,80,8|4,0:0|0:3,0:0:0:0:
202,300,29620,2,0,P|139:311|74:317,1,120,0|0,1:0|1:0,0:0:0:0:
45,286,30197,2,0,P|27:238|44:199,1,80,8|0,0:2|0:0,0:0:0:0:
17,117,30773,6,0,L|103:139,1,80,2|0,1:0|0:0,0:0:0:0:
181,96,31349,2,0,P|222:87|261:78,1,80,8|4,0:0|0:2,0:0:0:0:
305,64,31781,1,4,0:2:0:0:
305,64,31925,2,0,P|340:105|325:161,1,80,0|8,1:0|2:3,0:0:0:0:
419,183,32501,2,0,P|405:222|391:272,1,80,8|2,0:3|0:0,0:0:0:0:
335,334,33077,6,0,B|251:322|251:322,1,80,4|2,1:1|2:2,0:0:0:0:
225,285,33509,1,2,0:0:0:0:
225,285,33653,2,0,B|141:273|141:273,1,80,8|4,0:2|2:3,0:0:0:0:
75,208,34229,2,0,P|59:152|127:95,1,120,0|0,1:2|1:2,0:0:0:0:
137,88,34805,2,0,P|171:127|171:177,1,80,8|0,0:2|0:0,0:0:0:0:
244,220,35381,22,0,B|269:109|269:109|340:84,1,160,4|2,2:3|0:0,0:0:0:0:
407,109,36245,2,0,P|426:153|419:188,1,80,2|4,2:0|2:3,0:0:0:0:
407,278,36821,2,0,P|376:268|323:257,1,80,2|2,1:2|1:2,0:0:0:0:
244,220,37397,1,4,0:0:0:0:
170,281,37685,6,0,P|84:298|44:260,1,120,4|0,1:0|0:0,0:0:0:0:
46,237,38261,2,0,P|62:204|75:153,1,80,8|2,0:2|0:0,0:0:0:0:
38,73,38837,2,0,L|-23:90,2,40,8|2|2,0:2|0:0|0:0,0:0:0:0:
128,41,39413,2,0,P|118:24|101:-2,2,40,8|2|2,0:2|0:0|0:0,0:0:0:0:
171,126,39989,6,0,B|269:94|269:94|295:114|326:123,1,160,0|8,1:0|0:0,0:0:0:0:
395,178,40853,2,0,L|383:232,1,40,2|2,0:2|0:2,0:0:0:0:
371,262,41141,2,0,P|326:280|274:258,1,80,0|2,1:0|0:0,0:0:0:0:
209,233,41717,2,0,P|164:215|112:237,1,80,8|4,1:2|0:0,0:0:0:0:
46,260,42293,5,4,1:0:0:0:
46,260,42869,2,0,P|39:222|32:172,1,80,8|4,0:0|0:3,0:0:0:0:
88,102,43445,2,0,P|49:91|7:78,2,80,2|4|2,0:0|0:3|0:0,0:0:0:0:
175,62,44309,2,0,L|226:50,1,40,2|0,0:0|0:0,0:0:0:0:
252,24,44597,6,0,P|301:37|350:49,1,80,4|2,1:0|0:0,0:0:0:0:
377,43,45029,1,2,0:0:0:0:
377,43,45173,2,0,P|403:82|392:125,1,80,8|0,0:0|1:0,0:0:0:0:
385,208,45750,2,0,L|480:184,2,80,2|2|2,1:2|1:2|1:2,0:0:0:0:
304,261,46614,2,0,L|237:247,1,40,4|4,1:2|1:2,0:0:0:0:
219,237,46902,22,0,P|156:262|158:325,1,120,4|0,1:0|0:0,0:0:0:0:
139,354,47478,2,0,P|103:345|44:326,1,80,8|4,2:2|0:3,0:0:0:0:
4,255,48054,2,0,L|33:152,1,80,4|4,2:3|2:3,0:0:0:0:
6,134,48486,2,0,P|1:100|-1:44,1,80,4|0,2:3|2:3,0:0:0:0:
31,19,48918,1,2,0:0:0:0:
114,66,49206,38,0,P|156:64|215:52,1,80,4|2,1:1|0:0,0:0:0:0:
285,30,49782,2,0,P|324:36|364:38,1,80,8|2,0:0|1:2,0:0:0:0:
412,43,50214,1,2,1:2:0:0:
412,43,50358,2,0,P|445:100|432:143,1,80,4|4,1:2|0:3,0:0:0:0:
449,159,50790,1,4,0:3:0:0:
449,159,50934,2,0,P|478:169|515:178,2,40,4|4|4,0:3|0:3|0:3,0:0:0:0:
361,197,51510,22,0,P|293:207|210:213,1,120,4|0,0:0|0:0,0:0:0:0:
196,195,52086,2,0,P|173:163|177:110,1,80,8|4,2:2|2:2,0:0:0:0:
92,69,52662,2,0,P|83:122|67:201,1,120,0|2,1:3|0:0,0:0:0:0:
28,211,53238,2,0,P|42:254|52:297,1,80,8|0,1:2|0:0,0:0:0:0:
118,354,53814,6,0,P|172:326|255:334,1,120,0|0,1:0|1:0,0:0:0:0:
276,312,54390,2,0,P|337:338|422:322,1,120,0|0,1:0|1:0,0:0:0:0:
426,304,54966,2,0,L|415:238,1,40,0|0,1:0|1:0,0:0:0:0:
411,217,55254,1,0,1:0:0:0:
398,121,55542,2,0,P|416:107|441:88,2,40,0|0|0,1:0|1:0|1:0,0:0:0:0:
302,124,56118,6,0,P|252:113|167:99,1,120,4|0,1:2|0:0,0:0:0:0:
142,76,56694,2,0,L|100:92,1,40,8|0,1:2|0:0,0:0:0:0:
61,111,56982,1,2,2:2:0:0:
6,189,57270,2,0,P|19:235|32:266,1,80,4|4,0:0|0:3,0:0:0:0:
62,301,57702,1,0,1:3:0:0:
62,301,57846,2,0,P|55:329|49:349,2,40,8|4|4,1:2|2:3|2:3,0:0:0:0:
148,258,58422,6,0,P|185:250|245:245,1,80,4|0,0:0|0:0,0:0:0:0:
320,222,58998,2,0,P|312:269|308:324,2,80,8|2|2,1:2|0:0|0:0,0:0:0:0:
379,146,59862,1,2,0:0:0:0:
450,81,60150,2,0,L|501:71,2,40,8|0|2,1:2|0:0|0:0,0:0:0:0:
379,146,60726,6,0,P|319:133|233:114,1,120,4|0,0:0|0:0,0:0:0:0:
231,82,61303,2,0,L|174:98,1,40,8|0,1:2|0:0,0:0:0:0:
146,107,61591,1,2,0:0:0:0:
74,170,61879,2,0,P|56:223|82:260,1,80,4|4,0:2|0:3,0:0:0:0:
91,281,62311,1,4,0:3:0:0:
91,281,62455,2,0,L|155:271,1,40,8|4,1:2|0:3,0:0:0:0:
176,261,62743,1,4,0:3:0:0:
208,171,63031,6,0,P|199:131|189:72,1,80,4|0,0:2|0:0,0:0:0:0:
225,57,63463,1,0,1:0:0:0:
225,57,63607,2,0,P|279:33|314:45,1,80,8|4,1:2|0:3,0:0:0:0:
393,29,64183,2,0,P|378:63|367:114,1,80,4|4,0:3|2:3,0:0:0:0:
422,184,64759,2,0,L|474:176,2,40,8|2|4,1:2|0:0|0:0,0:0:0:0:
347,244,65335,22,0,B|259:229|259:229|239:192,1,120,4|0,1:0|0:0,0:0:0:0:
208,171,65911,2,0,L|213:106,1,40,8|0,1:2|0:0,0:0:0:0:
219,83,66199,1,2,0:0:0:0:
137,31,66487,2,0,P|81:34|52:72,1,80,4|0,0:0|0:0,0:0:0:0:
34,85,66919,1,0,1:0:0:0:
34,85,67063,2,0,L|51:143,1,40,8|4,1:2|0:3,0:0:0:0:
60,168,67351,1,4,0:3:0:0:
131,231,67639,6,0,P|119:275|109:335,1,80,2|2,0:0|0:0,0:0:0:0:
142,346,68071,1,0,0:0:0:0:
142,346,68215,2,0,P|184:341|236:328,1,80,8|2,1:2|1:2,0:0:0:0:
284,261,68791,2,0,P|329:271|384:283,1,80,2|2,1:2|2:2,0:0:0:0:
409,269,69223,1,0,0:0:0:0:
409,269,69367,2,0,P|426:295|441:326,2,40,2|2|2,0:0|0:0|0:0,0:0:0:0:
429,175,69943,6,0,P|431:112|368:82,1,120,4|0,1:0|0:0,0:0:0:0:
341,71,70519,2,0,B|303:86|303:86|253:81,1,80,4|0,1:0|0:0,0:0:0:0:
170,60,71095,2,0,B|132:45|132:45|82:50,1,80,4|4,1:0|0:3,0:0:0:0:
55,79,71527,1,4,1:0:0:0:
55,79,71671,2,0,L|70:146,1,40,4|4,0:3|0:3,0:0:0:0:
87,159,71959,2,0,L|78:212,1,40,2|2,2:0|2:0,0:0:0:0:
73,245,72247,21,0,0:0:0:0:
318,363,73399,2,0,L|305:268,1,80,2|0,2:0|1:0,0:0:0:0:
348,196,73975,2,0,P|366:188|390:180,2,40,4|4|4,1:3|2:3|2:3,0:0:0:0:
257,162,74551,54,0,P|211:123|144:126,1,111.999996582031,2|2,0:0|0:0,0:0:0:0:
76,89,75415,1,0,0:0:0:0:
22,161,75703,2,0,P|30:196|41:230,1,55.9999982910157,2|2,0:0|0:0,0:0:0:0:
94,282,76279,1,2,0:0:0:0:
94,282,76567,6,0,P|150:270|221:258,1,111.999996582031,2|2,0:0|2:0,0:0:0:0:
263,193,77432,2,0,P|268:161|272:116,2,55.9999982910157,2|2|2,0:0|0:0|2:0,0:0:0:0:
301,273,78296,1,0,2:0:0:0:
369,331,78584,2,0,P|399:324|444:312,1,55.9999982910157,2|2,0:0|2:0,0:0:0:0:
470,242,79160,54,0,P|456:179|446:125,1,111.999996582031,2|2,2:2|0:0,0:0:0:0:
393,60,80024,1,2,2:0:0:0:
311,97,80312,2,0,P|278:86|238:74,1,55.9999982910157,2|2,0:0|0:0,0:0:0:0:
173,49,80888,2,0,P|146:57|119:65,1,55.9999982910157,2|2,0:0|0:0,0:0:0:0:
256,192,81464,12,0,83192,0:0:0:0:
