osu file format v14

[General]
AudioFilename: Horie Yui - Sweet & Sweet CHERRY(TV Size).mp3
AudioLeadIn: 2000
PreviewTime: 55542
Countdown: 0
SampleSet: Soft
StackLeniency: 0.7
Mode: 0
LetterboxInBreaks: 0
WidescreenStoryboard: 0

[Editor]
Bookmarks: 90248
DistanceSpacing: 1.7
BeatDivisor: 8
GridSize: 4
TimelineZoom: 1

[Metadata]
Title:Sweet & Sweet CHERRY
TitleUnicode:Sweet & Sweet CHERRY
Artist:Yui Horie
ArtistUnicode:堀江由衣
Creator:Gaia
Version:Insane
Source:ゴールデンタイム
Tags:cRyo[iceeicee] golden time tv size ending ed nopan
BeatmapID:1237091
BeatmapSetID:572206

[Difficulty]
HPDrainRate:6
CircleSize:4
OverallDifficulty:6
ApproachRate:9
SliderMultiplier:2.2
SliderTickRate:2

[Events]
//Background and Video events
0,0,"bg.jpg",0,0
//Break Periods
//Storyboard Layer 0 (Background)
//Storyboard Layer 1 (Fail)
//Storyboard Layer 2 (Pass)
//Storyboard Layer 3 (Foreground)
//Storyboard Sound Samples

[TimingPoints]
-1485,576.036866359447,4,2,1,15,1,0
243,-142.857142857143,4,2,1,15,0,0
821,-142.857142857143,4,2,1,20,0,0
1397,-142.857142857143,4,2,1,15,0,0
1827,-142.857142857143,4,2,1,25,0,0
2547,-142.857142857143,4,2,1,20,0,0
2835,-166.666666666667,4,2,1,20,0,0
3699,-142.857142857143,4,2,1,20,0,0
3987,-142.857142857143,4,2,1,25,0,0
4087,-142.857142857143,4,2,1,30,0,0
4419,-142.857142857143,4,2,1,20,0,0
5427,-111.111111111111,4,1,1,15,0,0
5715,-111.111111111111,4,1,1,10,0,0
6579,-166.666666666666,4,2,11,35,0,0
7155,-166.666666666666,4,2,1,25,0,0
7443,-125,4,1,11,10,0,0
7729,-125,4,2,2,55,0,0
7731,-100,4,2,2,55,0,0
7875,-100,4,2,2,25,0,0
8017,-100,4,1,11,45,0,0
8306,-100,4,2,2,55,0,0
8451,-100,4,2,11,55,0,0
8594,-100,4,2,11,45,0,0
8667,-100,4,2,2,5,0,0
8883,-100,4,3,11,80,0,0
9387,-100,4,2,4,55,0,0
10035,-83.3333333333333,4,2,1,55,0,0
10899,-83.3333333333333,4,2,11,65,0,0
10999,-83.3333333333333,4,2,1,55,0,0
12051,-100,4,2,1,55,0,0
12339,-100,4,2,11,65,0,0
12439,-100,4,2,1,55,0,0
12627,-83.3333333333333,4,2,1,55,0,0
13203,-83.3333333333333,4,2,11,65,0,0
13303,-83.3333333333333,4,2,1,35,0,0
13491,-100,4,2,11,65,0,0
13591,-100,4,2,1,55,0,0
14067,-76.9230769230769,4,2,1,55,0,0
14644,-111.111111111111,4,2,1,55,0,0
15220,-100,4,2,1,55,0,0
15490,-100,4,2,11,65,0,0
15508,-83.3333333333333,4,2,11,65,0,0
15796,-83.3333333333333,4,2,11,55,0,0
15868,-83.3333333333333,4,2,1,55,0,0
16084,-83.3333333333333,4,2,11,60,0,0
16638,-83.3333333333333,4,2,3,55,0,0
16738,-83.3333333333333,4,2,1,5,0,0
16876,-83.3333333333333,4,2,1,55,0,0
17213,-83.3333333333333,4,2,11,65,0,0
17380,-111.111111111111,4,2,11,65,0,0
17812,-142.857142857143,4,2,11,65,0,0
17934,-142.857142857143,4,2,11,55,0,0
18100,-90.9090909090909,4,2,11,55,0,0
18676,-166.666666666667,4,2,11,75,0,0
19232,-166.666666666667,4,2,3,55,0,0
19252,-100,4,2,3,55,0,0
20404,-90.9090909090909,4,2,3,55,0,0
21124,-111.111111111111,4,2,3,55,0,0
21556,-111.111111111111,4,1,3,35,0,0
21656,-111.111111111111,4,2,3,55,0,0
22132,-90.9090909090908,4,2,3,55,0,0
22400,-90.9090909090908,4,2,11,25,0,0
22688,-90.9090909090908,4,2,1,55,0,0
22708,-100,4,2,1,55,0,0
23552,-100,4,2,3,55,0,0
24704,-100,4,2,1,55,0,0
25713,-100,4,2,3,55,0,0
25732,-111.111111111111,4,2,3,55,0,0
26164,-111.111111111111,4,1,3,35,0,0
26264,-111.111111111111,4,2,3,55,0,0
26740,-76.9230769230769,4,2,3,55,0,0
27028,-111.111111111111,4,2,3,55,0,0
27297,-111.111111111111,4,2,1,55,0,0
27316,-71.4285714285714,4,2,1,55,0,0
27873,-71.4285714285714,4,2,11,85,0,0
27892,-200,4,2,11,85,0,0
28108,-200,4,2,2,55,0,0
28180,-200,4,2,3,75,0,0
28449,-200,4,2,3,55,0,0
28468,-100,4,2,3,55,0,0
29044,-83.3333333333333,4,2,3,55,0,0
29607,-100,4,2,3,55,0,0
30341,-142.857142857143,4,2,3,55,0,0
30773,-142.857142857143,4,1,11,35,0,0
30873,-142.857142857143,4,2,3,55,0,0
31565,-142.857142857143,4,1,10,25,0,0
31637,-76.9230769230769,4,1,10,25,0,0
31925,-100,4,2,2,45,0,0
32213,-100,4,2,11,45,0,0
32717,-100,4,2,1,45,0,0
34930,-100,4,2,3,55,0,0
35381,-83.3333333333333,4,2,3,55,0,0
36370,-83.3333333333333,4,2,1,55,0,0
36677,-83.3333333333333,4,2,1,25,0,0
36749,-83.3333333333333,4,2,1,5,0,0
36821,-71.4285714285714,4,1,10,55,0,0
37090,-71.4285714285714,4,2,10,55,0,0
37301,-71.4285714285714,4,2,11,55,0,0
37397,-71.4285714285714,4,2,11,25,0,0
37685,-100,4,2,3,55,0,0
38261,-83.3333333333333,4,2,3,55,0,0
38549,-100,4,2,11,55,0,0
38819,-100,4,2,4,45,0,0
38837,-83.3333333333333,4,2,4,45,0,0
38919,-83.3333333333333,4,2,3,55,0,0
39395,-83.3333333333333,4,2,4,45,0,0
39495,-83.3333333333333,4,2,3,55,0,0
39989,-90.9090909090909,4,2,3,55,0,0
40853,-71.4285714285714,4,1,10,25,0,0
41141,-100,4,2,1,55,0,0
41987,-100,4,2,3,45,0,0
42131,-100,4,2,3,55,0,0
42869,-83.3333333333333,4,2,3,55,0,0
43157,-100,4,2,11,55,0,0
43445,-83.3333333333333,4,2,11,55,0,0
43949,-83.3333333333333,4,2,3,55,0,0
44453,-83.3333333333333,4,2,3,5,0,0
44553,-83.3333333333333,4,2,3,55,0,0
45732,-83.3333333333333,4,2,1,55,0,0
45750,-71.4285714285714,4,2,1,55,0,0
45894,-71.4285714285714,4,2,11,55,0,0
45994,-71.4285714285714,4,2,1,55,0,0
46182,-71.4285714285714,4,2,11,55,0,0
46282,-71.4285714285714,4,2,1,55,0,0
46470,-71.4285714285714,4,2,11,55,0,0
46596,-71.4285714285714,4,2,10,35,0,0
46884,-71.4285714285714,4,2,3,55,0,0
46902,-100,4,2,3,55,0,0
47622,-100,4,2,11,5,0,0
47766,-100,4,2,11,55,0,0
48054,-100,4,1,11,55,0,0
48900,-100,4,2,3,55,0,0
49206,-100,4,2,3,40,0,0
49306,-100,4,2,3,55,0,0
50070,-100,4,1,10,45,0,0
50358,-100,4,1,11,35,0,0
50502,-100,4,2,11,55,0,0
51493,-100,4,2,10,45,0,0
51593,-100,4,2,3,55,0,0
52086,-83.3333333333333,4,2,3,55,0,0
52374,-100,4,2,10,45,0,0
52474,-100,4,2,3,55,0,0
53814,-142.857142857143,4,2,3,45,0,0
54390,-111.111111111111,4,2,3,45,0,0
54966,-76.9230769230769,4,2,3,45,0,0
55813,-76.9230769230769,4,2,3,55,0,0
55830,-153.846153846153,4,2,3,55,0,0
55974,-153.846153846153,4,2,3,5,0,0
56118,-83.3333333333333,4,2,3,55,0,1
57558,-83.3333333333333,4,2,11,65,0,1
57658,-83.3333333333333,4,2,3,40,0,1
57990,-83.3333333333333,4,2,11,65,0,1
58134,-100,4,2,11,65,0,1
58350,-100,4,2,3,55,0,1
58422,-83.3333333333333,4,2,3,55,0,1
59286,-71.4285714285714,4,2,3,55,0,1
60438,-100,4,2,3,55,0,1
60726,-83.3333333333333,4,2,3,55,0,1
62023,-83.3333333333333,4,2,11,65,0,1
62383,-83.3333333333333,4,2,3,55,0,1
62599,-83.3333333333333,4,2,11,65,0,1
62815,-83.3333333333333,4,2,3,5,0,1
62959,-83.3333333333333,4,2,3,55,0,1
63463,-83.3333333333333,4,2,3,45,0,1
63879,-83.3333333333333,4,2,11,65,0,1
63967,-83.3333333333333,4,2,3,5,0,1
64167,-83.3333333333333,4,2,11,95,0,1
64183,-71.4285714285714,4,2,11,95,0,1
64267,-71.4285714285714,4,2,3,5,0,1
64399,-71.4285714285714,4,2,11,65,0,1
64471,-100,4,2,11,65,0,1
64687,-100,4,2,3,55,0,1
65047,-111.111111111111,4,2,3,55,0,1
65335,-83.3333333333333,4,2,3,55,0,1
66919,-83.3333333333333,4,2,3,45,0,1
67207,-83.3333333333333,4,2,11,65,0,1
67567,-83.3333333333333,4,2,3,55,0,1
69943,-100,4,2,3,55,0,1
70519,-71.4285714285714,4,2,3,55,0,1
71095,-83.3333333333333,4,2,11,55,0,1
71887,-83.3333333333333,4,2,3,55,0,1
72247,-66.6666666666667,4,2,3,55,0,1
73687,-100,4,2,3,55,0,1
73975,-71.4285714285714,4,2,2,55,0,0
74335,-71.4285714285714,4,2,12,55,0,0
75127,-71.4285714285714,4,2,12,45,0,0
75415,-133.333333333333,4,2,12,45,0,0
76567,-153.846153846153,4,2,12,45,0,0
76856,-153.846153846153,4,2,12,50,0,0
77432,-133.333333333333,4,2,12,50,0,0
77720,-133.333333333333,4,2,12,55,0,0
78008,-133.333333333333,4,2,12,60,0,0
78584,-133.333333333333,4,2,12,50,0,0
79160,-133.333333333333,4,2,10,60,0,0
79260,-133.333333333333,4,2,12,50,0,0
79736,-133.333333333333,4,2,12,40,0,0
80312,-142.857142857143,4,2,12,60,0,0
80600,-142.857142857143,4,2,12,50,0,0
80888,-166.666666666667,4,2,12,45,0,0
81176,-166.666666666667,4,2,12,40,0,0
81464,-166.666666666667,4,2,11,5,0,0

[Colours]
Combo1 : 243,243,243
Combo2 : 255,102,102
Combo3 : 205,155,255
Combo4 : 187,0,94
Combo5 : 255,157,111

[HitObjects]
180,130,243,53,0,0:0:0:0:
180,130,387,1,0,0:0:0:0:
281,173,531,2,0,P|316:164|366:149,1,76.9999976501466,0|2,0:0|0:0,0:0:0:0:
152,134,1395,21,0,0:0:0:0:
152,134,1539,1,0,0:0:0:0:
217,235,1683,2,0,P|252:245|302:257,1,76.9999976501466,0|2,0:0|0:0,0:0:0:0:
418,176,2259,1,2,0:0:0:0:
304,272,2547,1,0,0:0:0:0:
278,104,2835,54,0,P|206:132|126:129,1,131.99999597168,2|2,0:0|0:0,0:0:0:0:
32,44,3699,2,0,P|43:79|52:132,1,76.9999976501466,2|2,0:0|0:0,0:0:0:0:
68,280,4275,2,0,P|75:242|86:205,1,76.9999976501466,2|0,0:0|0:0,0:0:0:0:
148,36,4851,53,2,0:0:0:0:
148,36,4995,1,0,0:0:0:0:
280,124,5139,2,0,P|284:145|292:192,1,57.7499982376099,2|0,0:0|0:0,0:0:0:0:
272,212,5427,54,0,P|220:224|168:176,1,98.9999969787599,4|0,1:0|0:0,0:0:0:0:
54,151,5859,2,0,P|101:144|158:131,1,98.9999969787599,0|0,0:0|0:0,0:0:0:0:
252,32,6291,2,0,P|310:44|344:52,1,74.2499977340699,0|0,0:0|0:0,0:0:0:0:
412,16,6579,22,0,B|406:54|400:112|400:112|360:140,1,131.99999597168,8|2,2:1|0:0,0:0:0:0:
248,124,7443,2,0,L|264:180,1,44,0|0,0:0|0:0,0:0:0:0:
328,236,7731,6,0,P|316:293|308:364,2,110,2|2|2,0:0|2:1|0:0,0:0:0:0:
371,132,8451,1,2,2:2:0:0:
180,168,8595,2,0,P|186:193|200:228,1,55,2|0,2:1|0:0,0:0:0:0:
309,344,8883,1,2,2:3:0:0:
309,344,9459,53,2,2:2:0:0:
216,328,9603,1,2,0:0:0:0:
124,308,9747,1,2,0:0:0:0:
124,308,10035,6,0,P|84:248|132:172,1,131.99999597168,4|2,1:0|0:0,0:0:0:0:
188,84,10467,1,2,0:0:0:0:
188,84,10611,2,0,P|159:75|100:64,1,65.9999979858399,8|0,2:2|0:0,0:0:0:0:
292,28,10899,2,0,P|301:63|312:128,1,65.9999979858399,4|0,2:3|0:0,0:0:0:0:
236,224,11187,6,0,P|269:216|316:208,2,65.9999979858399,0|0|0,3:0|3:0|3:0,0:0:0:0:
80,164,11619,1,0,3:0:0:0:
124,308,11763,2,0,P|149:323|200:340,1,65.9999979858399,8|0,2:2|0:0,0:0:0:0:
398,218,12051,22,0,B|336:235|304:191|228:227,1,165,2|0,0:0|0:0,0:0:0:0:
336,56,12627,2,0,P|358:90|364:140,1,65.9999979858399,2|2,0:0|0:0,0:0:0:0:
280,356,12915,2,0,P|283:323|291:291,1,65.9999979858399,8|0,2:2|0:0,0:0:0:0:
268,124,13203,2,0,P|225:133|188:144,1,65.9999979858399,4|0,2:3|0:0,0:0:0:0:
72,232,13491,22,0,P|129:234|212:244,1,110,4|0,2:3|0:0,0:0:0:0:
268,124,13923,1,2,0:0:0:0:
124,84,14067,2,0,P|116:124|112:192,1,71.4999967269899,8|2,0:0|0:0,0:0:0:0:
152,344,14356,1,2,0:0:0:0:
152,344,14644,54,0,P|196:321|251:328,1,98.9999969787599,4|0,1:1|0:0,0:0:0:0:
372,236,15076,1,0,0:0:0:0:
372,236,15220,2,0,P|316:232|276:208,1,82.5,8|0,3:2|0:0,0:0:0:0:
264,189,15508,2,0,L|268:109,1,65.9999979858399,4|0,2:3|0:0,0:0:0:0:
132,44,15796,38,0,P|132:82|140:136,1,65.9999979858399,4|0,1:0|0:0,0:0:0:0:
148,304,16084,2,0,L|184:300,2,32.99999899292,4|4|4,0:3|0:3|0:3,0:0:0:0:
44,168,16372,1,4,0:3:0:0:
267,123,16516,1,4,0:3:0:0:
174,218,16660,2,0,P|127:210|66:202,1,98.9999969787599,4|0,0:0|0:0,0:0:0:0:
44,168,16948,5,4,1:0:0:0:
44,168,17236,1,2,2:0:0:0:
174,218,17380,2,0,P|226:214|274:174,1,98.9999969787599,2|2,2:0|0:0,0:0:0:0:
360,128,17812,2,0,P|393:136|423:156,1,57.7499982376099,2|0,0:0|0:0,0:0:0:0:
480,192,18100,22,0,B|448:228|456:288|456:288|424:300|404:324|404:324|392:304|360:284,1,211.750006462097,8|0,2:1|0:0,0:0:0:0:
344,272,18676,54,0,P|288:288|231:295,1,115.49999647522,8|0,2:3|0:0,0:0:0:0:
140,264,19252,22,0,B|155:331|168:384|168:384,1,110,4|2,1:0|0:0,0:0:0:0:
344,272,19684,1,2,0:0:0:0:
263,188,19828,2,0,P|232:182|171:164,1,55,8|0,0:2|0:0,0:0:0:0:
344,272,20116,2,0,P|373:265|408:256,1,55,4|4,2:3|0:3,0:0:0:0:
400,100,20404,6,0,B|380:76|380:76|371:127|352:204,1,121.000003692627,0|4,1:3|0:3,0:0:0:0:
280,340,20836,2,0,P|263:311|256:268,1,60.5000018463135,0|8,1:0|0:2,0:0:0:0:
263,188,21124,22,0,P|231:200|196:212,1,49.4999984893799,2|0,0:0|0:0,0:0:0:0:
152,296,21412,2,0,P|120:283|85:272,1,49.4999984893799,2|0,0:0|0:0,0:0:0:0:
12,320,21700,2,0,P|5:288|0:252,1,49.4999984893799,2|0,0:0|0:0,0:0:0:0:
68,140,21988,21,2,0:0:0:0:
68,140,22132,2,0,P|32:131|-12:128,1,60.5000018463135,8|2,0:0|0:0,0:0:0:0:
157,216,22420,2,0,P|192:207|237:204,1,60.5000018463135,4|0,2:0|0:0,0:0:0:0:
280,56,22708,22,0,P|216:68|220:148,1,110,0|0,1:0|2:3,0:0:0:0:
304,240,23140,1,2,0:0:0:0:
304,240,23284,2,0,P|339:231|384:228,1,55,8|0,0:0|0:0,0:0:0:0:
504,168,23572,1,0,0:0:0:0:
340,140,23716,1,0,0:0:0:0:
296,332,23860,54,0,B|356:328|412:312|412:312|426:343|448:368,1,165,0|0,1:2|0:0,0:0:0:0:
357,228,24436,2,0,P|359:195|366:144,1,55,8|0,2:2|0:0,0:0:0:0:
200,104,24724,2,0,P|202:131|204:158,1,55,0|0,1:3|2:3,0:0:0:0:
224,280,25012,6,0,P|140:252|96:316,1,165,0|0,1:3|1:3,0:0:0:0:
284,216,25588,1,8,0:0:0:0:
216,360,25732,22,0,P|191:355|167:351,1,49.4999984893799,2|0,0:0|0:0,0:0:0:0:
312,296,26020,2,0,L|372:288,1,49.4999984893799,2|0,0:0|0:0,0:0:0:0:
204,158,26308,2,0,P|194:191|192:226,1,49.4999984893799,2|0,0:0|0:0,0:0:0:0:
292,40,26596,1,2,0:0:0:0:
292,40,26740,6,0,P|304:72|312:148,1,107.249995090485
284,216,27028,38,0,P|316:192|364:188,1,74.2499977340699,0|0,1:0|0:0,0:0:0:0:
437,298,27316,38,0,P|406:296|345:286,1,76.9999976501466,2|0,1:2|0:0,0:0:0:0:
192,205,27604,2,0,P|161:203|100:193,1,76.9999976501466,2|0,1:2|0:0,0:0:0:0:
368,80,27892,22,0,P|408:71|456:60,1,82.5,4|0,0:3|0:0,0:0:0:0:
456,52,28468,6,0,P|435:117|428:188,1,110,4|2,1:0|2:0,0:0:0:0:
360,289,28900,1,2,0:0:0:0:
268,128,29044,2,0,P|294:116|372:104,1,65.9999979858399,8|0,0:0|0:0,0:0:0:0:
184,244,29332,1,4,0:3:0:0:
248,120,29476,1,4,0:3:0:0:
172,252,29620,6,0,B|116:256|72:276|72:276|20:264|8:216,1,165,0|0,1:0|1:0,0:0:0:0:
140,141,30197,1,8,0:2:0:0:
140,141,30341,38,0,P|105:147|84:157,1,38.4999988250733,2|0,0:0|0:0,0:0:0:0:
180,56,30629,2,0,P|165:44|136:24,1,38.4999988250733,2|2,0:0|1:0,0:0:0:0:
248,120,30917,2,0,P|262:95|276:64,1,38.4999988250733,2|0,0:0|0:0,0:0:0:0:
248,232,31205,1,2,0:0:0:0:
248,232,31349,2,0,P|215:218|184:208,1,38.4999988250733,8|2,0:0|0:0,0:0:0:0:
340,168,31637,2,0,P|361:163|388:156,2,47.6666644846599,4|4|4,0:2|0:2|0:2,0:0:0:0:
248,120,31925,6,0,P|185:133|116:144,1,110,0|8,1:0|2:3,0:0:0:0:
24,84,32357,2,0,L|12:20,2,55,8|8|8,0:3|0:3|0:3,0:0:0:0:
128,160,32789,1,2,0:0:0:0:
176,40,32933,1,2,0:0:0:0:
116,180,33077,22,0,P|108:236|108:308,1,110,4|2,1:1|2:2,0:0:0:0:
264,256,33509,1,2,0:0:0:0:
264,256,33653,2,0,P|232:247|172:236,1,55,8|0,0:2|0:0,0:0:0:0:
316,344,33941,1,4,2:3:0:0:
396,256,34085,1,4,0:3:0:0:
296,352,34229,6,0,P|236:358|160:364,1,110,0|4,1:2|2:3,0:0:0:0:
89,237,34661,2,0,P|96:266|113:301,1,55,0|8,1:2|0:2,0:0:0:0:
196,168,34949,2,0,P|204:143|212:100,2,55,2|0|2,0:0|0:0|0:0,0:0:0:0:
36,120,35381,22,0,P|63:106|104:92,1,65.9999979858399,0|2,0:0|0:0,0:0:0:0:
196,12,35669,2,0,P|270:30|352:44,1,131.99999597168,0|2,0:0|0:0,0:0:0:0:
452,24,36101,1,0,0:0:0:0:
452,24,36245,2,0,P|471:49|476:112,1,65.9999979858399,2|2,0:0|0:0,0:0:0:0:
368,228,36533,2,0,P|373:195|382:163,1,65.9999979858399,2|0,0:0|0:0,0:0:0:0:
336,64,36821,22,0,P|301:76|252:88,2,51.3333317667644,2|2|2,1:2|1:2|1:2,0:0:0:0:
288,180,37109,2,0,P|238:171|148:164,1,115.49999647522,2|0,1:2|0:0,0:0:0:0:
96,92,37397,2,0,P|97:70|104:36,2,51.3333317667644,4|4|4,0:0|0:0|0:0,0:0:0:0:
20,196,37685,54,0,P|-20:244|32:336,1,165,4|0,1:0|0:0,0:0:0:0:
132,364,38261,2,0,L|248:348,1,98.9999969787599,8|0,0:2|0:0,0:0:0:0:
244,332,38549,2,0,P|281:348|320:368,1,55,2|0,0:0|0:0,0:0:0:0:
452,252,38837,22,0,P|450:285|440:324,2,65.9999979858399,8|2|2,0:2|0:0|0:0,0:0:0:0:
396,88,39269,1,0,0:0:0:0:
300,200,39413,2,0,L|312:284,2,65.9999979858399,8|2|2,0:2|0:0|0:0,0:0:0:0:
400,60,39845,1,0,0:0:0:0:
268,96,39989,38,0,L|184:80,1,60.5000018463135,0|0,1:0|0:0,0:0:0:0:
112,152,40277,2,0,L|52:140,1,60.5000018463135,2|0,0:0|0:0,0:0:0:0:
208,280,40565,2,0,L|103:260,1,90.7500027694703,8|0,0:0|0:0,0:0:0:0:
32,324,40853,6,0,L|12:260,2,51.3333317667644,4|4|4,0:2|0:2|0:2,0:0:0:0:
118,263,41141,6,0,P|126:207|142:123,1,110,0|2,1:0|0:0,0:0:0:0:
204,304,41573,1,2,0:2:0:0:
47,195,41717,2,0,P|49:166|55:123,1,55,8|0,1:2|0:0,0:0:0:0:
192,20,42005,2,0,P|201:49|208:84,1,55,4|0,0:0|0:0,0:0:0:0:
320,176,42293,5,4,1:0:0:0:
320,176,42869,2,0,L|424:160,1,98.9999969787599,8|0,0:0|0:0,0:0:0:0:
448,156,43157,2,0,P|460:181|464:208,1,55,4|4,0:3|0:3,0:0:0:0:
336,300,43445,6,0,P|284:260|192:272,1,131.99999597168,2|4,0:0|0:3,0:0:0:0:
56,300,43877,1,4,0:3:0:0:
184,368,44021,2,0,P|222:364|268:332,1,65.9999979858399,2|2,0:0|0:0,0:0:0:0:
140,180,44309,1,2,0:0:0:0:
72,312,44453,1,0,0:0:0:0:
136,160,44597,6,0,L|124:80,1,65.9999979858399,4|0,1:0|0:0,0:0:0:0:
20,208,44885,1,2,0:0:0:0:
20,208,45029,1,2,0:0:0:0:
219,258,45173,2,0,L|231:178,1,65.9999979858399,8|0,0:0|0:0,0:0:0:0:
20,208,45462,1,0,1:0:0:0:
88,324,45606,1,0,2:0:0:0:
328,324,45750,6,0,P|320:291|312:216,1,76.9999976501466,2|0,1:2|0:0,0:0:0:0:
432,176,46038,2,0,P|424:143|416:68,1,76.9999976501466,2|0,1:2|0:0,0:0:0:0:
248,12,46326,2,0,P|200:40|224:112,1,115.49999647522,2|0,1:2|0:0,0:0:0:0:
252,172,46614,2,0,P|271:161|320:148,2,51.3333317667644,4|0|0,1:2|0:0|0:0,0:0:0:0:
219,258,46902,6,0,B|143:282|143:230|39:266,1,165,4|0,1:0|0:0,0:0:0:0:
204,356,47478,2,0,P|233:348|292:332,1,55,8|0,2:2|0:0,0:0:0:0:
336,144,47766,1,4,0:3:0:0:
219,258,47910,1,4,0:3:0:0:
368,360,48054,38,0,P|376:304|328:256,1,110,4|4,2:3|2:3,0:0:0:0:
143,188,48486,2,0,P|193:181|283:164,1,110,4|0,2:3|2:3,0:0:0:0:
396,56,48918,2,0,P|382:86|368:128,1,55,2|0,0:0|0:0,0:0:0:0:
368,236,49206,6,0,P|431:250|476:260,2,110,4|2|8,1:1|0:0|0:0,0:0:0:0:
203,94,50070,2,0,L|195:42,2,36.6666666666667,2|2|2,1:2|1:2|1:2,0:0:0:0:
252,172,50358,38,0,P|242:227|235:281,1,110,4|4,1:2|0:3,0:0:0:0:
316,368,50790,2,0,P|355:373|392:384,2,55,4|4|4,0:3|0:3|0:3,0:0:0:0:
204,296,51222,2,0,P|166:301|128:312,1,55,4|4,0:3|0:3,0:0:0:0:
0,200,51510,54,0,B|52:200|92:216|92:216|116:192|164:184,1,165,4|0,0:0|0:0,0:0:0:0:
222,6,52086,2,0,P|194:70|206:98,1,98.9999969787599,8|0,2:2|0:0,0:0:0:0:
254,114,52374,2,0,P|268:87|270:58,1,55,4|2,2:2|0:0,0:0:0:0:
420,0,52662,22,0,B|440:24|440:24|452:128,1,110,0|0,1:3|0:0,0:0:0:0:
388,212,53094,1,2,0:0:0:0:
388,212,53238,2,0,P|434:200|504:192,1,110,8|0,1:2|0:0,0:0:0:0:
372,336,53814,54,0,P|336:326|252:312,1,115.49999647522,0|0,1:0|1:1,0:0:0:0:
232,208,54390,2,0,P|153:228|84:240,1,148.49999546814,0|0,1:0|1:1,0:0:0:0:
248,24,54966,38,0,P|265:56|264:108,1,71.4999967269899,0|0,1:0|1:0,0:0:0:0:
232,208,55254,1,0,1:0:0:0:
232,208,55542,5,0,1:0:0:0:
352,192,55686,1,0,1:0:0:0:
472,172,55830,2,0,L|464:228,1,53.6249975452424,0|0,1:0|0:0,0:0:0:0:
352,192,56118,6,0,P|312:116|404:24,1,197.99999395752,4|0,1:2|0:0,0:0:0:0:
476,136,56694,1,8,1:2:0:0:
276,96,56838,1,0,0:0:0:0:
384,272,56982,2,0,P|417:266|472:252,1,65.9999979858399,2|0,2:2|0:0,0:0:0:0:
292,352,57270,6,0,B|200:332|200:332|184:296,1,131.99999597168,4|4,0:0|0:3,0:0:0:0:
96,144,57702,1,0,1:3:0:0:
140,288,57846,2,0,P|134:315|116:380,1,65.9999979858399,8|4,1:2|2:3,0:0:0:0:
12,204,58134,2,0,L|0:112,1,82.5,4|0,2:3|0:0,0:0:0:0:
64,56,58422,6,0,P|36:41|-4:32,1,65.9999979858399,4|2,0:0|0:0,0:0:0:0:
200,120,58710,2,0,P|168:126|128:136,1,65.9999979858399,0|2,0:0|0:0,0:0:0:0:
340,248,58998,2,0,P|283:239|216:220,1,98.9999969787599,8|0,1:2|0:0,0:0:0:0:
216,231,59286,6,0,P|188:267|188:315,1,76.9999976501466,2|0,0:0|0:0,0:0:0:0:
304,136,59574,2,0,L|288:32,1,76.9999976501466,2|0,0:0|0:0,0:0:0:0:
424,180,59862,2,0,P|449:209|456:272,1,76.9999976501466,2|0,0:0|0:0,0:0:0:0:
288,336,60150,21,8,1:2:0:0:
320,148,60294,1,0,0:0:0:0:
436,280,60438,2,0,P|400:270|332:256,1,82.5,2|0,0:0|0:0,0:0:0:0:
243,228,60726,6,0,B|172:240|132:284|132:284|76:284|72:224,1,197.99999395752,4|0,0:0|0:0,0:0:0:0:
56,132,61303,2,0,P|91:142|148:152,1,65.9999979858399,8|0,1:2|0:0,0:0:0:0:
260,48,61591,2,0,P|240:76|220:132,1,65.9999979858399,2|0,0:0|0:0,0:0:0:0:
276,304,61879,5,4,0:2:0:0:
316,120,62023,1,4,0:3:0:0:
148,160,62167,1,4,0:3:0:0:
336,220,62311,1,4,0:3:0:0:
119,148,62455,2,0,L|55:132,1,65.9999979858399,8|4,1:2|0:3,0:0:0:0:
136,316,62743,2,0,L|199:332,1,65.9999979858399,4|0,0:3|0:3,0:0:0:0:
360,136,63031,6,0,P|284:144|248:224,1,131.99999597168,4|0,0:2|0:0,0:0:0:0:
300,340,63463,1,0,1:0:0:0:
456,168,63607,2,0,P|454:135|448:80,1,65.9999979858399,8|2,1:2|0:0,0:0:0:0:
392,260,63895,2,0,P|429:269|460:276,1,65.9999979858399,4|0,0:3|0:0,0:0:0:0:
252,184,64183,54,0,P|185:196|124:216,1,115.49999647522,4|0,0:3|0:0,0:0:0:0:
73,170,64471,2,0,P|49:138|49:98,1,55,4|4,2:3|2:3,0:0:0:0:
252,184,64759,1,8,1:2:0:0:
172,4,64903,1,2,0:0:0:0:
304,64,65047,22,0,P|346:74|384:80,1,74.2499977340699,4|0,0:0|0:0,0:0:0:0:
440,24,65335,6,0,B|396:88|412:164|412:164|376:160|344:200,1,197.99999395752,4|0,1:0|0:0,0:0:0:0:
352,328,65911,1,8,1:2:0:0:
496,124,66055,1,0,0:0:0:0:
270,121,66199,2,0,P|256:155|250:209,1,65.9999979858399,2|0,0:0|0:0,0:0:0:0:
352,328,66487,6,0,P|294:308|208:288,1,131.99999597168,4|0,0:0|0:0,0:0:0:0:
136,120,66919,1,0,1:0:0:0:
76,232,67063,2,0,P|111:226|168:216,1,65.9999979858399,8|4,1:2|0:3,0:0:0:0:
300,56,67351,2,0,P|267:61|234:66,1,65.9999979858399,4|4,0:3|0:3,0:0:0:0:
16,163,67639,6,0,P|-11:222|3:285,1,131.99999597168,2|2,0:0|0:0,0:0:0:0:
144,312,68071,1,0,0:0:0:0:
100,96,68215,2,0,P|79:83|28:64,1,65.9999979858399,8|0,1:2|0:0,0:0:0:0:
168,200,68503,2,0,P|203:194|260:184,1,65.9999979858399,2|0,1:2|0:0,0:0:0:0:
372,28,68791,6,0,B|360:76|344:112|344:112|353:136|384:180,1,131.99999597168,2|2,1:2|2:2,0:0:0:0:
488,216,69223,1,0,0:0:0:0:
244,160,69367,2,0,P|235:122|232:76,1,65.9999979858399,2|2,0:0|0:0,0:0:0:0:
316,268,69655,2,0,P|284:258|220:244,1,98.9999969787599,2|0,0:0|0:0,0:0:0:0:
120,184,69943,22,0,P|80:240|120:312,1,137.5,4|0,1:0|0:0,0:0:0:0:
136,320,70375,1,0,1:0:0:0:
319,146,70519,6,0,P|282:153|219:162,1,76.9999976501466,4|0,1:0|0:0,0:0:0:0:
112,28,70807,2,0,P|138:56|168:108,1,76.9999976501466,0|0,1:0|0:0,0:0:0:0:
212,272,71095,6,0,P|285:282|372:292,1,131.99999597168,4|4,1:0|0:3,0:0:0:0:
472,196,71527,1,4,1:0:0:0:
336,56,71671,1,4,0:3:0:0:
364,260,71815,1,4,0:3:0:0:
388,136,71959,2,0,P|356:144|311:149,1,65.9999979858399,2|2,2:0|2:0,0:0:0:0:
228,112,72175,1,2,2:0:0:0:
228,112,72247,22,0,L|236:56,15,41.2500015735627,0|0|0|0|0|0|0|0|0|0|0|0|2|2|2|2,0:0|0:0|0:0|0:0|0:0|0:0|0:0|0:0|0:0|0:0|0:0|0:0|2:0|2:0|2:0|2:0,0:0:0:0:
244,212,73399,2,0,P|192:188|120:212,1,123.750004720688,10|2,2:0|2:0,0:0:0:0:
120,244,73687,2,0,P|144:272|184:288,1,55,0|0,1:0|0:0,0:0:0:0:
304,308,73975,21,4,1:3:0:0:
328,216,74119,1,4,2:3:0:0:
352,120,74263,1,4,2:3:0:0:
352,120,74551,21,2,0:0:0:0:
352,120,75127,1,2,0:0:0:0:
352,120,75271,1,0,0:0:0:0:
232,156,75415,2,0,P|194:150|152:140,2,82.5000031471254,0|2|2,0:0|0:0|0:0,0:0:0:0:
336,24,76279,1,2,0:0:0:0:
448,128,76567,6,0,P|427:194|416:272,1,142.99999345398,2|2,0:0|2:0,0:0:0:0:
264,376,77432,2,0,P|244:336|248:280,1,82.5000031471254,2|2,0:0|0:0,0:0:0:0:
313,169,78008,2,0,P|268:162|221:153,1,82.5000031471254,2|0,2:0|2:0,0:0:0:0:
120,56,78584,53,2,0:0:0:0:
120,56,78728,1,0,2:0:0:0:
216,128,78872,2,0,P|260:121|308:112,1,82.5000031471254,2|2,2:0|2:2,0:0:0:0:
120,56,79736,5,2,0:0:0:0:
120,56,79880,1,0,2:0:0:0:
76,152,80024,1,2,2:0:0:0:
152,228,80168,1,0,0:0:0:0:
256,200,80312,54,0,P|288:185|336:176,1,76.9999976501466,2|2,0:0|0:0,0:0:0:0:
204,104,80888,2,0,P|168:95|124:72,1,65.9999979858399,2|2,0:0|0:0,0:0:0:0:
256,192,81464,12,0,83192,0:0:0:0:
