osu file format v14

[General]
AudioFilename: Horie Yui - Sweet & Sweet CHERRY(TV Size).mp3
AudioLeadIn: 2000
PreviewTime: 55542
Countdown: 0
SampleSet: Soft
StackLeniency: 0.7
Mode: 0
LetterboxInBreaks: 0
WidescreenStoryboard: 0

[Editor]
Bookmarks: 90248
DistanceSpacing: 1.8
BeatDivisor: 8
GridSize: 4
TimelineZoom: 1.4

[Metadata]
Title:Sweet & Sweet CHERRY
TitleUnicode:Sweet & Sweet CHERRY
Artist:Yui Horie
ArtistUnicode:堀江由衣
Creator:Gaia
Version:Hard
Source:ゴールデンタイム
Tags:cRyo[iceeicee] golden time tv size ending ed nopan
BeatmapID:1212522
BeatmapSetID:572206

[Difficulty]
HPDrainRate:5
CircleSize:4
OverallDifficulty:5
ApproachRate:8
SliderMultiplier:2.1
SliderTickRate:2

[Events]
//Background and Video events
0,0,"bg.jpg",0,0
//Break Periods
//Storyboard Layer 0 (Background)
//Storyboard Layer 1 (Fail)
//Storyboard Layer 2 (Pass)
//Storyboard Layer 3 (Foreground)
//Storyboard Sound Samples

[TimingPoints]
-1485,576.036866359447,4,2,1,15,1,0
243,-142.857142857143,4,2,1,15,0,0
821,-142.857142857143,4,2,1,20,0,0
1397,-142.857142857143,4,2,1,15,0,0
1827,-142.857142857143,4,2,1,25,0,0
2547,-142.857142857143,4,2,1,20,0,0
3987,-142.857142857143,4,2,1,25,0,0
4087,-142.857142857143,4,2,1,30,0,0
4419,-142.857142857143,4,2,1,20,0,0
5427,-111.111111111111,4,1,1,15,0,0
5715,-111.111111111111,4,1,1,10,0,0
6579,-111.111111111111,4,2,11,35,0,0
7155,-111.111111111111,4,2,1,25,0,0
7443,-111.111111111111,4,1,11,10,0,0
7729,-111.111111111111,4,2,2,55,0,0
7875,-111.111111111111,4,2,2,25,0,0
8017,-111.111111111111,4,1,11,45,0,0
8306,-111.111111111111,4,2,2,55,0,0
8307,-125,4,2,2,55,0,0
8451,-125,4,2,11,55,0,0
8594,-125,4,2,11,45,0,0
8667,-125,4,2,2,5,0,0
8883,-125,4,3,11,80,0,0
9387,-125,4,2,4,55,0,0
10035,-83.3333333333333,4,2,1,55,0,0
10899,-83.3333333333333,4,2,11,65,0,0
10999,-83.3333333333333,4,2,1,55,0,0
12339,-83.3333333333333,4,2,11,65,0,0
12439,-83.3333333333333,4,2,1,55,0,0
13203,-83.3333333333333,4,2,11,65,0,0
13303,-83.3333333333333,4,2,1,35,0,0
13491,-83.3333333333333,4,2,11,65,0,0
13591,-83.3333333333333,4,2,1,55,0,0
14644,-100,4,2,1,55,0,0
15490,-100,4,2,11,65,0,0
15796,-83.3333333333333,4,2,11,55,0,0
15868,-83.3333333333333,4,2,1,55,0,0
16084,-83.3333333333333,4,2,11,60,0,0
16638,-83.3333333333333,4,2,3,55,0,0
16738,-83.3333333333333,4,2,1,5,0,0
16876,-83.3333333333333,4,2,1,55,0,0
16948,-125,4,2,1,55,0,0
17213,-125,4,2,11,65,0,0
17934,-125,4,2,11,55,0,0
18100,-111.111111111111,4,2,11,55,0,0
18676,-142.857142857143,4,2,11,75,0,0
19232,-142.857142857143,4,2,3,55,0,0
19252,-100,4,2,3,55,0,0
21556,-100,4,1,3,35,0,0
21656,-100,4,2,3,55,0,0
22400,-100,4,2,11,25,0,0
22688,-100,4,2,1,55,0,0
23552,-100,4,2,3,55,0,0
24704,-100,4,2,1,55,0,0
25713,-100,4,2,3,55,0,0
26164,-100,4,1,3,35,0,0
26264,-100,4,2,3,55,0,0
27297,-100,4,2,1,55,0,0
27316,-76.9230769230769,4,2,1,55,0,0
27873,-76.9230769230769,4,2,11,85,0,0
28108,-76.9230769230769,4,2,2,55,0,0
28180,-76.9230769230769,4,2,3,75,0,0
28449,-76.9230769230769,4,2,3,55,0,0
28468,-100,4,2,3,55,0,0
30773,-100,4,1,11,35,0,0
30873,-100,4,2,3,55,0,0
31565,-100,4,1,10,25,0,0
31925,-100,4,2,2,45,0,0
32213,-100,4,2,11,45,0,0
32717,-100,4,2,1,45,0,0
34930,-100,4,2,3,55,0,0
36370,-100,4,2,1,55,0,0
36677,-100,4,2,1,25,0,0
36749,-100,4,2,1,5,0,0
36821,-66.6666666666667,4,1,10,55,0,0
37090,-66.6666666666667,4,2,10,55,0,0
37301,-66.6666666666667,4,2,11,55,0,0
37397,-66.6666666666667,4,2,11,25,0,0
37685,-100,4,2,3,55,0,0
38819,-100,4,2,4,45,0,0
38919,-100,4,2,3,55,0,0
39395,-100,4,2,4,45,0,0
39495,-100,4,2,3,55,0,0
40835,-100,4,1,10,45,0,0
41123,-100,4,2,1,55,0,0
41987,-100,4,2,3,45,0,0
42131,-100,4,2,3,55,0,0
43157,-100,4,2,11,55,0,0
43949,-100,4,2,3,55,0,0
44453,-100,4,2,3,5,0,0
44553,-100,4,2,3,55,0,0
45732,-100,4,2,1,55,0,0
45750,-76.9230769230769,4,2,1,55,0,0
45894,-76.9230769230769,4,2,11,55,0,0
45994,-76.9230769230769,4,2,1,55,0,0
46182,-76.9230769230769,4,2,11,55,0,0
46282,-76.9230769230769,4,2,1,55,0,0
46470,-76.9230769230769,4,2,11,55,0,0
46596,-76.9230769230769,4,2,10,35,0,0
46614,-66.6666666666667,4,2,10,35,0,0
46884,-66.6666666666667,4,2,3,55,0,0
46902,-100,4,2,3,55,0,0
47622,-100,4,2,11,5,0,0
47766,-100,4,2,11,55,0,0
48054,-100,4,1,11,55,0,0
48900,-100,4,2,3,55,0,0
49206,-100,4,2,3,40,0,0
49306,-100,4,2,3,55,0,0
50070,-100,4,1,10,45,0,0
50358,-100,4,1,11,35,0,0
50502,-100,4,2,11,55,0,0
51493,-100,4,2,10,45,0,0
51593,-100,4,2,3,55,0,0
52374,-100,4,2,10,45,0,0
52474,-100,4,2,3,55,0,0
53814,-100,4,2,3,45,0,0
55542,-83.3333333333333,4,2,3,45,0,0
55813,-83.3333333333333,4,2,3,55,0,0
55974,-83.3333333333333,4,2,3,5,0,0
56118,-83.3333333333333,4,2,3,55,0,1
57558,-83.3333333333333,4,2,11,65,0,1
57658,-83.3333333333333,4,2,3,40,0,1
57990,-83.3333333333333,4,2,11,65,0,1
58350,-83.3333333333333,4,2,3,55,0,1
62023,-83.3333333333333,4,2,11,65,0,1
62383,-83.3333333333333,4,2,3,55,0,1
62599,-83.3333333333333,4,2,11,65,0,1
62815,-83.3333333333333,4,2,3,5,0,1
62959,-83.3333333333333,4,2,3,55,0,1
63463,-83.3333333333333,4,2,3,45,0,1
63879,-83.3333333333333,4,2,11,65,0,1
63967,-83.3333333333333,4,2,3,5,0,1
64167,-83.3333333333333,4,2,11,95,0,1
64267,-83.3333333333333,4,2,3,5,0,1
64399,-83.3333333333333,4,2,11,65,0,1
64687,-83.3333333333333,4,2,3,55,0,1
66919,-83.3333333333333,4,2,3,45,0,1
67207,-83.3333333333333,4,2,11,65,0,1
67567,-83.3333333333333,4,2,3,55,0,1
71095,-83.3333333333333,4,2,11,55,0,1
71887,-83.3333333333333,4,2,3,55,0,1
72247,-111.111111111111,4,2,3,55,0,1
73399,-90.9090909090908,4,2,3,55,0,1
73975,-90.9090909090908,4,2,2,55,0,0
74335,-90.9090909090908,4,2,12,55,0,0
74551,-142.857142857143,4,2,12,55,0,0
75127,-142.857142857143,4,2,12,45,0,0
76856,-142.857142857143,4,2,12,50,0,0
77720,-142.857142857143,4,2,12,55,0,0
78008,-142.857142857143,4,2,12,60,0,0
78584,-142.857142857143,4,2,12,50,0,0
79160,-142.857142857143,4,2,10,60,0,0
79260,-142.857142857143,4,2,12,50,0,0
79736,-142.857142857143,4,2,12,40,0,0
80312,-142.857142857143,4,2,12,60,0,0
80600,-142.857142857143,4,2,12,50,0,0
80888,-142.857142857143,4,2,12,45,0,0
81176,-142.857142857143,4,2,12,40,0,0
81464,-142.857142857143,4,2,11,5,0,0

[Colours]
Combo1 : 243,243,243
Combo2 : 255,102,102
Combo3 : 205,155,255
Combo4 : 187,0,94
Combo5 : 255,157,111

[HitObjects]
419,88,243,54,0,P|426:66|433:35,2,36.749998878479
352,133,819,2,0,P|307:126|231:112,1,110.249996635437,2|0,0:0|0:0,0:0:0:0:
213,87,1395,2,0,P|202:62|194:36,2,36.749998878479,0|0|0,0:0|0:0|0:0,0:0:0:0:
162,179,1971,22,0,P|151:219|135:270,1,73.4999977569581,2|2,0:0|0:0,0:0:0:0:
85,307,2547,1,0,0:0:0:0:
201,360,2835,2,0,P|247:352|284:344,1,73.4999977569581,2|0,0:0|0:0,0:0:0:0:
352,324,3411,54,0,P|379:357|399:391,2,73.4999977569581,2|2|2,0:0|0:0|0:0,0:0:0:0:
296,264,4275,2,0,P|311:234|337:183,1,73.4999977569581,2|0,0:0|0:0,0:0:0:0:
339,106,4851,2,0,L|397:118,2,36.749998878479,2|0|2,0:0|0:0|0:0,0:0:0:0:
235,18,5427,54,0,P|193:46|208:112,1,94.499997116089,4|0,1:0|0:0,0:0:0:0:
205,126,5859,2,0,L|95:116,1,94.499997116089,0|0,0:0|0:0,0:0:0:0:
68,116,6291,1,0,0:0:0:0:
0,236,6579,2,0,P|24:291|114:290,1,141.749995674133,8|0,2:1|0:0,0:0:0:0:
132,274,7155,2,0,P|187:256|228:268,1,94.499997116089,2|0,0:0|0:0,0:0:0:0:
278,327,7731,6,0,P|321:317|376:309,1,94.499997116089,2|2,0:0|2:1,0:0:0:0:
375,225,8307,2,0,P|418:215|473:207,1,84,2|2,0:0|2:1,0:0:0:0:
484,129,8883,1,2,2:3:0:0:
328,66,9459,2,0,P|337:39|344:9,2,42,2|2|2,2:2|0:0|0:0,0:0:0:0:
230,182,10035,6,0,P|160:181|120:62,1,188.999994232178,4|2,1:0|0:0,0:0:0:0:
39,33,10611,2,0,P|27:74|26:145,1,62.9999980773926,8|0,2:2|0:0,0:0:0:0:
47,179,10899,2,0,P|57:217|64:276,1,62.9999980773926,4|0,2:3|0:0,0:0:0:0:
60,328,11187,2,0,P|31:317|-5:310,2,62.9999980773926,0|0|0,3:0|3:0|3:0,0:0:0:0:
141,362,11619,1,0,3:0:0:0:
141,362,11763,2,0,P|174:353|241:343,1,62.9999980773926,8|0,2:2|0:0,0:0:0:0:
273,280,12051,6,0,B|405:309|405:309|365:260,1,188.999994232178,2|0,0:0|0:0,0:0:0:0:
336,186,12627,2,0,P|344:150|354:97,1,62.9999980773926,2|2,0:0|0:0,0:0:0:0:
276,75,12915,2,0,P|269:105|262:136,1,62.9999980773926,8|0,2:2|0:0,0:0:0:0:
177,162,13203,2,0,P|151:154|105:134,1,62.9999980773926,4|0,2:3|0:0,0:0:0:0:
35,108,13491,2,0,P|84:148|56:259,1,188.999994232178,4|2,2:3|0:0,0:0:0:0:
33,342,14067,2,0,P|60:334|116:324,1,62.9999980773926,8|2,0:0|0:0,0:0:0:0:
179,302,14356,1,2,0:0:0:0:
179,302,14644,38,0,L|315:333,1,105,4|0,1:1|0:0,0:0:0:0:
352,280,15076,1,0,0:0:0:0:
352,280,15220,2,0,L|467:265,1,105,8|4,3:2|2:3,0:0:0:0:
376,80,15796,2,0,P|313:95|300:159,1,125.999996154785,4|4,1:0|0:3,0:0:0:0:
259,242,16228,1,4,0:3:0:0:
259,242,16300,1,0,1:3:0:0:
259,242,16372,2,0,P|230:236|173:222,1,62.9999980773926,4|4,0:3|0:3,0:0:0:0:
153,138,16660,2,0,L|76:162,1,62.9999980773926,4|0,0:0|0:3,0:0:0:0:
24,231,16948,6,0,B|4:144|4:144|-36:120,2,126,4|2|2,1:0|2:0|0:0,0:0:0:0:
142,325,18100,22,0,P|185:281|292:280,1,141.749995674133,8|0,2:1|0:0,0:0:0:0:
341,235,18676,22,0,P|290:233|259:168,1,110.249996635437,8|2,2:3|0:2,0:0:0:0:
267,98,19252,6,0,L|105:120,1,157.5,4|2,1:0|0:0,0:0:0:0:
22,132,19828,2,0,P|11:167|4:215,1,52.5,8|0,0:2|0:0,0:0:0:0:
24,270,20116,2,0,P|35:303|49:332,1,52.5,4|4,2:3|0:3,0:0:0:0:
115,369,20404,2,0,P|168:329|282:348,1,157.5,0|0,1:3|1:0,0:0:0:0:
334,289,20980,1,8,0:2:0:0:
334,289,21124,54,0,P|365:300|398:296,1,52.5,2|0,0:0|0:0,0:0:0:0:
438,229,21412,2,0,P|431:196|412:169,1,52.5,2|0,0:0|0:0,0:0:0:0:
333,169,21700,2,0,P|307:190|294:220,1,52.5,2|0,0:0|0:0,0:0:0:0:
245,280,21988,1,2,0:0:0:0:
245,280,22132,2,0,L|259:349,1,52.5,8|2,0:0|0:0,0:0:0:0:
166,335,22420,2,0,L|155:283,1,52.5,4|0,2:0|0:0,0:0:0:0:
120,201,22708,2,0,P|108:140|155:102,1,105,0|0,1:0|2:3,0:0:0:0:
207,61,23140,1,2,0:0:0:0:
207,61,23284,2,0,P|218:99|222:135,1,52.5,8|0,0:0|0:0,0:0:0:0:
281,176,23572,2,0,L|341:167,1,52.5,0|0,0:0|0:0,0:0:0:0:
399,84,23860,22,0,P|439:135|415:239,1,157.5,0|0,1:2|0:0,0:0:0:0:
387,301,24436,2,0,L|317:289,1,52.5,8|0,2:2|0:0,0:0:0:0:
252,257,24724,2,0,L|179:278,1,52.5,0|0,1:3|2:3,0:0:0:0:
125,318,25012,2,0,B|27:296|27:296|4:198,1,157.5,0|0,1:3|1:3,0:0:0:0:
1,152,25588,1,8,0:0:0:0:
1,152,25732,38,0,L|68:127,1,52.5,2|0,0:0|0:0,0:0:0:0:
90,54,26020,2,0,L|154:77,1,52.5,2|0,0:0|0:0,0:0:0:0:
215,24,26308,2,0,L|249:89,1,52.5,2|0,0:0|0:0,0:0:0:0:
326,88,26596,1,2,0:0:0:0:
326,88,26740,2,0,L|303:176,1,52.5,8|0,0:0|0:0,0:0:0:0:
262,212,27028,2,0,L|275:286,1,52.5,0|0,1:0|0:0,0:0:0:0:
293,350,27316,38,0,B|385:329|385:329|404:286,2,136.499993751526,2|2|4,1:2|1:2|0:3,0:0:0:0:
44,352,28468,6,0,P|39:286|146:258,1,157.5,4|2,1:0|0:0,0:0:0:0:
160,172,29044,2,0,P|150:137|142:99,1,52.5,8|0,0:0|0:0,0:0:0:0:
172,36,29332,1,4,0:3:0:0:
172,36,29476,1,4,0:3:0:0:
280,44,29620,2,0,P|318:109|274:180,1,157.5,0|0,1:0|1:0,0:0:0:0:
230,248,30197,1,8,0:2:0:0:
230,248,30341,6,0,L|250:320,1,52.5,2|0,0:0|0:0,0:0:0:0:
306,362,30629,2,0,L|324:297,1,52.5,2|2,0:0|1:0,0:0:0:0:
377,242,30917,2,0,L|397:314,1,52.5,2|0,0:0|0:0,0:0:0:0:
445,362,31205,1,2,0:0:0:0:
445,362,31349,2,0,P|478:368|509:374,2,52.5,8|2|4,0:0|0:0|0:2,0:0:0:0:
391,292,31781,1,0,0:0:0:0:
458,233,31925,2,0,P|476:176|414:130,1,105,0|8,1:0|2:3,0:0:0:0:
383,86,32357,1,8,0:3:0:0:
383,86,32501,2,0,L|320:108,1,52.5,8|0,0:3|0:0,0:0:0:0:
264,156,32789,1,2,0:0:0:0:
193,100,32933,1,2,0:0:0:0:
193,100,33077,22,0,B|145:102|102:70|102:70|52:82|31:143,1,157.5,4|2,1:1|0:0,0:0:0:0:
6,177,33653,2,0,L|23:252,1,52.5,8|0,0:2|0:0,0:0:0:0:
100,260,33941,1,4,2:3:0:0:
88,348,34085,1,4,2:3:0:0:
182,365,34229,2,0,B|236:353|296:345|296:345|305:291,1,157.5,0|0,1:2|1:2,0:0:0:0:
352,228,34805,1,8,0:2:0:0:
352,228,34949,38,0,P|374:219|419:212,1,52.5,2|0,0:0|0:0,0:0:0:0:
438,132,35237,2,0,P|412:126|387:117,1,52.5,2|0,0:0|0:0,0:0:0:0:
298,108,35525,2,0,P|278:144|273:172,1,52.5,2|0,0:0|0:0,0:0:0:0:
213,218,35813,2,0,L|234:291,2,52.5,2|2|2,0:0|0:0|0:0,0:0:0:0:
153,151,36245,2,0,L|73:170,1,52.5,4|2,2:3|0:0,0:0:0:0:
14,180,36533,1,4,2:3:0:0:
14,180,36821,38,0,P|3:155|-7:113,3,52.5000020027161,2|2|2|2,1:2|1:2|1:2|1:2,0:0:0:0:
138,291,37397,2,0,P|125:326|121:354,2,52.5000020027161,4|4|4,0:0|0:0|0:0,0:0:0:0:
171,263,37685,6,0,P|233:241|285:323,1,157.5,4|0,1:0|0:0,0:0:0:0:
356,368,38261,2,0,P|366:336|375:290,1,52.5,8|0,0:2|0:0,0:0:0:0:
436,248,38549,2,0,L|416:182,1,52.5,2|0,0:0|0:0,0:0:0:0:
360,88,38837,2,0,L|423:61,2,52.5,8|2|2,0:2|0:0|0:0,0:0:0:0:
240,56,39269,1,0,0:0:0:0:
240,56,39413,2,0,P|250:27|273:-11,2,52.5,8|2|2,0:2|0:0|0:0,0:0:0:0:
60,166,39989,6,0,P|84:160|136:148,1,52.5,0|0,1:0|0:0,0:0:0:0:
131,240,40277,2,0,P|105:246|79:251,1,52.5,2|0,0:0|0:0,0:0:0:0:
39,331,40565,2,0,P|72:378|141:372,1,105,8|2,0:0|0:2,0:0:0:0:
193,339,40997,1,2,0:2:0:0:
193,339,41141,2,0,L|317:319,1,105,0|2,1:0|0:0,0:0:0:0:
356,256,41573,1,2,0:2:0:0:
356,256,41717,2,0,L|429:241,1,52.5,8|0,1:2|0:0,0:0:0:0:
494,226,42005,1,4,0:0:0:0:
494,226,42293,5,4,1:0:0:0:
282,22,42869,2,0,P|274:54|268:99,1,52.5,8|0,0:0|0:0,0:0:0:0:
212,140,43157,1,4,0:3:0:0:
156,72,43301,1,4,0:3:0:0:
80,116,43445,2,0,P|52:69|96:24,2,105,2|4|2,0:0|0:3|0:0,0:0:0:0:
197,223,44309,2,0,P|172:215|123:207,1,52.5,2|0,0:0|0:0,0:0:0:0:
74,263,44597,6,0,P|90:322|113:381,1,105,4|2,1:0|0:0,0:0:0:0:
194,370,45029,1,2,0:0:0:0:
194,370,45173,2,0,P|242:354|319:338,1,105,8|0,0:0|1:0,0:0:0:0:
353,274,45606,1,0,2:0:0:0:
353,274,45750,6,0,B|381:358|381:358|440:368,2,136.499993751526,2|2|2,1:2|1:2|1:2,0:0:0:0:
415,113,46614,2,0,P|440:100|484:86,2,52.5000020027161,4|0|0,1:2|0:0|0:0,0:0:0:0:
370,134,46902,6,0,B|262:128|262:128|253:109|221:75,1,157.5,4|0,1:0|0:0,0:0:0:0:
173,22,47478,2,0,P|151:47|141:70,1,52.5,8|0,2:2|0:0,0:0:0:0:
92,136,47766,1,4,0:3:0:0:
140,212,47910,1,4,0:3:0:0:
140,212,48054,2,0,P|82:188|26:231,1,105,4|4,2:3|2:3,0:0:0:0:
40,332,48486,2,0,P|98:356|154:313,1,105,4|0,2:3|2:3,0:0:0:0:
208,284,48918,2,0,P|231:274|288:267,1,52.5,2|0,0:0|0:0,0:0:0:0:
352,281,49206,22,0,P|408:303|468:322,2,105,4|2|8,1:1|0:0|0:0,0:0:0:0:
324,104,50070,2,0,P|314:136|299:171,1,52.5,2|2,1:2|1:2,0:0:0:0:
224,185,50358,2,0,P|171:199|107:209,1,105,4|4,1:2|0:3,0:0:0:0:
40,170,50790,1,4,0:3:0:0:
40,170,50934,2,0,P|14:199|2:224,2,52.5,4|4|4,0:3|0:3|0:3,0:0:0:0:
124,12,51510,6,0,P|206:35|224:129,1,157.5,4|0,0:0|0:0,0:0:0:0:
224,185,52086,2,0,L|293:171,1,52.5,8|0,2:2|0:0,0:0:0:0:
330,104,52374,2,0,L|404:126,1,52.5,4|2,2:2|0:0,0:0:0:0:
465,147,52662,2,0,B|457:220|457:220|403:271,1,105,0|0,1:3|0:0,0:0:0:0:
360,292,53094,1,2,0:0:0:0:
360,292,53238,2,0,P|292:266|231:274,1,105,8|0,1:2|0:0,0:0:0:0:
104,376,53814,21,0,1:0:0:0:
104,376,54246,1,0,1:0:0:0:
80,283,54390,2,0,L|59:169,1,105,0|0,1:0|0:0,0:0:0:0:
38,89,54822,1,0,1:0:0:0:
196,32,54966,2,0,P|185:70|178:105,1,52.5,0|0,1:0|1:0,0:0:0:0:
200,176,55254,1,0,1:0:0:0:
200,176,55542,6,0,P|231:160|272:147,1,62.9999980773926,0|0,1:0|1:0,0:0:0:0:
317,77,55830,2,0,P|357:101|381:126,1,62.9999980773926,0|0,1:0|0:0,0:0:0:0:
464,220,56118,6,0,B|448:289|437:349|437:349|409:351|365:364,1,188.999994232178,4|0,1:2|0:0,0:0:0:0:
292,304,56694,2,0,P|286:337|282:384,1,62.9999980773926,8|0,1:2|0:0,0:0:0:0:
176,380,56982,2,0,P|179:348|184:317,1,62.9999980773926,2|0,2:2|0:0,0:0:0:0:
200,176,57270,6,0,B|154:183|123:197|123:197|89:191|66:160,1,125.999996154785,4|4,0:0|0:3,0:0:0:0:
75,82,57702,1,0,1:3:0:0:
75,82,57846,2,0,P|38:95|-1:120,2,62.9999980773926,8|4|4,1:2|2:3|2:3,0:0:0:0:
250,22,58422,6,0,P|243:56|239:105,1,62.9999980773926,4|2,0:0|0:0,0:0:0:0:
304,153,58710,2,0,P|297:187|293:236,1,62.9999980773926,0|2,0:0|0:0,0:0:0:0:
342,296,58998,2,0,P|406:308|452:253,2,125.999996154785,8|2|2,1:2|0:0|0:0,0:0:0:0:
247,292,59718,5,0,0:0:0:0:
247,292,59862,2,0,P|215:299|172:313,1,62.9999980773926,2|0,0:0|0:0,0:0:0:0:
91,301,60150,2,0,P|77:336|73:373,2,62.9999980773926,8|0|2,1:2|0:0|0:0,0:0:0:0:
156,216,60582,1,0,0:0:0:0:
64,132,60726,22,0,B|60:88|40:52|40:52|72:-16|136:24,1,188.999994232178,4|0,0:0|0:0,0:0:0:0:
168,120,61303,2,0,P|208:138|246:163,1,62.9999980773926,8|0,1:2|0:0,0:0:0:0:
324,152,61591,2,0,P|333:108|336:76,1,62.9999980773926,2|0,0:0|0:0,0:0:0:0:
444,0,61879,6,0,L|464:125,1,125.999996154785,4|4,0:2|0:3,0:0:0:0:
448,216,62311,1,4,0:3:0:0:
448,216,62455,2,0,P|477:208|521:199,2,62.9999980773926,8|4|4,1:2|0:3|0:3,0:0:0:0:
368,284,62887,1,0,0:3:0:0:
368,284,63031,22,0,P|284:263|263:225,1,125.999996154785,4|0,0:2|0:0,0:0:0:0:
264,120,63463,1,0,1:0:0:0:
264,120,63607,2,0,P|236:111|185:102,1,62.9999980773926,8|2,1:2|0:0,0:0:0:0:
95,132,63895,2,0,P|114:168|128:206,1,62.9999980773926,4|0,0:3|0:0,0:0:0:0:
58,257,64183,6,0,P|119:243|204:229,2,125.999996154785,4|4|8,0:3|2:3|1:2,0:0:0:0:
40,360,64903,1,2,0:0:0:0:
40,360,65047,2,0,P|73:353|108:346,1,62.9999980773926,4|0,0:0|0:0,0:0:0:0:
181,232,65335,6,0,B|184:176|156:117|156:117|160:73|204:57,1,188.999994232178,4|0,1:0|0:0,0:0:0:0:
300,36,65911,2,0,P|328:71|319:126,1,62.9999980773926,8|0,1:2|0:0,0:0:0:0:
292,188,66199,2,0,P|320:181|363:173,1,62.9999980773926,2|0,0:0|0:0,0:0:0:0:
424,268,66487,6,0,P|360:280|294:298,1,125.999996154785,4|0,0:0|0:0,0:0:0:0:
200,324,66919,1,0,1:0:0:0:
200,324,67063,2,0,P|217:362|230:394,2,62.9999980773926,8|4|4,1:2|0:3|0:3,0:0:0:0:
104,276,67495,1,4,0:3:0:0:
104,276,67639,6,0,P|60:240|72:167,1,125.999996154785,2|2,0:0|0:0,0:0:0:0:
168,144,68071,1,0,0:0:0:0:
124,48,68215,2,0,P|56:36|-8:24,2,125.999996154785,8|2|2,1:2|1:2|1:2,0:0:0:0:
224,0,68935,5,0,0:0:0:0:
324,44,69079,2,0,P|324:79|306:135,1,62.9999980773926,2|0,2:2|0:0,0:0:0:0:
224,184,69367,2,0,P|216:161|200:109,2,62.9999980773926,2|2|2,0:0|0:0|0:0,0:0:0:0:
76,368,69943,22,0,P|43:303|90:252,1,125.999996154785,4|0,1:0|0:0,0:0:0:0:
197,273,70375,1,0,0:0:0:0:
197,273,70519,2,0,P|208:316|192:356,1,62.9999980773926,4|0,1:0|0:0,0:0:0:0:
296,380,70807,2,0,P|329:371|368:353,1,62.9999980773926
472,268,71095,6,0,B|391:250|391:250|385:229|365:197,1,125.999996154785,4|4,1:0|0:3,0:0:0:0:
377,116,71527,1,4,1:0:0:0:
377,116,71599,1,0,1:3:0:0:
377,116,71671,2,0,P|405:101|454:85,1,62.9999980773926,4|4,0:3|0:3,0:0:0:0:
264,56,71959,2,0,P|228:50|179:42,1,62.9999980773926,2|2,2:0|2:0,0:0:0:0:
92,20,72247,22,0,B|113:117|113:117|147:133|172:147,1,141.749995674133
218,206,72823,2,0,P|204:269|196:326,1,94.499997116089,0|2,0:0|2:0,0:0:0:0:
263,362,73255,1,2,2:0:0:0:
263,362,73399,6,0,P|301:352|356:326,1,57.7500017623902,10|2,2:0|2:0,0:0:0:0:
460,280,73687,2,0,P|430:269|392:252,1,57.7500017623902,0|0,1:0|0:0,0:0:0:0:
332,168,73975,2,0,L|342:105,2,57.7500017623902,4|4|4,1:3|2:3|2:3,0:0:0:0:
200,299,74551,54,0,P|190:264|163:174,1,110.249996635437,2|0,0:0|0:0,0:0:0:0:
132,176,75127,2,0,P|101:188|85:201,2,36.749998878479,2|0|0,0:0|0:0|0:0,0:0:0:0:
164,101,75703,2,0,P|128:95|59:76,2,73.4999977569581,2|2|2,0:0|0:0|0:0,0:0:0:0:
268,36,76567,6,0,L|357:25,1,73.4999977569581,2|2,0:0|0:0,0:0:0:0:
420,52,77144,2,0,P|448:96|440:124,1,73.4999977569581,2|2,2:0|0:0,0:0:0:0:
376,156,77720,2,0,P|365:201|369:250,1,73.4999977569581,2|2,0:0|2:0,0:0:0:0:
408,296,78296,1,0,2:0:0:0:
408,296,78584,2,0,L|468:300,2,36.749998878479,2|0|2,0:0|2:0|2:0,0:0:0:0:
297,333,79160,54,0,P|237:348|176:357,1,110.249996635437,2|0,2:2|0:0,0:0:0:0:
152,338,79736,2,0,L|131:292,1,36.749998878479,2|0,0:0|2:0,0:0:0:0:
112,272,80024,2,0,L|121:218,1,36.749998878479,2|0,2:0|0:0,0:0:0:0:
143,204,80312,2,0,L|128:107,1,73.4999977569581,2|2,0:0|0:0,0:0:0:0:
220,75,80888,2,0,L|231:147,1,73.4999977569581,2|2,0:0|0:0,0:0:0:0:
256,192,81464,12,0,83192,0:0:0:0:
