osu file format v14

[General]
AudioFilename: PRESENTER.mp3
AudioLeadIn: 0
PreviewTime: 58531
Countdown: 0
SampleSet: Normal
StackLeniency: 0.7
Mode: 1
LetterboxInBreaks: 0
WidescreenStoryboard: 0

[Editor]
DistanceSpacing: 1.5
BeatDivisor: 4
GridSize: 4
TimelineZoom: 1.299999

[Metadata]
Title:PRESENTER
TitleUnicode:PRESENTER
Artist:Yui Horie
ArtistUnicode:堀江由衣
Creator:Sanawieck
Version:Oni
Source:DOG DAYS
Tags:elements garden nakamura kanata ending yuzu__rinrin
BeatmapID:1225752
BeatmapSetID:550643

[Difficulty]
HPDrainRate:6
CircleSize:2
OverallDifficulty:5
ApproachRate:5
SliderMultiplier:1.4
SliderTickRate:1

[Events]
//Background and Video events
0,0,"BG_.jpg",0,0
//Break Periods
//Storyboard Layer 0 (Background)
//Storyboard Layer 1 (Fail)
//Storyboard Layer 2 (Pass)
//Storyboard Layer 3 (Foreground)
//Storyboard Sound Samples

[TimingPoints]
816,397.350993377483,4,1,0,80,1,0
27637,-100,4,1,0,75,0,0
29325,-100,4,1,0,70,0,0
31014,-100,4,1,0,65,0,0
37372,-100,4,1,0,75,0,0
43729,-100,4,1,0,70,0,0
44127,-100,4,1,0,75,0,0
59623,-100,4,1,0,85,0,1
85054,-100,4,1,0,75,0,0
89623,-100,4,1,0,65,0,0
90418,-100,4,1,0,50,0,0
91213,-100,4,1,0,35,0,0
92008,-100,4,1,0,20,0,0

[HitObjects]
200,244,816,5,0,0:0:0:0:
232,232,1213,1,8,0:0:0:0:
288,276,1412,1,0,0:0:0:0:
240,184,1610,1,8,0:0:0:0:
288,276,1908,1,0,0:0:0:0:
288,276,2206,1,0,0:0:0:0:
232,232,2405,1,8,0:0:0:0:
284,232,2703,1,0,0:0:0:0:
260,200,3001,1,0,0:0:0:0:
268,184,3200,1,12,0:0:0:0:
260,200,3498,1,12,0:0:0:0:
260,200,3796,1,0,0:0:0:0:
260,200,3994,1,12,0:0:0:0:
224,192,4292,1,8,0:0:0:0:
260,200,4590,1,0,0:0:0:0:
260,200,4789,1,0,0:0:0:0:
260,200,5087,1,0,0:0:0:0:
260,200,5385,1,0,0:0:0:0:
260,200,5484,1,0,0:0:0:0:
260,200,5584,1,8,0:0:0:0:
224,192,5782,1,0,0:0:0:0:
224,192,5981,1,8,0:0:0:0:
224,192,6180,1,8,0:0:0:0:
224,192,6279,1,8,0:0:0:0:
224,192,6378,1,0,0:0:0:0:
224,192,6577,1,0,0:0:0:0:
224,192,6776,1,0,0:0:0:0:
228,204,6974,1,8,0:0:0:0:
228,204,7074,1,8,0:0:0:0:
224,204,7173,1,0,0:0:0:0:
260,232,7570,1,8,0:0:0:0:
260,232,7769,1,8,0:0:0:0:
260,232,7968,1,0,0:0:0:0:
236,192,8266,1,0,0:0:0:0:
236,192,8564,1,0,0:0:0:0:
240,220,8663,1,8,0:0:0:0:
220,188,8762,1,0,0:0:0:0:
240,204,9061,1,0,0:0:0:0:
216,200,9359,1,0,0:0:0:0:
240,220,9557,1,8,0:0:0:0:
184,188,9756,1,0,0:0:0:0:
240,220,9955,1,8,0:0:0:0:
240,220,10153,1,12,0:0:0:0:
256,200,10551,1,8,0:0:0:0:
256,200,10749,1,8,0:0:0:0:
288,196,10948,1,4,0:0:0:0:
252,188,11345,1,0,0:0:0:0:
252,188,11544,1,0,0:0:0:0:
280,204,11743,1,12,0:0:0:0:
252,188,12140,1,0,0:0:0:0:
280,204,12339,1,8,0:0:0:0:
292,200,12537,1,4,0:0:0:0:
284,196,12935,1,8,0:0:0:0:
252,188,13133,1,0,0:0:0:0:
252,188,13332,5,8,0:0:0:0:
252,188,13431,1,0,0:0:0:0:
252,188,13531,1,8,0:0:0:0:
284,196,13729,1,8,0:0:0:0:
284,196,13928,1,0,0:0:0:0:
328,264,14127,1,8,0:0:0:0:
288,188,14226,5,8,0:0:0:0:
288,188,14325,1,8,0:0:0:0:
288,188,14524,1,0,0:0:0:0:
288,188,14723,1,8,0:0:0:0:
288,188,14921,1,0,0:0:0:0:
180,184,15021,1,0,0:0:0:0:
288,188,15120,1,8,0:0:0:0:
288,188,15318,1,8,0:0:0:0:
288,188,15418,1,8,0:0:0:0:
288,188,15517,1,0,0:0:0:0:
288,188,15716,1,0,0:0:0:0:
160,160,15815,1,8,0:0:0:0:
288,188,15915,1,8,0:0:0:0:
288,188,16114,1,8,0:0:0:0:
288,188,16312,1,8,0:0:0:0:
280,224,16412,1,8,0:0:0:0:
280,224,16511,1,8,0:0:0:0:
280,224,16610,1,8,0:0:0:0:
280,224,16710,1,0,0:0:0:0:
268,192,16908,5,0,0:0:0:0:
236,184,17107,1,8,0:0:0:0:
224,200,17306,1,0,0:0:0:0:
260,192,17703,1,8,0:0:0:0:
260,192,18100,1,8,0:0:0:0:
224,200,18498,1,0,0:0:0:0:
260,192,18696,1,8,0:0:0:0:
260,192,18895,1,8,0:0:0:0:
260,192,19292,1,8,0:0:0:0:
260,192,19392,1,8,0:0:0:0:
260,192,19491,1,0,0:0:0:0:
204,240,19590,1,8,0:0:0:0:
260,192,19690,1,0,0:0:0:0:
224,200,19888,1,0,0:0:0:0:
224,200,20087,1,0,0:0:0:0:
264,176,20286,1,8,0:0:0:0:
224,200,20484,1,0,0:0:0:0:
252,144,20882,1,0,0:0:0:0:
272,148,21080,1,8,0:0:0:0:
272,148,21279,1,8,0:0:0:0:
248,180,21478,1,4,0:0:0:0:
148,256,21875,1,0,0:0:0:0:
280,192,22074,1,8,0:0:0:0:
252,144,22173,1,8,0:0:0:0:
252,144,22272,1,0,0:0:0:0:
284,184,22670,1,0,0:0:0:0:
176,152,22868,1,0,0:0:0:0:
176,152,22968,1,0,0:0:0:0:
252,144,23067,1,0,0:0:0:0:
252,144,23266,1,0,0:0:0:0:
252,144,23465,1,8,0:0:0:0:
272,184,23663,1,8,0:0:0:0:
336,228,24061,1,0,0:0:0:0:
276,184,24458,1,8,0:0:0:0:
236,200,24855,1,8,0:0:0:0:
236,200,25054,1,8,0:0:0:0:
252,144,25253,1,0,0:0:0:0:
256,204,25352,1,0,0:0:0:0:
236,200,25451,1,0,0:0:0:0:
252,144,25650,1,0,0:0:0:0:
252,144,25749,1,0,0:0:0:0:
224,192,25849,1,8,0:0:0:0:
252,144,25948,1,0,0:0:0:0:
252,144,26047,1,8,0:0:0:0:
368,232,26246,1,12,0:0:0:0:
280,164,26544,1,4,0:0:0:0:
280,164,26842,1,4,0:0:0:0:
352,216,27041,1,12,0:0:0:0:
280,164,27438,1,4,0:0:0:0:
256,192,27637,12,8,30617,0:0:0:0:
312,244,31014,5,8,0:0:0:0:
268,208,31213,5,0,0:0:0:0:
200,192,31412,1,0,0:0:0:0:
260,240,31610,5,8,0:0:0:0:
256,192,32008,1,0,0:0:0:0:
240,212,32206,1,8,0:0:0:0:
256,192,32405,1,0,0:0:0:0:
256,192,32802,1,0,0:0:0:0:
256,192,33001,1,0,0:0:0:0:
248,212,33200,1,8,0:0:0:0:
228,156,33597,1,0,0:0:0:0:
228,156,33796,1,8,0:0:0:0:
280,192,33994,1,0,0:0:0:0:
260,248,34193,1,8,0:0:0:0:
312,232,34392,1,8,0:0:0:0:
228,156,34590,1,0,0:0:0:0:
312,232,34789,1,8,0:0:0:0:
228,156,35186,1,0,0:0:0:0:
228,156,35385,1,0,0:0:0:0:
316,232,35584,1,8,0:0:0:0:
312,232,35782,1,8,0:0:0:0:
248,168,35981,1,0,0:0:0:0:
248,168,36180,1,0,0:0:0:0:
316,232,36378,1,8,0:0:0:0:
316,232,36478,1,8,0:0:0:0:
316,232,36577,1,8,0:0:0:0:
360,240,36776,1,0,0:0:0:0:
360,240,36974,1,8,0:0:0:0:
352,224,37372,1,4,0:0:0:0:
228,176,37570,1,0,0:0:0:0:
288,200,37769,1,8,0:0:0:0:
228,176,37968,1,0,0:0:0:0:
288,200,38067,1,8,0:0:0:0:
228,176,38166,1,8,0:0:0:0:
272,188,38365,1,0,0:0:0:0:
296,200,38564,1,8,0:0:0:0:
272,188,38763,1,8,0:0:0:0:
316,180,38961,1,0,0:0:0:0:
280,192,39160,1,0,0:0:0:0:
280,236,39359,1,8,0:0:0:0:
280,192,39557,1,0,0:0:0:0:
308,232,39657,1,8,0:0:0:0:
308,232,39756,1,8,0:0:0:0:
280,192,39955,1,0,0:0:0:0:
280,192,40153,1,0,0:0:0:0:
280,192,40352,1,8,0:0:0:0:
308,232,40551,1,12,0:0:0:0:
280,192,40749,1,0,0:0:0:0:
280,192,40948,1,0,0:0:0:0:
308,232,41147,1,12,0:0:0:0:
280,192,41544,1,0,0:0:0:0:
280,192,41743,1,0,0:0:0:0:
320,232,41941,1,12,0:0:0:0:
348,232,42339,1,8,0:0:0:0:
348,232,42438,1,8,0:0:0:0:
288,200,42537,1,0,0:0:0:0:
256,196,42736,5,0,0:0:0:0:
348,232,42935,1,8,0:0:0:0:
348,232,43034,1,8,0:0:0:0:
256,196,43133,1,0,0:0:0:0:
256,196,43233,1,0,0:0:0:0:
256,196,43332,1,8,0:0:0:0:
256,196,43531,1,8,0:0:0:0:
372,220,43729,1,0,0:0:0:0:
368,236,44127,1,12,0:0:0:0:
256,196,44524,1,0,0:0:0:0:
368,236,44723,1,8,0:0:0:0:
256,196,44921,1,0,0:0:0:0:
368,236,45120,1,8,0:0:0:0:
372,236,45517,1,8,0:0:0:0:
376,236,45716,1,8,0:0:0:0:
376,236,45915,1,8,0:0:0:0:
220,244,46114,1,0,0:0:0:0:
220,244,46312,1,0,0:0:0:0:
380,232,46511,1,8,0:0:0:0:
384,232,46710,1,8,0:0:0:0:
384,232,46809,1,8,0:0:0:0:
220,244,46908,1,0,0:0:0:0:
472,204,47306,1,12,0:0:0:0:
220,244,47703,1,0,0:0:0:0:
456,208,47902,1,8,0:0:0:0:
456,208,48100,1,0,0:0:0:0:
456,208,48299,1,8,0:0:0:0:
416,208,48696,1,0,0:0:0:0:
220,244,48895,1,0,0:0:0:0:
416,208,49094,1,8,0:0:0:0:
240,248,49491,1,0,0:0:0:0:
240,248,49690,1,0,0:0:0:0:
240,248,49888,1,0,0:0:0:0:
304,216,50087,1,12,0:0:0:0:
232,272,50385,1,0,0:0:0:0:
352,216,50484,1,8,0:0:0:0:
224,232,50683,1,4,0:0:0:0:
240,212,51080,1,0,0:0:0:0:
224,172,51180,1,0,0:0:0:0:
240,212,51279,1,8,0:0:0:0:
240,212,51478,1,0,0:0:0:0:
352,216,51676,1,12,0:0:0:0:
240,212,51974,1,0,0:0:0:0:
352,216,52074,1,8,0:0:0:0:
352,216,52272,1,4,0:0:0:0:
308,228,52670,1,8,0:0:0:0:
308,228,52868,1,8,0:0:0:0:
308,228,53067,1,8,0:0:0:0:
264,200,53266,1,4,0:0:0:0:
264,200,53663,1,0,0:0:0:0:
264,200,53862,1,8,0:0:0:0:
308,228,53961,1,8,0:0:0:0:
260,220,54061,1,0,0:0:0:0:
308,228,54160,1,8,0:0:0:0:
248,188,54359,1,8,0:0:0:0:
264,200,54458,1,0,0:0:0:0:
316,228,54657,1,8,0:0:0:0:
316,228,54855,1,8,0:0:0:0:
316,228,54955,1,8,0:0:0:0:
316,228,55153,1,8,0:0:0:0:
308,200,55253,1,0,0:0:0:0:
228,244,55451,1,8,0:0:0:0:
308,200,55650,1,0,0:0:0:0:
316,228,55849,1,8,0:0:0:0:
308,200,55948,1,0,0:0:0:0:
316,228,56047,1,8,0:0:0:0:
316,228,56147,1,8,0:0:0:0:
316,228,56246,1,8,0:0:0:0:
308,200,56445,1,0,0:0:0:0:
232,232,56743,1,0,0:0:0:0:
232,232,57041,1,0,0:0:0:0:
324,220,57438,1,8,0:0:0:0:
324,220,57637,1,8,0:0:0:0:
232,232,57835,1,4,0:0:0:0:
232,232,58233,1,4,0:0:0:0:
232,232,58431,1,4,0:0:0:0:
256,192,59623,5,4,0:0:0:0:
216,168,59822,1,0,0:0:0:0:
228,192,59921,1,0,0:0:0:0:
364,248,60021,1,8,0:0:0:0:
228,192,60219,1,0,0:0:0:0:
440,224,60418,1,8,0:0:0:0:
284,208,60617,1,8,0:0:0:0:
224,176,60815,1,0,0:0:0:0:
224,176,61014,1,0,0:0:0:0:
224,176,61412,1,0,0:0:0:0:
456,220,61610,1,8,0:0:0:0:
456,220,61710,1,8,0:0:0:0:
248,196,61809,1,0,0:0:0:0:
248,196,61908,1,0,0:0:0:0:
456,220,62008,1,8,0:0:0:0:
456,220,62206,1,8,0:0:0:0:
456,220,62405,1,0,0:0:0:0:
456,220,62504,1,0,0:0:0:0:
256,196,62604,1,8,0:0:0:0:
252,192,62802,1,0,0:0:0:0:
252,192,63100,1,0,0:0:0:0:
276,216,63200,1,0,0:0:0:0:
256,196,63398,1,0,0:0:0:0:
456,220,63597,1,8,0:0:0:0:
456,220,63895,1,0,0:0:0:0:
172,220,63994,1,8,0:0:0:0:
456,220,64193,1,0,0:0:0:0:
252,192,64392,1,8,0:0:0:0:
192,232,64590,1,0,0:0:0:0:
192,232,64690,1,0,0:0:0:0:
192,232,64789,1,0,0:0:0:0:
456,220,64988,1,8,0:0:0:0:
216,188,65385,1,0,0:0:0:0:
216,188,65584,1,0,0:0:0:0:
456,220,65782,1,8,0:0:0:0:
456,220,65981,1,8,0:0:0:0:
240,192,66180,1,0,0:0:0:0:
96,112,66279,1,0,0:0:0:0:
240,192,66378,1,8,0:0:0:0:
456,220,66577,1,0,0:0:0:0:
240,192,66676,1,8,0:0:0:0:
268,188,66875,1,0,0:0:0:0:
456,220,66974,1,8,0:0:0:0:
456,220,67074,1,8,0:0:0:0:
456,220,67173,1,8,0:0:0:0:
240,192,67372,1,0,0:0:0:0:
456,220,67570,1,0,0:0:0:0:
456,220,67769,1,8,0:0:0:0:
456,220,67868,1,8,0:0:0:0:
456,220,67968,1,0,0:0:0:0:
240,188,68166,1,0,0:0:0:0:
456,220,68266,1,8,0:0:0:0:
456,220,68465,1,0,0:0:0:0:
456,220,68564,1,0,0:0:0:0:
456,220,68663,1,8,0:0:0:0:
272,216,68763,1,8,0:0:0:0:
272,216,68961,1,0,0:0:0:0:
420,224,69160,1,0,0:0:0:0:
236,204,69458,1,0,0:0:0:0:
372,224,69756,1,0,0:0:0:0:
428,216,69955,1,8,0:0:0:0:
428,216,70253,1,8,0:0:0:0:
236,204,70551,1,0,0:0:0:0:
428,216,70749,1,8,0:0:0:0:
264,192,70948,1,0,0:0:0:0:
264,192,71047,1,0,0:0:0:0:
264,192,71147,1,0,0:0:0:0:
428,216,71345,1,8,0:0:0:0:
220,216,71743,1,0,0:0:0:0:
428,216,71941,1,8,0:0:0:0:
428,216,72140,1,8,0:0:0:0:
220,216,72339,1,4,0:0:0:0:
408,224,72537,1,0,0:0:0:0:
220,216,72637,1,0,0:0:0:0:
352,208,72736,1,8,0:0:0:0:
220,216,72935,1,0,0:0:0:0:
352,208,73133,1,0,0:0:0:0:
116,208,73332,1,8,0:0:0:0:
256,192,73531,1,8,0:0:0:0:
256,192,73729,1,0,0:0:0:0:
360,208,74127,1,8,0:0:0:0:
360,208,74226,1,8,0:0:0:0:
256,192,74325,1,0,0:0:0:0:
256,192,74524,1,0,0:0:0:0:
360,208,74623,1,0,0:0:0:0:
256,192,74723,1,8,0:0:0:0:
256,192,74921,1,0,0:0:0:0:
360,208,75120,1,8,0:0:0:0:
360,208,75219,1,8,0:0:0:0:
256,192,75319,1,8,0:0:0:0:
256,192,75517,1,8,0:0:0:0:
248,184,75815,1,0,0:0:0:0:
248,184,76114,1,0,0:0:0:0:
368,208,76312,1,8,0:0:0:0:
248,184,76610,1,0,0:0:0:0:
248,184,76908,1,0,0:0:0:0:
368,208,77107,1,8,0:0:0:0:
324,220,77306,1,0,0:0:0:0:
264,180,77405,1,0,0:0:0:0:
372,208,77504,1,8,0:0:0:0:
324,220,77703,1,0,0:0:0:0:
208,180,78100,1,0,0:0:0:0:
372,208,78299,1,8,0:0:0:0:
372,208,78696,1,8,0:0:0:0:
268,236,78994,1,0,0:0:0:0:
372,208,79094,1,8,0:0:0:0:
372,208,79292,1,12,0:0:0:0:
268,236,79690,1,0,0:0:0:0:
372,208,79888,1,8,0:0:0:0:
372,208,80087,1,8,0:0:0:0:
268,236,80286,1,4,0:0:0:0:
372,208,80584,1,8,0:0:0:0:
268,236,80684,1,0,0:0:0:0:
372,208,80882,1,12,0:0:0:0:
372,208,81279,1,8,0:0:0:0:
372,208,81478,1,0,0:0:0:0:
216,192,81577,1,0,0:0:0:0:
372,208,81676,1,8,0:0:0:0:
296,264,81875,1,0,0:0:0:0:
216,248,82074,1,0,0:0:0:0:
296,264,82272,1,8,0:0:0:0:
296,264,82471,1,0,0:0:0:0:
296,264,82670,1,0,0:0:0:0:
136,208,82769,1,0,0:0:0:0:
280,248,82868,1,8,0:0:0:0:
296,264,82968,1,0,0:0:0:0:
228,256,83067,1,8,0:0:0:0:
228,256,83166,1,8,0:0:0:0:
228,256,83266,1,0,0:0:0:0:
228,256,83365,1,0,0:0:0:0:
296,264,83465,1,8,0:0:0:0:
292,248,83663,1,8,0:0:0:0:
128,188,84061,1,0,0:0:0:0:
292,248,84259,1,8,0:0:0:0:
128,188,84557,1,0,0:0:0:0:
292,248,84855,1,0,0:0:0:0:
260,176,85054,1,8,0:0:0:0:
292,248,85253,1,0,0:0:0:0:
376,208,85352,1,8,0:0:0:0:
260,176,85451,1,8,0:0:0:0:
248,208,85650,1,0,0:0:0:0:
248,208,85849,1,8,0:0:0:0:
260,176,86246,1,8,0:0:0:0:
248,208,86445,1,0,0:0:0:0:
260,176,86643,1,8,0:0:0:0:
260,176,86842,1,8,0:0:0:0:
216,240,87041,1,0,0:0:0:0:
248,208,87239,1,0,0:0:0:0:
84,144,87339,1,0,0:0:0:0:
304,248,87438,1,8,0:0:0:0:
248,208,87736,1,0,0:0:0:0:
248,208,88034,1,0,0:0:0:0:
264,180,88233,1,12,0:0:0:0:
248,208,88630,1,0,0:0:0:0:
248,208,88829,1,4,0:0:0:0:
264,180,89226,1,12,0:0:0:0:
256,192,89623,12,0,92405,0:0:0:0:
