osu file format v14

[General]
AudioFilename: PRESENTER.mp3
AudioLeadIn: 0
PreviewTime: 58531
Countdown: 0
SampleSet: Normal
StackLeniency: 0.7
Mode: 1
LetterboxInBreaks: 0
WidescreenStoryboard: 0

[Editor]
DistanceSpacing: 1.5
BeatDivisor: 4
GridSize: 4
TimelineZoom: 1.599999

[Metadata]
Title:PRESENTER
TitleUnicode:PRESENTER
Artist:Yui Horie
ArtistUnicode:堀江由衣
Creator:Sanawieck
Version:Kantan
Source:DOG DAYS
Tags:elements garden nakamura kanata ending yuzu__rinrin
BeatmapID:1225755
BeatmapSetID:550643

[Difficulty]
HPDrainRate:8
CircleSize:2
OverallDifficulty:3
ApproachRate:5
SliderMultiplier:1.4
SliderTickRate:1

[Events]
//Background and Video events
0,0,"BG_.jpg",0,0
//Break Periods
//Storyboard Layer 0 (Background)
//Storyboard Layer 1 (Fail)
//Storyboard Layer 2 (Pass)
//Storyboard Layer 3 (Foreground)
//Storyboard Sound Samples

[TimingPoints]
816,397.350993377483,4,1,0,80,1,0
27637,-100,4,1,0,75,0,0
31014,-100,4,1,0,65,0,0
37372,-100,4,1,0,70,0,0
43729,-100,4,1,0,75,0,0
59623,-100,4,1,0,85,0,1
85054,-100,4,1,0,75,0,0
89623,-100,4,1,0,65,0,0
90418,-100,4,1,0,50,0,0
91213,-100,4,1,0,35,0,0
92008,-100,4,1,0,20,0,0

[HitObjects]
232,172,816,5,4,0:0:0:0:
272,200,3200,1,0,0:0:0:0:
248,200,3994,1,8,0:0:0:0:
264,200,5584,1,0,0:0:0:0:
264,200,7173,1,0,0:0:0:0:
316,188,8763,1,8,0:0:0:0:
296,200,9557,1,8,0:0:0:0:
256,192,10153,12,8,13332,0:0:0:0:
268,200,15120,5,0,0:0:0:0:
256,192,15915,1,8,0:0:0:0:
188,168,16312,1,8,0:0:0:0:
260,180,16710,1,4,0:0:0:0:
240,368,17504,1,8,0:0:0:0:
288,172,18299,1,0,0:0:0:0:
272,160,19094,1,8,0:0:0:0:
120,216,19888,1,0,0:0:0:0:
300,204,21478,1,12,0:0:0:0:
248,216,22272,1,8,0:0:0:0:
180,240,22670,1,0,0:0:0:0:
256,184,23067,1,0,0:0:0:0:
256,228,23862,1,8,0:0:0:0:
340,192,24657,1,8,0:0:0:0:
136,176,25054,1,8,0:0:0:0:
324,240,25451,1,0,0:0:0:0:
232,268,26246,1,12,0:0:0:0:
256,260,27041,1,4,0:0:0:0:
256,192,27637,12,8,29425,0:0:0:0:
184,232,31014,5,8,0:0:0:0:
184,308,32604,1,8,0:0:0:0:
260,212,33398,1,0,0:0:0:0:
236,224,34193,1,8,0:0:0:0:
228,144,34988,1,0,0:0:0:0:
352,220,35782,1,8,0:0:0:0:
200,220,37372,1,4,0:0:0:0:
208,200,38961,1,0,0:0:0:0:
208,200,39756,1,0,0:0:0:0:
208,200,40551,1,8,0:0:0:0:
256,200,41147,1,0,0:0:0:0:
320,256,41941,1,8,0:0:0:0:
148,192,42935,1,0,0:0:0:0:
352,180,43332,1,8,0:0:0:0:
224,228,44127,1,4,0:0:0:0:
200,192,45120,1,8,0:0:0:0:
280,220,46114,1,8,0:0:0:0:
164,220,46511,1,0,0:0:0:0:
348,220,47306,1,4,0:0:0:0:
228,196,48299,1,8,0:0:0:0:
280,220,49690,1,0,0:0:0:0:
308,216,50087,1,12,0:0:0:0:
348,192,50683,1,12,0:0:0:0:
288,232,51676,1,8,0:0:0:0:
184,216,52272,1,0,0:0:0:0:
304,252,53266,1,0,0:0:0:0:
308,228,54061,1,8,0:0:0:0:
272,168,54855,1,8,0:0:0:0:
316,252,55650,1,0,0:0:0:0:
416,240,56445,1,0,0:0:0:0:
300,244,57835,1,12,0:0:0:0:
268,220,58431,1,12,0:0:0:0:
340,208,59623,1,4,0:0:0:0:
244,324,60418,1,8,0:0:0:0:
296,208,61213,1,0,0:0:0:0:
296,224,61610,1,0,0:0:0:0:
288,216,62008,1,8,0:0:0:0:
352,264,62802,1,8,0:0:0:0:
176,208,63597,1,8,0:0:0:0:
236,244,64392,1,0,0:0:0:0:
248,200,64988,1,8,0:0:0:0:
248,264,65981,1,8,0:0:0:0:
332,256,66577,1,8,0:0:0:0:
428,232,67570,1,0,0:0:0:0:
256,224,68166,1,0,0:0:0:0:
280,260,69160,1,0,0:0:0:0:
424,256,69955,1,8,0:0:0:0:
268,264,70749,1,0,0:0:0:0:
276,248,72339,1,4,0:0:0:0:
296,260,73133,1,8,0:0:0:0:
396,232,73928,1,0,0:0:0:0:
300,240,74325,1,0,0:0:0:0:
396,232,74723,1,8,0:0:0:0:
376,232,75517,1,0,0:0:0:0:
308,212,76312,1,8,0:0:0:0:
368,232,77107,1,0,0:0:0:0:
204,156,77703,1,0,0:0:0:0:
260,260,78696,1,8,0:0:0:0:
216,192,80286,1,8,0:0:0:0:
452,360,80882,1,0,0:0:0:0:
332,208,81875,1,0,0:0:0:0:
388,224,82670,1,8,0:0:0:0:
208,224,83067,1,8,0:0:0:0:
288,232,83465,1,4,0:0:0:0:
296,224,85054,1,0,0:0:0:0:
284,240,85849,1,8,0:0:0:0:
384,164,86643,1,8,0:0:0:0:
252,192,88233,1,4,0:0:0:0:
208,208,88829,1,4,0:0:0:0:
328,160,89226,1,4,0:0:0:0:
256,192,89623,12,4,92405,0:0:0:0:
