osu file format v14

[General]
AudioFilename: audio.mp3
AudioLeadIn: 0
PreviewTime: 993
Countdown: 1
SampleSet: Soft
StackLeniency: 0.7
Mode: 0
LetterboxInBreaks: 0
WidescreenStoryboard: 0

[Editor]
Bookmarks: 2483,2802,3866,7589,10993,12695,14398,20249,34398,48440,55249,55568,62057,89291
DistanceSpacing: 2
BeatDivisor: 3
GridSize: 4
TimelineZoom: 2.799999

[Metadata]
Title:Golden Time
TitleUnicode:Golden Time
Artist:Yui Horie
ArtistUnicode:堀江 由衣
Creator:Serenity Story
Version:Diamon Hear Time
Source:ワールドエンドの庭
Tags:World End no Niwa
BeatmapID:1975181
BeatmapSetID:945934

[Difficulty]
HPDrainRate:6
CircleSize:4
OverallDifficulty:7
ApproachRate:9
SliderMultiplier:2.09999990463257
SliderTickRate:1

[Events]
//Background and Video events
0,0,"1557353580176.jpg",0,0
//Break Periods
//Storyboard Layer 0 (Background)
//Storyboard Layer 1 (Fail)
//Storyboard Layer 2 (Pass)
//Storyboard Layer 3 (Foreground)
//Storyboard Layer 4 (Overlay)
//Storyboard Sound Samples

[TimingPoints]
781,425.531914893617,4,2,0,75,1,0
781,-100,4,2,0,75,0,0
2483,-66.6666666666667,4,2,0,75,0,1
2802,-153.846153846154,4,2,0,75,0,0
3653,-100,4,2,0,75,0,0
10993,-100,4,2,0,75,0,0
12695,-100,4,2,0,5,0,0
13121,-100,4,2,0,25,0,0
13334,-100,4,2,0,35,0,0
13546,-100,4,2,0,45,0,0
13653,-100,4,2,0,50,0,0
13759,-100,4,2,0,60,0,0
13866,-100,4,2,0,70,0,0
13972,-50,4,2,0,75,0,1
14398,-100,4,2,0,75,0,0
19504,-333.333333333333,4,2,0,75,0,0
20249,-100,4,2,0,75,0,0
20355,-133.333333333333,4,2,0,75,0,0
20780,-100,4,2,0,75,0,0
24185,-83.3333333333333,4,2,0,75,0,0
25036,-100,4,2,0,75,0,0
29717,-200,4,2,0,75,0,0
30142,-133.333333333333,4,2,0,75,0,0
30568,-100,4,2,0,75,0,0
37802,-83.3333333333333,4,2,0,75,0,0
38227,-100,4,2,0,75,0,0
58653,-133.333333333333,4,2,0,75,0,0
59078,-100,4,2,0,75,0,0
59504,-66.6666666666667,4,2,0,75,0,0
60142,-133.333333333333,4,2,0,75,0,0
62483,-83.3333333333333,4,2,0,75,0,1
63759,-66.6666666666667,4,2,0,75,0,1
64185,-100,4,2,0,75,0,1
68440,-50,4,2,0,75,0,1
68866,-100,4,2,0,75,0,0
68966,-100,4,2,0,75,0,0
76100,-83.3333333333333,4,2,0,75,0,0
77376,-66.6666666666667,4,2,0,75,0,0
77802,-100,4,2,0,75,0,0
82057,-50,4,2,0,75,0,0
82483,-100,4,2,0,75,0,0
89291,-100,4,2,0,5,0,0

[Colours]
Combo1 : 255,0,0
Combo2 : 255,255,128
Combo3 : 128,255,255
Combo4 : 255,128,255

[HitObjects]
399,312,781,5,4,0:0:0:0:
399,312,1206,2,0,P|354:274|330:233,1,104.999995231629
361,47,1632,1,0,0:0:0:0:
361,47,2057,2,0,P|324:91|280:115,1,104.999995231629
220,201,2483,6,0,B|293:176|334:211|334:211|400:184|479:233,1,236.249998283386,4|0,0:0|0:0,0:0:0:0:
447,245,2908,2,0,P|391:231|344:237,1,102.374990664483
220,230,3334,2,0,P|276:219|327:234,1,102.374990664483
406,194,3759,1,0,0:0:0:0:
420,382,3972,2,0,P|431:326|417:267,1,104.999995231629
181,369,4398,5,0,0:0:0:0:
160,287,4610,2,0,P|210:293|257:321,1,104.999995231629
403,329,5036,2,0,P|359:358|308:365,1,104.999995231629
329,255,5355,1,0,0:0:0:0:
329,255,5461,1,0,0:0:0:0:
468,249,5674,6,0,P|427:215|402:169,1,104.999995231629
331,28,6100,1,0,0:0:0:0:
372,97,6206,2,0,P|403:56|419:5,1,104.999995231629
466,99,6525,1,0,0:0:0:0:
257,14,6738,2,0,P|216:3|156:5,2,69.9999968210857
216,148,7163,1,0,0:0:0:0:
50,323,7589,6,0,L|164:323,1,104.999995231629
202,186,7908,2,0,P|178:232|176:284,1,104.999995231629
264,365,8227,1,0,0:0:0:0:
325,305,8440,2,0,P|273:313|221:304,1,104.999995231629
341,190,8759,1,0,0:0:0:0:
341,190,8866,1,0,0:0:0:0:
480,348,9291,6,0,L|480:234,1,104.999995231629
326,177,9610,2,0,P|376:189|427:178,1,104.999995231629
371,104,9929,1,0,0:0:0:0:
177,103,10142,2,0,P|227:91|279:101,1,104.999995231629
194,202,10461,1,0,0:0:0:0:
194,202,10568,1,0,0:0:0:0:
79,71,10993,6,0,P|188:61|284:105,1,209.999990463257
349,178,11632,2,0,P|394:121|385:55,1,104.999995231629
300,12,12057,1,0,0:0:0:0:
349,178,12270,2,0,P|383:216|385:272,1,104.999995231629
344,363,12695,5,0,0:0:0:0:
245,86,13121,1,0,0:0:0:0:
246,115,13334,1,0,0:0:0:0:
186,234,13546,5,0,0:0:0:0:
228,202,13653,1,0,0:0:0:0:
279,196,13759,1,0,0:0:0:0:
325,220,13866,1,0,0:0:0:0:
260,271,13972,6,0,L|469:251,1,209.999990463257
364,186,14398,2,0,L|479:175,1,104.999995231629
390,307,14823,1,0,0:0:0:0:
187,251,15036,1,0,0:0:0:0:
239,246,15142,1,0,0:0:0:0:
291,241,15249,1,0,0:0:0:0:
226,346,15461,5,0,0:0:0:0:
36,253,15675,2,0,P|88:248|135:222,1,104.999995231629
281,73,16100,2,0,P|229:78|182:104,1,104.999995231629
269,183,16525,1,0,0:0:0:0:
417,40,16738,5,0,0:0:0:0:
365,26,16844,1,0,0:0:0:0:
314,21,16950,1,0,0:0:0:0:
76,170,17163,5,0,0:0:0:0:
102,141,17269,1,0,0:0:0:0:
141,120,17376,2,0,P|206:103|245:121,1,104.999995231629
342,216,17802,1,0,0:0:0:0:
311,359,18227,6,0,P|299:302|364:203,1,157.499992847443
391,191,18653,6,0,P|334:203|235:138,1,157.499992847443
204,131,19078,2,0,P|197:192|203:277,1,104.999995231629
254,321,19504,6,0,L|242:309,3,15.7499988040925
138,303,19929,6,0,L|126:291,3,15.7499988040925
128,146,20355,6,0,P|101:174|84:210,2,78.7499994277954
273,96,20993,1,0,0:0:0:0:
224,79,21099,1,0,0:0:0:0:
176,100,21206,1,0,0:0:0:0:
162,224,21419,5,0,0:0:0:0:
194,240,21525,1,0,0:0:0:0:
214,270,21632,2,0,P|264:281|316:276,1,104.999995231629
400,211,22057,2,0,P|418:260|419:312,2,104.999995231629
317,133,22695,5,0,0:0:0:0:
207,70,22908,2,0,P|249:40|307:34,2,104.999995231629
120,223,23546,1,0,0:0:0:0:
112,259,23653,1,0,0:0:0:0:
116,298,23759,2,0,P|167:263|217:251,1,104.999995231629
354,295,24185,2,0,P|329:315|300:326,1,62.9999952163698
299,155,24398,2,0,P|302:186|299:217,1,62.9999952163698
182,155,24610,1,0,0:0:0:0:
273,34,24823,5,0,0:0:0:0:
273,34,24929,1,0,0:0:0:0:
273,34,25036,2,0,P|221:35|172:53,1,104.999995231629
80,171,25461,2,0,P|130:153|181:154,1,104.999995231629
235,188,25780,1,0,0:0:0:0:
235,188,25886,1,0,0:0:0:0:
339,107,26099,1,0,0:0:0:0:
439,182,26312,6,0,P|399:216|350:234,2,104.999995231629
491,67,26951,2,0,P|479:89|462:110,1,52.4999976158143
356,48,27163,2,0,P|334:71|319:98,1,52.4999976158143
309,206,27376,2,0,P|286:192|269:173,1,52.4999976158143
416,263,27589,2,0,P|438:277|457:296,1,52.4999976158143
463,110,27802,2,0,P|465:136|460:161,1,52.4999976158143
372,337,28015,6,0,L|290:328,3,52.4999976158143
288,350,28440,2,0,P|231:360|169:319,1,104.999995231629
72,267,28759,5,0,0:0:0:0:
72,267,28866,2,0,L|78:320,1,52.4999976158143
57,136,29078,1,0,0:0:0:0:
85,159,29185,1,0,0:0:0:0:
119,171,29291,2,0,P|176:181|237:140,1,104.999995231629
445,74,29717,6,0,P|406:59|362:51,1,78.7499964237214
238,149,30142,2,0,P|293:169|353:172,1,118.124999141693
305,98,30568,2,0,P|232:119|139:111,1,157.499992847443
63,64,30993,6,0,L|58:259,1,157.499992847443
79,252,31419,2,0,P|127:283|218:298,1,104.999995231629
285,238,31738,1,0,0:0:0:0:
344,297,31845,6,0,P|295:312|243:310,1,104.999995231629
474,161,32270,6,0,B|412:186|384:114|286:153,1,157.499992847443
281,153,32695,1,0,0:0:0:0:
142,238,32908,5,0,0:0:0:0:
340,236,33121,2,0,B|313:228|313:228|243:244|243:244|198:221|198:221|142:238,1,209.999990463257
433,189,33972,5,0,0:0:0:0:
433,189,34185,1,0,0:0:0:0:
316,70,34398,2,0,L|366:84,1,52.4999976158143
222,82,34610,2,0,L|274:87,1,52.4999976158143
446,144,34823,1,0,0:0:0:0:
387,265,35036,5,0,0:0:0:0:
355,249,35142,1,0,0:0:0:0:
335,219,35249,2,0,P|285:208|233:213,1,104.999995231629
145,272,35674,2,0,P|127:222|126:170,2,104.999995231629
233,217,36312,5,0,0:0:0:0:
320,270,36525,2,0,P|271:255|231:213,2,104.999995231629
401,336,37163,1,0,0:0:0:0:
401,336,37270,1,0,0:0:0:0:
401,336,37376,2,0,P|436:285|448:235,1,104.999995231629
427,123,37695,1,0,0:0:0:0:
427,123,37802,6,0,P|458:126|490:123,1,62.9999952163698
399,47,38015,2,0,P|368:42|337:47,1,62.9999952163698
271,121,38227,1,0,0:0:0:0:
167,138,38440,5,0,0:0:0:0:
167,138,38546,1,0,0:0:0:0:
166,136,38653,2,0,P|115:147|64:141,1,104.999995231629
110,47,39078,2,0,P|161:36|212:42,1,104.999995231629
267,117,39397,1,0,0:0:0:0:
267,117,39503,1,0,0:0:0:0:
165,238,39716,1,0,0:0:0:0:
165,238,39929,6,0,P|156:187|165:136,2,104.999995231629
276,309,40568,2,0,P|248:305|216:309,1,52.4999976158143
318,235,40781,2,0,P|344:235|370:231,1,52.4999976158143
458,154,40993,2,0,P|430:148|405:150,1,52.4999976158143
357,168,41206,1,0,0:0:0:0:
305,158,41312,1,0,0:0:0:0:
272,116,41419,1,0,0:0:0:0:
274,63,41525,1,0,0:0:0:0:
348,88,41632,2,0,P|293:64|175:96,1,157.499992847443
158,112,42057,5,0,0:0:0:0:
131,157,42163,1,0,0:0:0:0:
132,209,42270,2,0,P|158:230|179:271,1,52.4999976158143
152,295,42483,2,0,B|212:277|235:342|302:329,1,157.499992847443
387,339,42908,6,0,P|426:264|420:166,1,157.499992847443
366,111,43334,1,0,0:0:0:0:
277,257,43546,1,0,0:0:0:0:
310,217,43653,1,0,0:0:0:0:
145,176,43866,1,0,0:0:0:0:
170,130,43972,2,0,B|233:70|302:118|302:118|393:109,1,209.999990463257
464,74,44610,1,0,0:0:0:0:
463,284,45036,6,0,P|433:233|350:224,1,104.999995231629
286,327,45355,2,0,L|418:282,1,104.999995231629
318,238,45674,1,0,0:0:0:0:
250,181,45887,6,0,L|349:147,1,104.999995231629
235,106,46206,2,0,P|189:130|168:177,1,104.999995231629
198,253,46525,1,0,0:0:0:0:
301,34,46738,6,0,P|279:80|234:105,1,104.999995231629
123,63,47057,2,0,L|222:29,1,104.999995231629
301,34,47376,1,0,0:0:0:0:
301,34,47589,2,0,P|329:125|243:211,1,209.999990463257
177,247,48121,5,0,0:0:0:0:
178,247,48227,1,0,0:0:0:0:
178,247,48334,1,0,0:0:0:0:
274,333,48440,5,0,0:0:0:0:
351,257,49291,5,0,0:0:0:0:
155,142,49929,5,0,0:0:0:0:
154,136,50036,1,0,0:0:0:0:
153,129,50142,1,0,0:0:0:0:
333,130,50993,5,0,0:0:0:0:
90,331,51632,5,0,0:0:0:0:
89,324,51738,1,0,0:0:0:0:
87,317,51844,1,0,0:0:0:0:
306,281,52695,5,0,0:0:0:0:
183,192,53334,5,0,0:0:0:0:
183,192,53440,1,0,0:0:0:0:
183,192,53546,1,0,0:0:0:0:
336,335,53972,5,0,0:0:0:0:
145,247,54398,5,0,0:0:0:0:
66,116,54610,5,0,0:0:0:0:
66,116,54717,1,0,0:0:0:0:
66,116,54823,1,0,0:0:0:0:
102,79,54929,5,0,0:0:0:0:
150,58,55036,1,0,0:0:0:0:
201,52,55142,1,0,0:0:0:0:
254,113,55249,5,0,0:0:0:0:
384,301,55568,5,0,0:0:0:0:
402,252,55674,2,0,L|270:243,1,104.999995231629
207,300,56100,1,0,0:0:0:0:
53,264,56419,5,0,0:0:0:0:
31,216,56525,2,0,L|163:207,1,104.999995231629
211,135,56951,1,0,0:0:0:0:
357,77,57270,5,0,0:0:0:0:
378,29,57376,2,0,P|388:84|387:161,1,104.999995231629
319,216,57802,1,0,0:0:0:0:
192,310,58121,5,0,0:0:0:0:
226,270,58227,2,0,P|227:212|217:138,1,104.999995231629
134,54,58653,6,0,L|231:48,1,78.7499994277954
187,110,58972,1,0,0:0:0:0:
112,175,59078,6,0,L|251:165,1,104.999995231629
183,229,59397,1,0,0:0:0:0:
91,293,59504,6,0,L|248:284,1,157.499998855591
145,348,59823,1,0,0:0:0:0:
220,370,59929,5,0,0:0:0:0:
294,342,60036,1,0,0:0:0:0:
349,279,60142,6,0,P|363:242|374:222,2,39.3749997138977
399,312,62057,5,0,0:0:0:0:
449,64,62483,2,0,P|391:74|327:121,1,125.99999043274
315,158,62802,1,0,0:0:0:0:
488,246,62908,2,0,P|461:189|414:148,1,125.99999043274
258,129,63227,6,0,P|289:139|314:157,1,62.9999952163698
358,191,63440,1,0,0:0:0:0:
381,236,63546,1,0,0:0:0:0:
382,286,63653,1,0,0:0:0:0:
349,331,63760,6,0,B|302:362|236:335|236:335|195:370|122:345,1,236.249998283386,4|0,0:0|0:0,0:0:0:0:
167,177,64185,2,0,P|186:233|171:284,1,104.999995231629
56,300,64504,1,0,0:0:0:0:
56,300,64610,2,0,P|45:250|60:193,1,104.999995231629
95,81,64929,1,0,0:0:0:0:
95,81,65036,1,0,0:0:0:0:
285,229,65249,2,0,P|235:240|183:231,1,104.999995231629
349,43,65674,5,0,0:0:0:0:
451,113,65887,2,0,P|409:147|394:202,1,104.999995231629
463,277,66312,2,0,L|357:274,1,104.999995231629
323,300,66632,1,0,0:0:0:0:
323,300,66738,1,0,0:0:0:0:
224,345,66951,5,0,0:0:0:0:
202,323,67057,1,0,0:0:0:0:
181,293,67163,2,0,P|129:282|77:286,1,104.999995231629
9,355,67483,1,0,0:0:0:0:
9,355,67589,2,0,L|-1:250,1,104.999995231629
57,162,68015,2,0,P|143:156|242:187,1,157.499992847443
311,335,68440,6,0,B|365:321|403:256|360:187|289:174|289:174|282:42,1,314.999985694885
205,0,68866,6,0,L|342:7,1,104.999995231629
213,79,69185,1,0,0:0:0:0:
213,79,69291,1,0,0:0:0:0:
135,146,69504,1,0,0:0:0:0:
135,146,69717,6,0,L|272:153,1,104.999995231629
145,227,70036,1,0,0:0:0:0:
145,227,70142,1,0,0:0:0:0:
399,310,70568,6,0,P|347:295|262:303,1,104.999995231629
296,295,70887,1,0,0:0:0:0:
296,295,70993,1,0,0:0:0:0:
151,357,71206,1,0,0:0:0:0:
151,357,71419,6,0,P|122:301|121:230,1,104.999995231629
205,280,71738,1,0,0:0:0:0:
205,280,71844,1,0,0:0:0:0:
283,103,72270,6,0,P|256:184|319:264,1,157.499992847443,0|0,0:3|0:3,0:3:0:0:
333,171,72695,2,0,L|175:170,1,157.499992847443
286,246,73121,6,0,P|365:243|412:183,1,157.499992847443,0|0,0:3|0:3,0:3:0:0:
422,96,73546,6,0,L|238:95,1,157.499992847443
234,168,73972,2,0,P|184:112|240:24,1,157.499992847443
266,96,74398,2,0,L|108:95,1,157.499992847443
161,177,74823,6,0,L|351:180,1,157.499992847443
377,271,75249,2,0,L|273:271,1,104.999995231629
193,268,75568,1,0,0:0:0:0:
193,268,75674,1,0,0:0:0:0:
48,355,76100,6,0,L|50:204,1,125.99999043274
122,145,76419,1,0,0:0:0:0:
122,145,76525,2,0,P|60:93|2:100,1,125.99999043274
44,167,76844,2,0,P|39:205|50:262,1,62.9999952163698
46,273,77057,1,0,0:0:0:0:
63,313,77163,1,0,0:0:0:0:
94,344,77270,1,0,0:0:0:0:
149,347,77377,6,0,B|221:372|262:337|262:337|328:364|375:333,1,236.249998283386,4|0,0:0|0:0,0:0:0:0:
319,176,77802,2,0,P|338:232|323:283,1,104.999995231629
199,282,78121,1,0,0:0:0:0:
199,282,78227,2,0,P|189:231|208:183,1,104.999995231629
229,109,78546,1,0,0:0:0:0:
229,109,78653,1,0,0:0:0:0:
393,166,78866,2,0,P|343:177|284:166,1,104.999995231629
334,91,79291,5,0,0:0:0:0:
286,27,79504,2,0,P|244:61|229:116,1,104.999995231629
211,201,79929,2,0,L|105:198,1,104.999995231629
68,268,80249,1,0,0:0:0:0:
74,269,80355,1,0,0:0:0:0:
25,119,80568,5,0,0:0:0:0:
47,97,80674,1,0,0:0:0:0:
68,67,80780,2,0,P|120:56|172:60,1,104.999995231629
250,24,81100,1,0,0:0:0:0:
251,26,81206,2,0,L|246:132,1,104.999995231629
94,191,81632,2,0,P|160:234|248:180,1,157.499992847443
230,52,82057,6,0,B|225:136|225:136|154:149|111:218|149:283|203:297,1,314.999985694885
316,202,82483,6,0,L|453:209,1,104.999995231629
425,128,82802,1,0,0:0:0:0:
372,125,82908,1,0,0:0:0:0:
222,221,83121,5,0,0:0:0:0:
339,326,83334,6,0,L|476:333,1,104.999995231629
436,252,83653,1,0,0:0:0:0:
383,249,83759,1,0,0:0:0:0:
189,329,84185,6,0,L|196:192,1,104.999995231629
124,186,84504,1,0,0:0:0:0:
119,238,84610,1,0,0:0:0:0:
193,136,84823,1,0,0:0:0:0:
277,267,85036,6,0,L|284:130,1,104.999995231629
365,113,85355,1,0,0:0:0:0:
362,165,85461,1,0,0:0:0:0:
481,329,85887,6,0,P|418:258|346:357,1,209.999990463257
411,332,86525,2,0,B|367:249|367:249|352:281|313:314|266:298|231:262,1,209.999990463257
221,270,87057,1,0,0:0:0:0:
175,243,87163,1,0,0:0:0:0:
147,197,87270,1,0,0:0:0:0:
140,145,87376,1,0,0:0:0:0:
162,97,87483,1,0,0:0:0:0:
230,47,87589,5,0,0:0:0:0:
256,192,87695,12,0,89291,0:0:0:0:
