osu file format v14

[General]
AudioFilename: audio.mp3
AudioLeadIn: 0
PreviewTime: 49347
Countdown: 0
SampleSet: Soft
StackLeniency: 0.7
Mode: 0
LetterboxInBreaks: 0
WidescreenStoryboard: 0

[Editor]
Bookmarks: 22264,33013,43013,49430,57430,71097,76180,81347,102680,118763,126763,129347,140013
DistanceSpacing: 1.4
BeatDivisor: 4
GridSize: 8
TimelineZoom: 1

[Metadata]
Title:Sunday Siesta
TitleUnicode:Sunday Siesta
Artist:Yui Hirasawa (Aki Toyosaki)
ArtistUnicode:Yui Hirasawa (Aki Toyosaki)
Creator:Revero
Version:Hardissimo
Source:K-ON! Character Image Song Series Vol. 1: Yui Hirasawa
Tags:J-Pop, Anime Song
BeatmapID:1886675
BeatmapSetID:903786

[Difficulty]
HPDrainRate:6
CircleSize:4
OverallDifficulty:6
ApproachRate:8
SliderMultiplier:1.59999990463257
SliderTickRate:1

[Events]
//Background and Video events
0,0,"K-ON!_CISS_Volume_1_Yui.jpg",0,0
//Break Periods
//Storyboard Layer 0 (Background)
//Storyboard Layer 1 (Fail)
//Storyboard Layer 2 (Pass)
//Storyboard Layer 3 (Foreground)
//Storyboard Sound Samples

[TimingPoints]
12014,333.333333333333,4,2,0,40,1,0
14097,-100,4,2,0,30,0,0
14264,-100,4,2,0,40,0,0
16847,-100,4,3,0,50,0,0
17347,-100,4,2,0,40,0,0
19764,-100,4,2,0,30,0,0
19930,-100,4,2,0,40,0,0
22180,-100,4,3,0,50,0,0
22680,-100,4,2,0,40,0,0
25347,-100,4,2,0,40,0,0
30847,-100,4,2,0,40,0,0
31847,-100,4,3,0,50,0,0
32013,-100,4,2,0,40,0,0
32930,-100,4,2,0,30,0,0
33097,-100,4,2,0,40,0,0
33347,-100,4,2,0,45,0,0
33847,-100,4,3,0,55,0,0
34180,-100,4,2,0,45,0,0
35347,-100,4,3,0,55,0,0
35513,-100,4,2,0,45,0,0
35680,-100,4,2,0,55,0,0
35847,-100,4,2,0,35,0,0
49347,-100,4,2,0,40,0,1
70680,-100,4,2,0,40,0,0
118680,-100,4,2,0,40,0,1
140013,-100,4,2,0,40,0,0

[HitObjects]
55,110,12014,6,0,B|66:133|83:170|139:178|139:178|146:217|179:236,1,159.999990463257
237,159,12514,1,8,0:0:0:0:
284,69,12680,2,0,B|315:93|331:104|335:125|330:148|349:162|375:191|410:188,1,159.999990463257
428,94,13180,1,8,0:0:0:0:
493,174,13347,2,0,P|470:260|386:291,1,159.999990463257
312,259,13847,1,8,0:0:0:0:
232,199,14014,2,0,P|214:236|221:300,2,79.9999952316285
299,38,14680,1,0,0:0:0:0:
299,38,14847,6,0,B|270:43|260:54|230:77|224:99|234:110|259:129|215:97|204:106|181:125|153:152,1,159.999990463257
99,75,15347,2,0,B|63:125|81:198|152:226,1,159.999990463257
229,236,15847,1,0,0:0:0:0:
329,233,16014,2,0,P|312:179|287:154,1,79.9999952316285
288,65,16347,2,0,B|272:66|245:74|222:92|216:104|221:114|210:128|197:130|168:139|153:145|138:127|126:117,1,159.999990463257
164,66,16847,1,0,0:0:0:0:
81,129,17014,1,0,0:0:0:0:
152,204,17180,1,0,0:0:0:0:
231,271,17347,6,0,L|314:265,1,79.9999952316285
412,244,17680,1,8,0:0:0:0:
322,191,17847,1,8,0:0:0:0:
218,203,18014,2,0,L|279:135,1,79.9999952316285
316,49,18347,1,8,0:0:0:0:
218,86,18514,1,8,0:0:0:0:
157,169,18680,2,0,L|148:72,1,79.9999952316285
90,2,19014,1,8,0:0:0:0:
3,58,19180,2,0,B|21:57|33:59|68:116|50:116|41:126|31:139|26:173|54:187|51:197|62:210|81:200,1,159.999990463257
136,245,19680,2,0,P|103:278|41:290,2,79.9999952316285
197,168,20180,6,0,B|175:154|159:147|142:147|131:148|119:149|112:151|107:152|107:152|184:94,1,159.999990463257
138,17,20680,2,0,B|209:7|233:43|246:61|256:85|257:103,1,159.999990463257
344,154,21180,1,0,0:0:0:0:
444,150,21347,2,0,B|443:221|404:239|384:249|359:256|341:254,1,159.999990463257,0|0,3:0|0:0,0:0:0:0:
234,234,21847,2,0,B|189:248|189:248|129:252,1,79.9999952316285
49,214,22180,1,0,0:0:0:0:
91,110,22347,1,2,0:0:0:0:
177,181,22514,1,0,0:0:0:0:
296,199,22680,6,0,P|346:166|360:134,1,79.9999952316285
377,40,23013,1,8,0:0:0:0:
425,141,23180,1,8,0:0:0:0:
413,252,23347,2,0,P|375:265|336:258,1,79.9999952316285
230,222,23680,1,8,0:0:0:0:
285,124,23847,1,8,0:0:0:0:
362,43,24013,6,0,B|343:27|324:14|295:11|267:14,1,79.9999952316285
187,61,24347,1,8,0:0:0:0:
107,129,24513,2,0,B|64:170|64:170|24:117|57:56,1,159.999990463257
138,7,25013,1,0,0:0:0:0:
250,11,25180,1,0,0:0:0:0:
347,67,25347,1,4,0:0:0:0:
414,156,25513,6,0,P|375:220|275:219,1,159.999990463257
200,170,26013,2,0,P|151:160|105:171,1,79.9999952316285
153,273,26347,2,0,P|113:304|92:346,1,79.9999952316285
199,378,26680,2,0,B|253:354|268:293|268:293|296:304|336:304,1,159.999990463257
410,289,27180,2,0,B|401:266|400:246|383:229|363:217|330:210|316:133,1,159.999990463257,0|8,0:0|0:0,0:0:0:0:
431,129,27680,1,8,0:0:0:0:
431,129,27847,1,8,0:0:0:0:
400,21,28013,6,0,P|354:48|330:85,1,79.9999952316285
299,174,28347,1,8,0:0:0:0:
268,66,28513,1,8,0:0:0:0:
191,147,28680,2,0,P|190:202|220:254,1,79.9999952316285
279,302,29013,1,8,0:0:0:0:
167,287,29180,1,8,0:0:0:0:
89,205,29347,2,0,B|132:178|119:153|117:134|127:118|136:102|145:92|162:83|182:80,1,159.999990463257
270,58,29847,2,0,B|274:80|273:97|270:107|264:122|264:122|317:133|362:99,1,159.999990463257
435,47,30347,5,0,0:0:0:0:
436,158,30513,1,0,0:0:0:0:
332,200,30680,1,0,0:0:0:0:
254,118,30847,2,0,B|219:91|170:97|128:119|116:177,1,159.999990463257
35,196,31347,2,0,B|45:228|66:239|80:250|99:253|99:253|105:266|111:285|137:298|155:300,1,159.999990463257
164,233,31847,1,0,0:0:0:0:
241,150,32013,2,0,P|268:192|274:223,1,79.9999952316285
271,301,32347,1,0,0:0:0:0:
207,347,32513,2,0,P|250:377|292:378,1,79.9999952316285
341,307,32847,2,0,P|367:342|374:382,2,79.9999952316285
252,244,33347,6,0,B|219:232|193:226|165:239|148:247|148:247|187:186,1,159.999990463257
260,129,33847,1,0,0:0:0:0:
260,129,34013,1,0,0:0:0:0:
372,132,34180,2,0,B|425:147|425:147|426:61|377:28,1,159.999990463257
307,13,34680,2,0,B|298:40|301:57|301:57|218:53|197:90|175:111,1,159.999990463257
141,189,35180,1,8,0:0:0:0:
141,189,35347,1,0,0:0:0:0:
96,291,35513,2,4,P|56:262|31:209,2,79.9999952316285
208,294,36013,6,0,P|245:258|263:220,1,79.9999952316285
303,144,36347,1,0,0:0:0:0:
272,37,36513,2,0,P|340:40|376:61,1,79.9999952316285
415,136,36847,2,0,P|402:195|365:235,1,79.9999952316285
293,253,37180,2,0,B|281:252|265:251|243:244|223:224|195:205|190:166|193:137,1,159.999990463257
194,37,37680,5,8,0:0:0:0:
293,89,37847,1,0,0:0:0:0:
192,147,38013,1,8,0:0:0:0:
97,207,38180,1,0,0:0:0:0:
98,94,38347,1,8,0:0:0:0:
192,147,38513,1,0,0:0:0:0:
