osu file format v14

[General]
AudioFilename: audio.mp3
AudioLeadIn: 0
PreviewTime: -1
Countdown: 1
SampleSet: None
StackLeniency: 0.7
Mode: 0
LetterboxInBreaks: 0
WidescreenStoryboard: 1

[Editor]
DistanceSpacing: 1.5
BeatDivisor: 4
GridSize: 8
TimelineZoom: 1

[Metadata]
Title:Again
TitleUnicode:Again
Artist:Yui
ArtistUnicode:Yui
Creator:Yuuki Konno
Version:R-R-R-Retry
Source:
Tags:FMAB, Full, Metal, Alchemist, Brotherhood
BeatmapID:1181303
BeatmapSetID:523611

[Difficulty]
HPDrainRate:5
CircleSize:3.5
OverallDifficulty:6
ApproachRate:9
SliderMultiplier:1.4
SliderTickRate:1

[Events]
//Background and Video events
Video,0,"Fullmetal Alchemist Brotherhood Opening 1-Again creditless.mp4"
0,0,"FMA Brotherhood.jpg",0,0
//Break Periods
//Storyboard Layer 0 (Background)
//Storyboard Layer 1 (Fail)
//Storyboard Layer 2 (Pass)
//Storyboard Layer 3 (Foreground)
//Storyboard Sound Samples

[TimingPoints]
910,428.571428571429,4,2,0,40,1,0
910,-100,4,2,0,40,0,0
921,-100,4,2,0,40,0,0
12481,-66.6666666666667,4,2,0,40,0,0
17838,-100,4,2,0,40,0,0
18267,-90.9090909090909,4,2,0,40,0,0
18695,-83.3333333333333,4,2,0,40,0,0
19124,-83.3333333333333,4,2,0,40,0,0
19552,-76.9230769230769,4,2,0,40,0,0
47624,-66.6666666666667,4,2,0,40,0,0
89731,-66.6666666666667,4,2,0,5,0,0

[Colours]
Combo1 : 255,255,128
Combo2 : 128,0,0

[HitObjects]
120,128,910,6,0,P|160:72|240:72,1,140
200,144,1552,1,0,0:0:0:0:
192,224,1767,1,0,0:0:0:0:
224,296,1981,1,0,0:0:0:0:
320,184,2410,5,0,0:0:0:0:
200,144,2624,2,0,L|104:112,2,70
320,184,3267,2,0,P|280:240|200:240,1,140
224,80,4124,1,0,0:0:0:0:
264,72,4231,1,0,0:0:0:0:
304,80,4338,2,0,P|358:114|370:146,1,70
344,200,4767,2,0,P|289:165|277:133,1,70
304,80,5195,1,0,0:0:0:0:
376,32,5410,1,0,0:0:0:0:
456,64,5624,2,0,P|490:124|456:196,1,140
408,128,6267,5,0,0:0:0:0:
320,184,6481,1,0,0:0:0:0:
408,224,6695,1,0,0:0:0:0:
309,22,7124,2,0,P|371:29|395:53,1,70
320,184,7552,1,0,0:0:0:0:
320,184,7660,1,0,0:0:0:0:
320,184,7767,2,0,L|304:256,1,70
208,280,8195,1,0,0:0:0:0:
208,280,8302,1,0,0:0:0:0:
128,216,8517,2,0,P|104:312|120:336,1,105
208,280,9052,5,0,0:0:0:0:
280,224,9267,1,0,0:0:0:0:
288,312,9481,2,0,L|320:376,1,70
216,368,9910,1,0,0:0:0:0:
128,328,10124,2,0,P|120:256|152:208,1,105
208,280,10660,2,0,P|134:342|60:336,1,175
32,248,11410,1,0,0:0:0:0:
72,168,11624,2,0,P|136:152|192:192,1,140
120,240,12267,5,0,0:0:0:0:
120,240,12481,2,0,P|136:176|136:248,1,210.000008010865
416,256,13338,1,0,0:0:0:0:
416,256,13552,2,0,P|432:320|432:248,1,210.000008010865
328,336,14195,1,0,0:0:0:0:
416,256,14410,2,0,P|448:192|368:64,1,210.000008010865
312,184,15052,1,0,0:0:0:0:
320,48,15267,5,0,0:0:0:0:
304,48,15374,1,0,0:0:0:0:
288,56,15481,1,0,0:0:0:0:
280,72,15588,1,0,0:0:0:0:
272,88,15695,2,0,P|296:160|312:184,1,105.000004005432
128,32,16338,6,0,P|94:88|161:43,1,210.000008010865
272,88,16981,2,0,P|248:176|112:216,1,210.000008010865
136,72,17624,1,0,0:0:0:0:
272,88,17838,1,0,0:0:0:0:
338,235,18267,2,0,P|369:297|362:329,1,77.0000023498536
274,298,18695,2,0,P|273:353|249:377,1,83.9999974365235
194,306,19124,2,0,P|162:344|121:345,1,83.9999974365235
128,240,19552,1,0,0:0:0:0:
128,240,19767,5,0,0:0:0:0:
120,224,19874,1,0,0:0:0:0:
112,208,19981,1,0,0:0:0:0:
152,104,20195,1,0,0:0:0:0:
256,144,20410,1,0,0:0:0:0:
264,160,20517,1,0,0:0:0:0:
272,176,20624,1,0,0:0:0:0:
232,280,20838,1,0,0:0:0:0:
128,240,21052,1,0,0:0:0:0:
120,224,21159,1,0,0:0:0:0:
112,208,21267,1,0,0:0:0:0:
152,104,21481,6,0,P|200:64|240:64,1,90.9999958343508
228,151,21910,1,0,0:0:0:0:
80,48,22124,1,0,0:0:0:0:
168,8,22338,1,0,0:0:0:0:
264,0,22552,2,0,P|326:5|354:33,1,90.9999958343508
280,80,22981,1,0,0:0:0:0:
424,16,23195,1,0,0:0:0:0:
349,148,23410,2,0,P|277:180|189:108,1,181.999991668702
280,80,24052,1,0,0:0:0:0:
390,84,24267,1,0,0:0:0:0:
432,184,24481,1,0,0:0:0:0:
344,256,24695,5,0,0:0:0:0:
344,256,24802,1,0,0:0:0:0:
344,256,24910,2,0,P|264:276|250:297,2,90.9999958343508
320,328,25552,2,0,B|256:384|216:344|208:312|128:360,1,181.999991668702
123,267,26195,1,0,0:0:0:0:
139,188,26410,2,0,P|195:220|211:260,1,90.9999958343508
192,344,26838,1,0,0:0:0:0:
88,384,27052,1,0,0:0:0:0:
8,280,27267,1,0,0:0:0:0:
56,208,27481,2,0,P|104:184|208:248,1,181.999991668702
120,264,28124,5,0,0:0:0:0:
58,115,28338,1,0,0:0:0:0:
155,108,28552,1,0,0:0:0:0:
104,34,28767,1,0,0:0:0:0:
114,182,28981,1,0,0:0:0:0:
208,176,29195,1,0,0:0:0:0:
248,96,29410,1,0,0:0:0:0:
320,48,29624,2,0,P|376:32|408:40,1,90.9999958343508
328,136,30052,5,0,0:0:0:0:
248,96,30267,2,0,P|176:72|88:168,1,181.999991668702
181,162,30910,1,0,0:0:0:0:
264,196,31124,1,0,0:0:0:0:
312,48,31338,1,0,0:0:0:0:
248,104,31552,5,0,0:0:0:0:
248,104,31660,1,0,0:0:0:0:
248,104,31767,2,0,P|241:161|256:192,1,90.9999958343508
352,160,32195,1,0,0:0:0:0:
312,48,32410,2,0,P|264:24|160:88,1,181.999991668702
168,184,33052,1,0,0:0:0:0:
144,280,33267,6,0,P|107:325|76:336,1,90.9999958343508
56,240,33695,1,0,0:0:0:0:
232,248,33910,1,0,0:0:0:0:
80,152,34124,1,0,0:0:0:0:
144,280,34338,2,0,P|177:322|298:307,1,181.999991668702
232,248,34981,1,0,0:0:0:0:
232,232,35088,1,0,0:0:0:0:
240,216,35195,6,0,P|282:177|316:172,1,90.9999958343508
352,248,35624,1,0,0:0:0:0:
288,312,35838,1,0,0:0:0:0:
288,312,35945,1,0,0:0:0:0:
240,216,36160,1,0,0:0:0:0:
240,216,36267,1,0,0:0:0:0:
168,272,36481,5,0,0:0:0:0:
352,248,36695,1,0,0:0:0:0:
312,168,36910,1,0,0:0:0:0:
288,312,37124,2,0,P|246:351|212:356,1,90.9999958343508
168,272,37552,1,0,0:0:0:0:
240,216,37767,1,0,0:0:0:0:
352,248,37981,5,0,0:0:0:0:
352,248,38088,1,0,0:0:0:0:
352,248,38195,2,0,P|394:287|428:292,1,90.9999958343508
424,200,38624,1,0,0:0:0:0:
311,167,38838,2,0,P|257:188|239:217,1,90.9999958343508
280,296,39267,1,0,0:0:0:0:
360,232,39481,5,0,0:0:0:0:
376,224,39588,1,0,0:0:0:0:
392,216,39695,1,0,0:0:0:0:
408,208,39802,1,0,0:0:0:0:
424,200,39910,1,0,0:0:0:0:
440,64,40124,1,0,0:0:0:0:
312,112,40338,1,0,0:0:0:0:
72,320,40767,5,0,0:0:0:0:
200,272,40981,2,0,P|242:239|216:120,1,181.999991668702
94,172,41624,2,0,P|52:204|78:324,1,181.999991668702
