osu file format v14

[General]
AudioFilename: audio.mp3
AudioLeadIn: 0
PreviewTime: -1
Countdown: 1
SampleSet: Soft
StackLeniency: 0.7
Mode: 0
LetterboxInBreaks: 0
WidescreenStoryboard: 0

[Editor]
Bookmarks: 9257,12417
DistanceSpacing: 1
BeatDivisor: 8
GridSize: 8
TimelineZoom: 1

[Metadata]
Title:Again
TitleUnicode:Again
Artist:Yui
ArtistUnicode:Yui
Creator:Yuuki Konno
Version:Ignore
Source:
Tags:
BeatmapID:1995264
BeatmapSetID:955471

[Difficulty]
HPDrainRate:0
CircleSize:4
OverallDifficulty:7
ApproachRate:9
SliderMultiplier:1.5
SliderTickRate:1

[Events]
//Background and Video events
0,0,"Edward.Elric.full.2057027.jpg",0,0
//Break Periods
//Storyboard Layer 0 (Background)
//Storyboard Layer 1 (Fail)
//Storyboard Layer 2 (Pass)
//Storyboard Layer 3 (Foreground)
//Storyboard Sound Samples

[TimingPoints]
2139,428.571428571429,4,2,1,40,1,0
2139,-133.333333333333,4,2,1,40,0,0
3667,-133.333333333333,4,2,1,40,0,0
11881,397.350993377483,4,2,1,40,1,0
11881,-133.333333333333,4,2,1,40,0,0
12024,453.686200378072,4,2,1,40,1,0
12024,428.571428571429,4,2,1,40,1,0
12024,-100,4,2,1,40,0,0
12453,428.571428571429,4,2,1,40,1,0
12477,487.80487804878,4,2,1,40,1,0
12964,444.444444444444,4,2,1,40,1,0
21024,-133.333333333333,4,2,1,40,0,0
47167,-100,4,2,1,40,0,0
48453,-83.3333333333333,4,2,1,70,0,1
48881,-83.3333333333333,4,2,1,70,0,0
50167,-83.3333333333333,4,2,1,70,0,1
50595,-83.3333333333333,4,2,1,70,0,0
51453,-83.3333333333333,4,2,1,70,0,0
51881,-83.3333333333333,4,2,1,70,0,1
52310,-83.3333333333333,4,2,1,70,0,0
53595,-83.3333333333333,4,2,1,70,0,1
55203,-83.3333333333333,4,2,1,70,0,0
55310,-83.3333333333333,4,2,1,70,0,1
55738,-83.3333333333333,4,2,1,70,0,0
57024,-83.3333333333333,4,2,1,70,0,1
57453,-83.3333333333333,4,2,1,70,0,0
58738,-83.3333333333333,4,2,1,70,0,1
59167,-83.3333333333333,4,2,1,70,0,0
60453,-74.0740740740741,4,2,1,70,0,1
61310,-74.0740740740741,4,2,1,70,0,0
62167,-66.6666666666667,4,2,1,70,0,1
75238,-57.1428571428571,4,2,1,70,0,0
75881,-57.1428571428571,4,2,1,70,0,1
84453,-57.1428571428571,4,2,1,70,0,0
86167,-57.1428571428571,4,2,1,70,0,1
86381,-100,4,2,1,70,0,0
89167,-100,4,2,1,30,0,0
90881,-100,4,2,1,5,0,0

[HitObjects]
67,109,1924,5,0,0:0:0:0:
137,150,2139,2,0,P|176:143|254:142,1,112.500004291535,2|0,0:0|0:0,0:0:0:0:
323,159,2781,2,0,P|295:142|280:107,1,56.2500021457673,2|0,0:0|0:0,0:0:0:0:
348,70,3371,2,0,P|346:66|344:44,1,14.0625005364418,2|0,0:0|0:0,0:0:0:0:
483,73,3746,1,0,0:0:0:0:
483,73,3960,6,0,P|479:102|469:141,1,56.2500021457673,2|0,0:0|0:0,0:0:0:0:
420,198,4389,1,0,0:0:0:0:
420,198,4603,2,0,L|348:208,1,56.2500021457673,2|0,0:0|0:0,0:0:0:0:
457,307,5031,2,0,L|520:315,1,56.2500021457673,2|0,0:0|0:0,0:0:0:0:
343,372,5460,2,0,L|320:376,1,14.0625005364418
343,356,5674,5,2,0:0:0:0:
272,373,5889,1,0,0:0:0:0:
285,296,6103,1,0,0:0:0:0:
356,313,6317,1,2,0:0:0:0:
343,236,6531,1,0,0:0:0:0:
272,253,6746,1,0,0:0:0:0:
285,176,6960,1,0,0:0:0:0:
15,297,8460,2,0,L|55:308,1,28.1250010728836,0|0,0:0|0:0,0:0:0:0:
5,306,8674,6,0,L|68:325,1,56.2500021457673,2|0,0:0|0:0,0:0:0:0:
125,352,9103,2,0,L|191:340,1,56.2500021457673,0|2,0:0|0:0,0:0:0:0:
203,351,9424,2,0,P|235:321|279:324,1,84.3750032186509,0|2,0:0|0:0,0:0:0:0:
186,254,9960,2,0,L|185:175,1,56.2500021457673,0|0,0:0|0:0,0:0:0:0:
141,117,10388,6,0,L|148:183,2,56.2500021457673,2|0|0,0:0|0:0|0:0,0:0:0:0:
81,48,10924,1,2,0:0:0:0:
62,50,11031,2,0,P|33:78|17:109,1,56.2500021457673
70,162,11353,6,0,L|50:330,1,168.750006437302,2|0,0:2|0:0,0:0:0:0:
50,329,12137,1,0,0:0:0:0:
50,329,12364,1,0,0:0:0:0:
483,325,13630,6,0,B|458:351|458:351|371:365,1,112.5,8|2,0:0|3:0,0:0:0:0:
368,381,14058,2,0,P|338:334|234:322,1,150,4|8,0:0|0:0,0:0:0:0:
166,381,14701,1,4,2:3:0:0:
166,381,14809,1,4,2:3:0:0:
166,381,14916,1,8,0:0:0:0:
85,306,15130,2,0,L|90:219,1,75,0|8,3:0|0:0,0:0:0:0:
89,231,15559,6,0,L|245:251,1,150,2|0,0:0|3:0,0:0:0:0:
339,201,16201,1,8,0:0:0:0:
274,27,16523,1,0,3:0:0:0:
285,38,16630,2,0,L|288:93,2,37.5,8|0|8,0:0|3:0|0:0,0:0:0:0:
390,0,17059,2,0,L|383:133,1,112.5,8|0,0:0|3:0,0:0:0:0:
365,124,17487,6,0,P|418:136|422:246,1,150,2|8,0:0|0:0,0:0:0:0:
394,302,18130,1,8,0:0:0:0:
394,302,18237,1,0,3:0:0:0:
394,302,18344,1,8,0:0:0:0:
301,262,18559,2,0,L|208:273,1,75,0|8,0:0|0:0,0:0:0:0:
113,362,18987,6,0,P|176:331|182:232,1,150,4|8,0:0|0:0,0:0:0:0:
120,198,19630,1,8,0:0:0:0:
120,198,19844,1,8,0:0:0:0:
198,111,20059,1,8,2:3:0:0:
78,118,20273,1,8,2:3:0:0:
198,111,20487,1,4,0:3:0:0:
78,118,20701,1,4,0:3:0:0:
214,8,20916,6,0,L|273:24,1,37.5,8|8,0:0|0:0,0:0:0:0:
218,25,21130,1,8,0:0:0:0:
286,105,21344,1,8,0:0:0:0:
382,77,21559,2,0,L|416:64,2,28.1250010728836,0|8|8,3:0|0:0|0:0,0:0:0:0:
289,108,21987,1,8,0:0:0:0:
308,210,22201,1,8,0:0:0:0:
321,223,22309,1,8,0:3:0:0:
334,236,22416,1,4,0:3:0:0:
337,239,22630,6,0,P|285:241|222:258,1,112.500004291535,2|0,3:3|0:0,0:0:0:0:
159,300,23273,1,0,3:0:0:0:
43,209,23741,2,0,P|13:201|-14:198,2,56.2500021457673,2|0|0,0:0|0:0|0:0,0:0:0:0:
50,216,24384,5,0,3:0:0:0:
50,216,24599,2,0,P|53:168|37:100,1,112.500004291535,2|2,0:2|3:2,0:0:0:0:
299,3,25860,2,0,L|309:33,1,28.1250010728836,0|0,0:0|0:0,0:0:0:0:
287,0,26075,6,0,P|298:27|305:60,1,56.2500021457673,2|0,3:2|0:0,0:0:0:0:
266,120,26503,1,0,0:0:0:0:
266,120,26717,2,0,L|194:125,1,56.2500021457673,2|0,3:2|0:0,0:0:0:0:
149,194,27146,2,0,L|221:199,1,56.2500021457673,2|0,0:2|0:0,0:0:0:0:
273,237,27575,6,0,P|316:210|390:203,1,112.500004291535,2|0,0:0|0:0,0:0:0:0:
447,243,28217,2,0,P|473:258|497:267,1,56.2500021457673,0|0,0:0|3:0,0:0:0:0:
496,278,28646,2,0,P|463:323|441:395,1,112.500004291535,2|0,0:0|3:0,0:0:0:0:
340,384,29289,1,0,0:0:0:0:
340,384,29396,1,0,0:0:0:0:
340,384,29503,6,0,P|359:334|364:260,1,112.500004291535,0|0,3:2|0:0,0:0:0:0:
327,203,30146,1,0,3:0:0:0:
210,331,30638,2,0,P|200:355|192:388,2,56.2500021457673,2|0|0,0:0|0:0|0:0,0:0:0:0:
217,338,31280,5,0,3:2:0:0:
217,338,31495,2,0,L|93:350,1,112.500004291535,2|2,0:0|3:2,0:0:0:0:
21,138,32780,2,0,L|65:145,1,28.1250010728836,0|0,0:0|0:0,0:0:0:0:
11,127,32995,6,0,P|40:134|85:141,1,56.2500021457673,2|0,3:2|0:0,0:0:0:0:
150,164,33423,1,0,0:0:0:0:
150,164,33638,2,0,L|160:108,1,56.2500021457673,2|0,3:2|0:0,0:0:0:0:
228,56,34066,2,0,L|238:112,1,56.2500021457673,2|0,0:0|0:0,0:0:0:0:
276,186,34495,6,0,P|283:134|321:72,1,112.500004291535,2|0,0:0|0:0,0:0:0:0:
381,32,35138,2,0,L|441:39,1,56.2500021457673,0|0,0:0|3:0,0:0:0:0:
508,154,35566,2,0,P|460:155|376:170,1,112.500004291535,2|0,0:2|3:0,0:0:0:0:
337,230,36209,1,2,0:0:0:0:
337,230,36316,1,2,0:0:0:0:
337,230,36423,6,0,L|334:305,1,56.2500021457673,2|0,3:2|0:0,0:0:0:0:
268,327,36852,2,0,L|197:334,1,56.2500021457673,2|0,0:0|3:2,0:0:0:0:
178,348,37173,2,0,L|107:341,1,56.2500021457673,2|0,0:0|0:0,0:0:0:0:
90,324,37495,2,0,L|48:328,2,28.1250010728836,0|0|0,0:0|0:0|0:0,0:0:0:0:
279,54,39797,6,0,L|265:124,2,56.2500021457673,2|2|2,3:2|0:0|0:0,0:0:0:0:
279,54,40440,1,2,3:2:0:0:
456,16,40868,2,0,L|494:3,1,28.1250010728836,0|0,0:0|0:0,0:0:0:0:
488,18,41083,2,0,P|456:29|422:49,1,56.2500021457673,2|0,0:0|3:0,0:0:0:0:
403,109,41511,5,0,3:0:0:0:
492,320,41940,1,0,0:0:0:0:
420,279,42154,2,0,P|365:294|297:294,1,112.500004291535,2|2,3:2|0:0,0:0:0:0:
312,298,42797,2,0,L|305:361,1,56.2500021457673,2|0,3:2|0:0,0:0:0:0:
305,353,43225,5,2,3:0:0:0:
213,357,43440,1,0,0:0:0:0:
213,357,43654,2,0,P|209:304|193:255,1,84.3750032186509,2|0,0:0|0:0,0:0:0:0:
176,267,44083,1,0,0:0:0:0:
176,267,44190,1,0,0:0:0:0:
176,267,44297,2,0,L|126:274,1,28.1250010728836,0|0,0:0|0:0,0:0:0:0:
117,251,44511,2,0,P|110:220|108:190,1,56.2500021457673,2|2,0:0|3:2,0:0:0:0:
168,131,44940,5,2,3:2:0:0:
143,56,45154,1,2,0:0:0:0:
68,29,45368,1,2,0:0:0:0:
148,35,45583,2,0,L|228:27,1,56.2500021457673,2|0,3:2|0:0,0:0:0:0:
233,50,45904,2,0,L|313:58,1,56.2500021457673,0|0,0:0|0:0,0:0:0:0:
323,34,46225,1,2,0:0:0:0:
323,34,46440,1,2,3:2:0:0:
416,0,46654,5,2,3:2:0:0:
452,102,46868,1,2,0:0:0:0:
416,0,47083,1,2,0:0:0:0:
452,102,47297,2,0,L|446:219,1,112.500004291535,2|0,3:2|0:0,0:0:0:0:
372,273,47797,2,0,L|374:333,1,56.2500021457673,2|2,0:0|3:2,0:0:0:0:
374,329,48130,5,0,0:0:0:0:
100,384,48741,1,2,0:0:0:0:
168,332,48963,2,0,P|154:260|75:251,1,150,2|4,3:1|3:0,0:0:0:0:
90,248,49630,2,0,B|112:257|112:257|230:235,1,112.5,8|0,1:2|0:0,0:0:0:0:
214,227,50075,6,0,L|150:225,1,44.999998626709,12|0,1:3|0:0,0:0:0:0:
83,154,50289,1,12,1:3:0:0:
83,154,50396,1,0,0:0:0:0:
83,154,50503,2,0,L|74:99,1,44.999998626709,2|0,0:0|0:0,0:0:0:0:
162,104,50717,2,0,L|176:50,1,44.999998626709,2|0,0:0|0:0,0:0:0:0:
255,86,50932,5,2,0:0:0:0:
277,88,51039,1,2,0:0:0:0:
299,90,51146,1,2,0:0:0:0:
321,92,51253,1,2,0:0:0:0:
343,94,51360,2,0,L|323:151,1,44.999998626709,2|0,0:0|0:0,0:0:0:0:
412,172,51575,1,2,0:0:0:0:
412,172,51789,6,0,L|432:229,1,44.999998626709,12|0,1:3|0:0,0:0:0:0:
457,311,52003,1,12,1:3:0:0:
436,319,52110,1,0,0:0:0:0:
415,327,52217,1,0,0:0:0:0:
394,335,52325,2,0,L|329:324,1,44.999998626709,2|0,0:0|0:0,0:0:0:0:
219,254,52539,1,2,0:0:0:0:
239,245,52646,5,0,0:0:0:0:
260,237,52753,2,0,L|308:216,1,44.999998626709,2|0,0:0|0:0,0:0:0:0:
390,113,52967,1,0,0:0:0:0:
407,127,53075,2,0,L|414:197,1,44.999998626709,2|0,0:1|0:0,0:0:0:0:
308,56,53289,1,2,2:1:0:0:
308,56,53503,6,0,L|235:69,1,44.999998626709,12|0,1:3|0:0,0:0:0:0:
164,22,53717,1,12,1:3:0:0:
155,42,53825,1,0,0:0:0:0:
146,62,53932,2,0,L|140:17,1,44.999998626709,2|0,0:0|0:0,0:0:0:0:
60,103,54146,2,0,L|63:57,1,44.999998626709,2|0,0:0|0:0,0:0:0:0:
0,159,54360,6,0,P|24:171|45:189,1,44.999998626709,2|0,0:0|0:0,0:0:0:0:
90,245,54575,2,0,P|98:270|100:298,1,44.999998626709,2|0,0:0|0:0,0:0:0:0:
38,338,54789,1,2,0:0:0:0:
60,334,54896,1,2,0:0:0:0:
82,330,55003,1,2,0:0:0:0:
104,326,55110,1,2,0:0:0:0:
126,322,55297,6,0,B|216:307|216:307|256:344,1,134.999995880127,4|8,0:0|0:0,0:0:0:0:
414,384,55852,2,0,P|434:340|430:289,1,89.9999972534181,4|0,1:0|0:0,0:0:0:0:
412,289,56186,1,8,0:0:0:0:
412,289,56297,1,8,0:0:0:0:
341,193,56519,1,8,0:3:0:0:
374,178,56634,1,8,0:3:0:0:
409,179,56741,1,4,0:3:0:0:
512,121,56956,6,0,L|446:129,1,44.999998626709,12|0,1:3|0:0,0:0:0:0:
361,165,57170,1,12,1:3:0:0:
334,159,57277,1,0,0:0:0:0:
307,154,57384,2,0,P|305:178|295:204,1,44.999998626709,2|0,0:0|0:0,0:0:0:0:
245,280,57599,1,0,0:0:0:0:
245,280,57706,1,2,0:0:0:0:
245,280,57813,6,0,P|243:306|246:342,2,44.999998626709,2|0|0,0:0|0:0|0:0,0:0:0:0:
177,216,58134,1,2,0:0:0:0:
177,216,58241,2,0,L|126:249,1,44.999998626709,2|0,0:0|0:0,0:0:0:0:
63,296,58456,1,2,0:0:0:0:
5,151,58670,6,0,L|81:160,1,44.999998626709,12|0,1:2|0:0,0:0:0:0:
171,118,58884,1,12,1:3:0:0:
197,115,58991,1,0,0:0:0:0:
223,112,59099,1,0,0:0:0:0:
249,108,59206,2,0,L|241:164,1,44.999998626709,0|0,0:0|0:0,0:0:0:0:
339,191,59420,1,0,0:0:0:0:
351,167,59527,5,2,0:0:0:0:
364,143,59634,1,2,0:0:0:0:
376,119,59741,1,2,0:0:0:0:
389,95,59849,1,0,0:0:0:0:
402,71,59956,2,0,P|401:96|406:116,1,44.999998626709,2|0,0:1|0:0,0:0:0:0:
489,160,60170,1,2,0:1:0:0:
474,288,60384,6,0,L|403:297,1,44.999998626709,12|0,1:3|0:0,0:0:0:0:
322,350,60599,1,12,1:3:0:0:
295,347,60706,1,0,0:0:0:0:
268,344,60813,1,0,0:0:0:0:
241,342,60920,2,0,L|223:290,1,44.999998626709,2|0,0:0|0:0,0:0:0:0:
27,245,61241,5,2,0:0:0:0:
54,248,61349,1,2,0:0:0:0:
81,251,61456,1,2,0:0:0:0:
108,254,61563,1,2,0:0:0:0:
136,258,61670,2,0,L|129:191,1,44.999998626709,2|0,0:0|0:0,0:0:0:0:
67,149,61884,2,0,L|74:82,1,44.999998626709,2|0,0:0|0:0,0:0:0:0:
134,14,62099,6,0,P|152:77|226:120,1,151.875000579357,12|0,1:2|0:0,0:0:0:0:
255,108,62527,2,0,P|286:109|332:125,1,50.6250001931191,8|0,1:2|0:0,0:0:0:0:
425,43,62741,2,0,L|407:167,1,101.250000386238,4|8,0:0|0:0,0:0:0:0:
385,175,63063,5,8,0:0:0:0:
401,212,63170,1,8,0:0:0:0:
418,248,63277,1,8,0:0:0:0:
435,284,63384,2,0,L|448:217,1,50.6250001931191,8|8,0:0|0:0,0:0:0:0:
315,265,63599,2,0,L|299:198,1,50.6250001931191,8|8,0:0|0:0,0:0:0:0:
197,296,63813,6,0,P|132:233|32:258,1,168.750006437302,4|0,1:0|0:0,0:0:0:0:
25,257,64241,1,8,0:0:0:0:
90,92,64456,1,8,3:2:0:0:
84,47,64563,1,8,0:0:0:0:
59,10,64670,6,0,P|58:52|74:104,1,56.2500021457673,4|0,0:3|0:0,0:0:0:0:
128,180,64884,2,0,P|199:178|255:124,1,112.500004291535,2|8,0:0|0:0,0:0:0:0:
406,55,65313,1,2,0:0:0:0:
446,74,65420,1,2,0:0:0:0:
480,102,65527,6,0,P|501:140|503:181,1,56.2500021457673,2|0,3:2|0:0,0:0:0:0:
477,273,65741,2,0,P|426:322|330:308,1,168.750006437302,2|0,0:0|0:0,0:0:0:0:
224,235,66170,1,8,0:0:0:0:
179,229,66277,1,8,0:0:0:0:
138,250,66384,6,0,P|118:273|105:335,1,56.2500021457673,4|0,1:3|0:0,0:0:0:0:
166,384,66599,1,8,0:3:0:0:
0,321,66813,1,8,0:0:0:0:
63,155,67027,1,2,0:0:0:0:
54,110,67134,1,2,0:0:0:0:
29,72,67241,6,0,P|34:103|53:142,1,56.2500021457673,2|0,2:1|0:0,0:0:0:0:
97,191,67456,2,0,P|126:202|169:205,1,56.2500021457673,2|0,2:1|0:0,0:0:0:0:
54,110,67670,2,0,P|71:136|104:164,1,56.2500021457673,2|0,1:1|0:0,0:0:0:0:
164,191,67884,2,0,P|195:189|236:174,1,56.2500021457673,2|0,2:1|0:0,0:0:0:0:
92,134,68099,6,0,P|118:150|159:162,1,56.2500021457673,4|0,2:3|0:0,0:0:0:0:
225,163,68313,2,0,P|276:129|305:72,1,112.500004291535,2|8,3:1|0:0,0:0:0:0:
507,29,68741,1,8,0:0:0:0:
470,54,68849,1,8,0:0:0:0:
454,96,68956,6,0,P|449:135|459:179,1,56.2500021457673,4|0,0:0|0:0,0:0:0:0:
512,265,69170,2,0,P|470:191|405:173,1,112.500004291535,2|8,2:0|0:0,0:0:0:0:
272,333,69599,6,0,P|354:335|411:276,1,168.750006437302,4|0,0:0|0:0,0:0:0:0:
333,91,70027,2,0,P|306:119|290:184,1,56.2500021457673,2|0,0:0|0:0,0:0:0:0:
379,288,70241,1,8,0:0:0:0:
323,297,70349,1,8,0:0:0:0:
267,306,70456,1,8,0:0:0:0:
211,315,70563,1,8,0:0:0:0:
155,325,70670,6,0,P|123:306|143:184,1,168.750006437302,6|0,0:1|0:0,0:0:0:0:
225,189,71099,2,0,P|203:200|148:207,1,56.2500021457673,8|0,0:0|0:0,0:0:0:0:
52,143,71313,1,8,0:0:0:0:
42,87,71420,1,8,0:0:0:0:
64,35,71527,5,8,0:0:0:0:
98,221,71741,1,12,0:3:0:0:
236,152,71956,2,0,L|385:181,1,112.500004291535,8|0,0:0|0:0,0:0:0:0:
492,77,72384,6,0,P|484:106|479:154,1,56.2500021457673,2|0,0:1|0:0,0:0:0:0:
360,95,72599,2,0,P|367:124|373:172,1,56.2500021457673,2|0,0:1|0:0,0:0:0:0:
503,152,72813,2,0,P|495:181|490:229,1,56.2500021457673,2|0,1:0|0:0,0:0:0:0:
495,340,73027,1,12,0:3:0:0:
447,308,73134,6,0,P|408:289|356:286,1,56.2500021457673,8|0,0:0|0:0,0:0:0:0:
263,353,73349,1,2,0:0:0:0:
287,302,73456,2,0,P|283:222|134:218,1,225.000008583069,2|0,0:1|3:0,0:0:0:0:
26,384,74099,6,0,P|36:355|40:305,1,56.2500021457673,2|0,0:0|0:0,0:0:0:0:
142,349,74313,2,0,P|136:318|114:273,1,56.2500021457673,2|0,0:0|0:0,0:0:0:0:
224,260,74527,1,2,1:2:0:0:
273,384,74741,1,4,3:0:0:0:
273,384,74849,1,8,3:0:0:0:
273,384,74956,5,8,0:0:0:0:
376,341,75170,1,4,0:3:0:0:
224,260,75384,1,8,0:0:0:0:
168,71,75599,1,8,1:2:0:0:
197,23,75706,1,8,1:2:0:0:
250,5,75813,6,0,P|288:7|321:16,1,56.2500021457673,6|0,0:0|0:0,0:0:0:0:
380,52,76027,2,0,P|405:80|422:109,1,56.2500021457673,2|0,0:0|0:0,0:0:0:0:
438,177,76241,1,2,0:0:0:0:
387,311,76456,6,0,L|190:328,1,168.750006437302,4|0,1:1|0:0,0:0:0:0:
72,384,76884,2,0,P|102:353|118:307,1,65.6250006258488,8|0,0:0|0:0,0:0:0:0:
169,199,77099,1,8,0:0:0:0:
163,140,77206,1,8,0:0:0:0:
119,99,77313,1,8,0:0:0:0:
60,103,77420,1,8,0:0:0:0:
18,145,77527,6,0,P|82:153|197:77,1,196.875001877546,4|0,0:0|0:0,0:0:0:0:
234,45,77956,2,0,P|254:25|313:7,1,65.6250006258488,8|0,0:0|0:0,0:0:0:0:
422,0,78170,1,8,0:3:0:0:
457,46,78277,1,8,0:3:0:0:
471,103,78384,2,0,P|464:140|434:195,1,65.6250006258488,4|0,0:3|0:0,0:0:0:0:
336,257,78599,2,0,P|261:244|209:177,1,131.250001251698,2|8,0:0|0:0,0:0:0:0:
0,318,79027,1,2,0:0:0:0:
59,318,79134,1,2,0:0:0:0:
110,346,79241,6,0,P|198:361|246:238,1,196.875001877546,2|0,0:1|0:0,0:0:0:0:
241,224,79670,2,0,P|240:181|251:126,1,65.6250006258488,8|0,0:0|0:0,0:0:0:0:
341,30,79884,1,8,0:0:0:0:
399,19,79991,1,8,0:0:0:0:
456,30,80099,2,0,P|407:56|343:60,1,65.6250006258488,8|0,1:2|0:0,0:0:0:0:
240,20,80313,2,0,P|166:57|158:145,1,131.250001251698,4|8,3:0|0:0,0:0:0:0:
177,151,80634,1,2,0:0:0:0:
137,194,80741,1,2,0:0:0:0:
80,176,80849,1,2,0:0:0:0:
21,171,80956,6,0,P|66:182|102:209,1,65.6250006258488,2|0,0:1|0:0,0:0:0:0:
147,239,81170,2,0,P|180:271|198:312,1,65.6250006258488,2|0,0:1|0:0,0:0:0:0:
17,183,81384,2,0,P|62:194|98:221,1,65.6250006258488,2|0,0:1|0:0,0:0:0:0:
143,251,81599,2,0,P|176:283|194:324,1,65.6250006258488,2|0,0:1|0:0,0:0:0:0:
13,195,81813,6,0,P|58:206|94:233,1,65.6250006258488,2|0,0:1|0:0,0:0:0:0:
139,263,82027,2,0,P|172:295|190:336,1,65.6250006258488,2|0,0:1|0:0,0:0:0:0:
66,332,82241,2,0,P|90:286|133:251,1,65.6250006258488,8|0,0:0|0:0,0:0:0:0:
208,182,82456,1,8,0:0:0:0:
239,132,82563,1,8,0:0:0:0:
231,73,82670,6,0,P|213:35|183:1,1,65.6250006258488,4|0,0:0|0:0,0:0:0:0:
55,77,82884,2,0,P|105:146|210:149,1,196.875001877546,2|0,0:0|0:0,0:0:0:0:
318,68,83313,6,0,L|514:108,1,196.875001877546,4|0,0:1|0:0,0:0:0:0:
512,201,83741,2,0,P|485:222|461:273,1,65.6250006258488,2|0,0:0|0:0,0:0:0:0:
482,384,83956,1,8,0:0:0:0:
465,327,84063,1,8,0:0:0:0:
437,274,84170,1,8,0:0:0:0:
385,245,84277,1,8,0:0:0:0:
326,235,84384,6,0,P|270:155|290:54,1,196.875001877546,4|0,0:0|0:0,0:0:0:0:
365,0,84813,2,0,P|347:34|306:64,1,65.6250006258488,10|0,0:0|0:0,0:0:0:0:
177,97,85027,1,8,3:0:0:0:
137,141,85134,1,8,3:0:0:0:
122,198,85241,6,0,P|134:241|166:284,1,65.6250006258488,4|0,3:0|0:0,0:0:0:0:
312,339,85456,2,0,P|287:260|162:251,1,196.875001877546,2|0,0:0|0:0,0:0:0:0:
144,259,85884,1,0,0:0:0:0:
0,138,86099,6,0,L|145:155,1,131.250001251698,10|0,0:0|0:0,0:0:0:0:
188,146,86420,1,2,0:0:0:0:
245,133,86527,1,2,0:0:0:0:
279,85,86634,1,2,0:0:0:0:
245,37,86741,1,2,0:0:0:0:
189,55,86849,1,2,0:0:0:0:
189,114,86956,5,2,0:0:0:0:
189,114,87170,1,2,0:0:0:0:
189,114,87384,1,2,2:1:0:0:
411,0,87813,1,4,1:0:0:0:
256,192,87920,12,0,91729,0:0:0:0:
