osu file format v14

[General]
AudioFilename: audio.mp3
AudioLeadIn: 0
PreviewTime: 112103
Countdown: 0
SampleSet: Normal
StackLeniency: 0.7
Mode: 1
LetterboxInBreaks: 0
WidescreenStoryboard: 1

[Editor]
Bookmarks: 1843,12697,34392,46595,68289,79137,100832,113036,134731,156425,183544,194391,209307,231001,252696
DistanceSpacing: 1.7
BeatDivisor: 8
GridSize: 32
TimelineZoom: 2.250002

[Metadata]
Title:TwinkleStars (Rabbit House DnB Remix)
TitleUnicode:TwinkleStars (Rabbit House DnB Remix)
Artist:Yui (CV: Taneda Risa), Hiyori (CV: Touyama Nao), Rei (CV: Hayami Saori)
ArtistUnicode:ユイ (CV: 種田梨沙), ヒヨリ (CV: 東山奈央), レイ (CV: 早見沙織)
Creator:4sbet1
Version:Fapu's VERY HARD
Source:プリンセスコネクト!Re:Dive
Tags:Faputa Anime Video Game Japanese Princess Connect Re:Dive ReDive PCR プリコネ Priconne purikone cygames ユイ 草野優衣 Kusano Yui 種田梨沙 Taneda Risa ヒヨリ 春咲ひより Harusaki Hiyori 東山奈央 Toyama Nao Touyama レイ 士条怜 Shijo Rei Shijou 早見沙織 Hayami Saori PRICONNE CHARACTER SONG 10 RIGINAL SOUNDTRACK VOL.4 石濱翔 Ishihama Kakeru 新春トゥインクルクライシス! Shinshun Twinkle Crisis Electronic Hardcore drum & and bass
BeatmapID:3653510
BeatmapSetID:1778990

[Difficulty]
HPDrainRate:5.5
CircleSize:2
OverallDifficulty:6
ApproachRate:10
SliderMultiplier:1.4
SliderTickRate:1

[Events]
//Background and Video events
0,0,"BG.jpg",0,25
//Break Periods
//Storyboard Layer 0 (Background)
//Storyboard Layer 1 (Fail)
//Storyboard Layer 2 (Pass)
//Storyboard Layer 3 (Foreground)
//Storyboard Layer 4 (Overlay)
//Storyboard Sound Samples

[TimingPoints]
-3580,338.983050847458,4,1,0,60,1,0
-106,-125,4,1,0,60,0,0
1420,-90.9090909090909,4,1,0,10,0,0
1758,-111.111111111111,4,1,0,70,0,0
6060,-111.111111111111,4,1,0,70,0,0
6229,-110.273404272852,4,1,0,70,0,0
6399,-109.432091928022,4,1,0,71,0,0
6483,-109.016907946868,4,1,0,71,0,0
6737,-107.76368667805,4,1,0,73,0,0
6907,-106.926869051555,4,1,0,75,0,0
7076,-106.096610484121,4,1,0,77,0,0
7246,-105.263157894737,4,1,0,80,0,0
9894,-96.1538461538462,4,1,0,80,0,0
12606,-111.111111111111,4,1,0,70,0,0
22839,-90.9090909090909,4,1,0,80,0,0
23009,-93.2146280277635,4,1,0,80,0,0
23093,-94.3484222368709,4,1,0,80,0,0
23178,-95.4915028125263,4,1,0,80,0,0
23263,-96.6299276751697,4,1,0,80,0,0
23348,-97.7632825939603,4,1,0,80,0,0
23517,-100,4,1,0,80,0,0
23877,-100,4,1,0,80,0,0
29216,-90.9090909090909,4,1,0,80,0,0
29640,-100,4,1,0,80,0,0
30572,-90.9090909090909,4,1,0,80,0,0
30996,-100,4,1,0,80,0,0
34386,-90.9090909090909,4,1,0,80,0,0
35657,-100,4,1,0,80,0,0
37097,-90.9090909090909,4,1,0,80,0,0
38369,-100,4,1,0,80,0,0
39809,-90.9090909090909,4,1,0,80,0,0
41081,-100,4,1,0,80,0,0
42521,-90.9090909090909,4,1,0,80,0,0
43651,-80,4,1,0,80,0,0
45212,-97.5609756097561,4,1,0,80,0,0
45382,-98.5394325560325,4,1,0,80,0,0
45551,-99.5114431540925,4,1,0,80,0,0
45890,-94.2329597189113,4,1,0,80,0,0
45947,-93.5584563626879,4,1,0,81,0,0
46060,-92.2204915462716,4,1,0,82,0,0
46144,-91.2254977141553,4,1,0,83,0,0
46229,-90.2185825089155,4,1,0,84,0,0
46399,-88.2055071738843,4,1,0,90,0,0
46568,-86.2068965517241,4,1,0,90,0,0
46589,338.983050847458,4,1,0,90,1,0
46589,-86.2068965517242,4,1,0,90,0,1
46758,-100,4,1,0,90,0,1
57415,-90.9090909090909,4,1,0,90,0,1
57436,-90.9090909090909,4,1,0,90,0,0
57754,-92.6480242489229,4,1,0,90,0,0
57895,-93.3689748202953,4,1,0,90,0,0
58008,-93.9456649118972,4,1,0,90,0,0
58178,-94.8112917268631,4,1,0,90,0,0
58262,-95.2380952380952,4,1,0,90,0,0
58792,-90.9090909090909,4,1,0,90,0,1
58961,-100,4,1,0,90,0,1
66906,-100,4,1,0,90,0,1
67076,-98.8571786406748,4,1,0,90,0,1
67161,-98.285861243055,4,1,0,90,0,1
67245,-97.7213750270135,4,1,0,90,0,1
67415,-96.5794444013305,4,1,0,90,0,1
67584,-95.4451150103322,4,1,0,90,0,1
67669,-94.8750195996039,4,1,0,90,0,1
67754,-94.3052580033132,4,1,0,90,0,1
67923,-93.173575098207,4,1,0,90,0,1
68262,-90.9090909090909,4,1,0,90,0,1
68283,-90.9090909090909,4,1,0,90,0,0
68368,-111.111111111111,4,1,0,70,0,0
72500,-111.111111111111,4,1,0,70,0,0
72669,-110.273404272852,4,1,0,70,0,0
72839,-109.432091928022,4,1,0,71,0,0
72923,-109.016907946868,4,1,0,71,0,0
73178,-107.758759535669,4,1,0,73,0,0
73347,-106.926869051555,4,1,0,75,0,0
73517,-106.091702710919,4,1,0,77,0,0
73686,-105.263157894737,4,1,0,80,0,0
76419,-96.1538461538462,4,1,0,80,0,0
79131,-105.263157894737,4,1,0,80,0,0
89279,-90.9090909090909,4,1,0,80,0,0
89336,-91.6836084119144,4,1,0,80,0,0
89449,-93.2146280277635,4,1,0,80,0,0
89534,-94.361895691474,4,1,0,80,0,0
89618,-95.4915028125263,4,1,0,80,0,0
89788,-97.7632825939603,4,1,0,80,0,0
89957,-100,4,1,0,80,0,0
95656,-90.9090909090909,4,1,0,80,0,0
96080,-100,4,1,0,80,0,0
97012,-90.9090909090909,4,1,0,80,0,0
97436,-100,4,1,0,80,0,0
100741,-90.9090909090909,4,1,0,80,0,0
102097,-100,4,1,0,80,0,0
103453,-90.9090909090909,4,1,0,80,0,0
104809,-100,4,1,0,80,0,0
106165,-90.9090909090909,4,1,0,80,0,0
107521,-100,4,1,0,80,0,0
108877,-90.9090909090909,4,1,0,80,0,0
110091,-80,4,1,0,80,0,0
111652,-80,4,1,0,80,0,0
111758,-81.3008130081301,4,1,0,80,0,0
111927,-82.6446280991736,4,1,0,80,0,0
112097,-84.0336134453781,4,1,0,80,0,0
112266,-85.4700854700855,4,1,0,80,0,0
112436,-86.2068965517241,4,1,0,80,0,0
112521,-86.9565217391304,4,1,0,80,0,0
112669,-87.719298245614,4,1,0,80,0,0
112754,-88.4955752212389,4,1,0,80,0,0
112839,-89.2857142857143,4,1,0,80,0,0
113008,-90.9090909090909,4,1,0,80,0,0
113030,338.983050847458,4,1,0,90,1,9
113030,-90.9090909090909,4,1,0,90,0,9
113199,-95.2380952380952,4,1,0,90,0,1
123856,-90.9090909090909,4,1,0,90,0,1
123877,-90.9090909090909,4,1,0,90,0,8
124364,-94.3484222368709,4,1,0,90,0,0
124449,-94.9205183170115,4,1,0,90,0,0
124534,-95.4915028125263,4,1,0,90,0,0
124703,-96.6232454797381,4,1,0,90,0,0
124873,-97.7566314183346,4,1,0,90,0,0
125233,-90.9090909090909,4,1,0,90,0,1
125402,-95.2380952380952,4,1,0,90,0,1
134724,-90.9090909090909,4,1,0,90,0,0
134809,-100,4,1,0,80,0,0
155042,-100,4,1,0,80,0,0
155127,-99.4285706619794,4,1,0,80,0,0
155212,-98.8571786406748,4,1,0,80,0,0
155297,-98.285861243055,4,1,0,80,0,0
155381,-97.7213750270135,4,1,0,80,0,0
155551,-96.5794444013305,4,1,0,80,0,0
155720,-95.4451150103322,4,1,0,80,0,0
155805,-94.8750195996039,4,1,0,80,0,0
155890,-94.3052580033132,4,1,0,80,0,0
155975,-93.7358671034946,4,1,0,80,0,0
156059,-93.173575098207,4,1,0,80,0,0
156229,-92.0369660076276,4,1,0,80,0,0
156398,-90.9090909090909,4,1,0,80,0,0
156419,-90.9090909090909,4,1,0,85,0,0
156504,-95.2380952380952,4,1,0,85,0,0
161843,-86.2068965517242,4,1,0,90,0,1
162161,-86.2068965517241,4,1,0,90,0,1
162331,-88.0510080610422,4,1,0,90,0,1
162387,-88.6553325743986,4,1,0,90,0,1
162585,-90.7780368593548,4,1,0,90,0,1
162670,-91.6820349136351,4,1,0,90,0,1
162839,-93.4651399728774,4,1,0,90,0,1
163009,-86.2068965517242,4,1,0,90,0,1
163142,-86.2068965517242,4,1,0,90,0,1
163347,-86.9103323563804,4,1,0,90,0,1
163517,-88.3278319456903,4,1,0,90,0,1
163686,-89.7280808515083,4,1,0,90,0,1
163771,-90.4286961990966,4,1,0,90,0,1
163941,-91.8220205463295,4,1,0,90,0,1
164025,-92.5063748464779,4,1,0,90,0,1
164195,-93.8825121556427,4,1,0,90,0,1
164364,-86.2068965517242,4,1,0,90,0,1
164534,-86.2068965517241,4,1,0,90,0,1
164703,-87.519128239856,4,1,0,90,0,1
164873,-88.8318667609893,4,1,0,90,0,1
165042,-90.1289126344845,4,1,0,90,0,1
165127,-90.7780368593548,4,1,0,90,0,1
165297,-92.069332256972,4,1,0,90,0,1
165381,-92.703786804004,4,1,0,90,0,1
165551,-93.9800891364041,4,1,0,90,0,1
165720,-95.2380952380952,4,1,0,90,0,1
165890,-94.2329597189113,4,1,0,90,0,1
166059,-93.2329290490888,4,1,0,90,0,1
166137,-93.0232558139535,4,1,0,90,0,1
166229,-92.226413424392,4,1,0,90,0,1
166314,-91.7230190075925,4,1,0,90,0,1
166398,-91.2254977141553,4,1,0,90,0,1
166568,-90.2185825089155,4,1,0,90,0,1
166737,-89.217757765948,4,1,0,90,0,1
166822,-88.7145241461626,4,1,0,90,0,1
166907,-88.2114250629922,4,1,0,90,0,1
166992,-87.7084913093485,4,1,0,90,0,1
167076,-87.2116669402795,4,1,0,90,0,1
167246,-86.2068965517241,4,1,0,90,0,1
167267,-86.2068965517241,4,1,0,90,0,0
167352,-95.2380952380952,4,1,0,85,0,0
180741,-86.2068965517242,4,1,0,90,0,0
180826,-86.2068965517242,4,1,0,90,0,1
181822,-86.2068965517241,4,1,0,90,0,1
181992,-87.6401719979776,4,1,0,90,0,1
182161,-89.056426394712,4,1,0,90,0,1
182331,-90.4714478207797,4,1,0,90,0,1
182387,-90.9352995192609,4,1,0,90,0,1
182500,-91.867651320389,4,1,0,90,0,1
182585,-92.5656422105628,4,1,0,90,0,1
182670,-93.260644597094,4,1,0,90,0,1
182839,-94.633162819525,4,1,0,90,0,1
182896,-95.0931729664727,4,1,0,90,0,1
183009,-96.0005990260567,4,1,0,90,0,1
183178,-97.3460579572088,4,1,0,90,0,1
183517,-86.2068965517242,4,1,0,90,0,1
183538,-86.2068965517242,4,1,0,90,0,0
183623,-111.111111111111,4,1,0,70,0,0
193686,-111.111111111111,4,1,0,70,0,0
193820,-109.89010989011,4,1,0,70,0,0
194025,-108.177760073979,4,1,0,72,0,0
194364,-105.263157894737,4,1,0,80,0,0
205212,-95.9475694339021,4,1,0,80,0,0
205381,-94.9390039816609,4,1,0,80,0,0
205551,-93.9255114653684,4,1,0,80,0,0
205720,-92.9192202301011,4,1,0,80,0,0
205890,-91.9084270055419,4,1,0,80,0,0
206059,-90.9052261918044,4,1,0,80,0,0
206229,-89.8979485566356,4,1,0,80,0,0
206398,-88.8986443029823,4,1,0,80,0,0
206568,-87.8956871322233,4,1,0,80,0,0
206653,-87.3951206905438,4,1,0,80,0,0
206737,-86.9010729518191,4,1,0,80,0,0
206907,-85.903227164705,4,1,0,80,0,0
207076,-84.9140814723575,4,1,0,80,0,0
207246,-83.9221215943196,4,1,0,80,0,0
207415,-82.9392053359505,4,1,0,80,0,0
207585,-81.953887171261,4,1,0,80,0,0
207670,-81.4625699118054,4,1,0,80,0,0
207754,-80.9779415706498,4,1,0,80,0,0
207839,-80.488485817569,4,1,0,80,0,0
207924,-80,4,1,0,80,0,0
208453,-97.0873786407767,4,1,0,80,0,0
208679,-98.0392156862745,4,1,0,80,0,0
208750,-99.009900990099,4,1,0,80,0,0
208835,-100,4,1,0,80,0,0
208919,-101.010101010101,4,1,0,80,0,0
209046,-103.092783505155,4,1,0,80,0,0
209301,338.983050847458,4,1,0,80,1,0
209301,-105.263157894737,4,1,0,80,0,0
209724,-90.9090909090909,4,1,0,90,0,0
214724,-90.9090909090909,4,1,0,90,0,1
214894,-100,4,1,0,90,0,1
220148,-90.9090909090909,4,1,0,90,0,0
220466,-93.207867695175,4,1,0,90,0,0
220607,-94.1597326410013,4,1,0,90,0,0
220720,-94.9205183170115,4,1,0,90,0,0
220890,-96.0613232695612,4,1,0,90,0,0
220974,-96.6232454797381,4,1,0,90,0,0
221144,-97.7566314183346,4,1,0,90,0,0
221313,-98.8779251894466,4,1,0,90,0,0
221504,-90.9090909090909,4,1,0,90,0,1
221673,-100,4,1,0,90,0,1
229618,-100,4,1,0,90,0,1
229788,-98.8571786406748,4,1,0,90,0,1
229873,-98.285861243055,4,1,0,90,0,1
229957,-97.7213750270135,4,1,0,90,0,1
230127,-96.5794444013305,4,1,0,90,0,1
230296,-95.4451150103322,4,1,0,90,0,1
230381,-94.8750195996039,4,1,0,90,0,1
230466,-94.3052580033132,4,1,0,90,0,1
230635,-93.173575098207,4,1,0,90,0,1
230974,-90.9090909090909,4,1,0,90,0,1
230995,-90.9090909090909,4,1,0,90,0,0
231080,-100,4,1,0,80,0,0
251313,-100,4,1,0,80,0,0
251483,-98.8571786406748,4,1,0,80,0,0
251568,-98.285861243055,4,1,0,80,0,0
251652,-97.7213750270135,4,1,0,80,0,0
251822,-96.5794444013305,4,1,0,80,0,0
251991,-95.4451150103322,4,1,0,80,0,0
252076,-94.8750195996039,4,1,0,80,0,0
252161,-94.3052580033132,4,1,0,80,0,0
252246,-93.7358671034946,4,1,0,80,0,0
252330,-93.173575098207,4,1,0,80,0,0
252500,-92.0369660076276,4,1,0,80,0,0
252669,-90.9090909090909,4,1,0,80,0,0
252860,-111.111111111111,4,1,0,70,0,0
256907,-111.111111111111,4,1,0,70,0,0
257076,-110.273404272852,4,1,0,70,0,0
257246,-109.432091928022,4,1,0,71,0,0
257330,-109.016907946868,4,1,0,71,0,0
257585,-107.758759535669,4,1,0,73,0,0
257754,-106.926869051555,4,1,0,75,0,0
257924,-106.091702710919,4,1,0,77,0,0
258093,-105.263157894737,4,1,0,80,0,0
260826,-90.9090909090909,4,1,0,80,0,0

[HitObjects]
256,192,1504,5,8,0:0:0:0:
256,192,1843,1,0,0:0:0:0:
256,192,2352,1,8,0:0:0:0:
256,192,2860,1,0,0:0:0:0:
256,192,3708,1,8,0:0:0:0:
256,192,4047,1,0,0:0:0:0:
256,192,4555,1,0,0:0:0:0:
256,192,4894,1,8,0:0:0:0:
256,192,5064,1,0,0:0:0:0:
256,192,5403,1,8,0:0:0:0:
256,192,5572,1,0,0:0:0:0:
256,192,5742,1,8,0:0:0:0:
256,192,6081,1,0,0:0:0:0:
256,192,6250,1,8,0:0:0:0:
256,192,6420,1,0,0:0:0:0:
256,192,6504,1,8,0:0:0:0:
256,192,6758,1,0,0:0:0:0:
256,192,6928,1,8,0:0:0:0:
256,192,7097,1,0,0:0:0:0:
256,192,7267,1,12,0:0:0:0:
256,192,7436,1,0,0:0:0:0:
256,192,7521,1,0,0:0:0:0:
256,192,7606,1,8,0:0:0:0:
256,192,7775,1,0,0:0:0:0:
256,192,7945,1,8,0:0:0:0:
256,192,8114,1,8,0:0:0:0:
256,192,8284,1,0,0:0:0:0:
256,192,8453,1,8,0:0:0:0:
256,192,8792,1,0,0:0:0:0:
256,192,8962,1,8,0:0:0:0:
256,192,9131,1,8,0:0:0:0:
256,192,9301,1,0,0:0:0:0:
256,192,9470,1,8,0:0:0:0:
256,192,9640,1,0,0:0:0:0:
256,192,9809,1,8,0:0:0:0:
256,192,9979,1,4,0:0:0:0:
256,192,10233,1,8,0:0:0:0:
256,192,10318,1,8,0:0:0:0:
256,192,10487,1,4,0:0:0:0:
256,192,10742,1,8,0:0:0:0:
256,192,10826,1,0,0:0:0:0:
256,192,10996,1,12,0:0:0:0:
256,192,11250,1,0,0:0:0:0:
256,192,11335,1,0,0:0:0:0:
256,192,11504,1,12,0:0:0:0:
256,192,11758,1,0,0:0:0:0:
256,192,11843,1,0,0:0:0:0:
256,192,11928,1,8,0:0:0:0:
256,192,12013,1,8,0:0:0:0:
256,192,12182,1,0,0:0:0:0:
256,192,12352,1,8,0:0:0:0:
256,192,12521,1,4,0:0:0:0:
256,192,12860,1,0,0:0:0:0:
256,192,13030,1,8,0:0:0:0:
256,192,13369,1,8,0:0:0:0:
256,192,13708,1,0,0:0:0:0:
256,192,13877,1,0,0:0:0:0:
256,192,14216,1,0,0:0:0:0:
256,192,14386,1,0,0:0:0:0:
256,192,14555,1,0,0:0:0:0:
256,192,14725,1,8,0:0:0:0:
256,192,14894,1,0,0:0:0:0:
256,192,15233,1,8,0:0:0:0:
256,192,15572,1,0,0:0:0:0:
256,192,15742,1,0,0:0:0:0:
256,192,15911,1,0,0:0:0:0:
256,192,16081,1,8,0:0:0:0:
256,192,16420,1,0,0:0:0:0:
256,192,16589,1,8,0:0:0:0:
256,192,16928,1,0,0:0:0:0:
256,192,17267,1,0,0:0:0:0:
256,192,17436,1,8,0:0:0:0:
256,192,17775,1,8,0:0:0:0:
256,192,17945,1,0,0:0:0:0:
256,192,18284,1,8,0:0:0:0:
256,192,18453,1,8,0:0:0:0:
256,192,18623,1,0,0:0:0:0:
256,192,18792,1,8,0:0:0:0:
256,192,19131,1,0,0:0:0:0:
256,192,19301,1,8,0:0:0:0:
256,192,19640,1,8,0:0:0:0:
256,192,19809,1,0,0:0:0:0:
256,192,19979,1,0,0:0:0:0:
256,192,20148,1,8,0:0:0:0:
256,192,20318,1,0,0:0:0:0:
256,192,20657,1,8,0:0:0:0:
256,192,20996,1,0,0:0:0:0:
256,192,21165,1,0,0:0:0:0:
256,192,21504,1,8,0:0:0:0:
256,192,21843,1,0,0:0:0:0:
256,192,22013,1,8,0:0:0:0:
256,192,22352,1,8,0:0:0:0:
256,192,22521,1,0,0:0:0:0:
256,192,22691,1,0,0:0:0:0:
256,192,22860,1,8,0:0:0:0:
256,192,23030,1,8,0:0:0:0:
256,192,23114,1,8,0:0:0:0:
256,192,23199,1,8,0:0:0:0:
256,192,23369,1,4,0:0:0:0:
256,192,23623,1,8,0:0:0:0:
256,192,23708,1,0,0:0:0:0:
256,192,23877,1,12,0:0:0:0:
256,192,24047,1,0,0:0:0:0:
256,192,24386,1,0,0:0:0:0:
256,192,24555,1,8,0:0:0:0:
256,192,24725,1,8,0:0:0:0:
256,192,24894,1,0,0:0:0:0:
256,192,25064,1,0,0:0:0:0:
256,192,25148,1,0,0:0:0:0:
256,192,25233,1,8,0:0:0:0:
256,192,25403,1,0,0:0:0:0:
256,192,25742,1,0,0:0:0:0:
256,192,25911,1,8,0:0:0:0:
256,192,26081,1,8,0:0:0:0:
256,192,26420,1,8,0:0:0:0:
256,192,26589,1,8,0:0:0:0:
256,192,26758,1,0,0:0:0:0:
256,192,26928,1,8,0:0:0:0:
256,192,27097,1,0,0:0:0:0:
256,192,27182,1,0,0:0:0:0:
256,192,27267,1,8,0:0:0:0:
256,192,27436,1,8,0:0:0:0:
256,192,27775,1,0,0:0:0:0:
256,192,27945,1,8,0:0:0:0:
256,192,28114,1,8,0:0:0:0:
256,192,28199,1,8,0:0:0:0:
256,192,28284,1,0,0:0:0:0:
256,192,28453,1,0,0:0:0:0:
256,192,28623,1,8,0:0:0:0:
256,192,28792,1,0,0:0:0:0:
256,192,29301,1,0,0:0:0:0:
256,192,29470,1,12,0:0:0:0:
250,198,29640,1,0,0:0:0:0:
250,198,29725,1,0,0:0:0:0:
249,198,29809,1,8,0:0:0:0:
256,192,29979,1,8,0:0:0:0:
256,192,30148,1,0,0:0:0:0:
256,192,30657,1,0,0:0:0:0:
256,192,30826,1,12,0:0:0:0:
249,198,30996,1,0,0:0:0:0:
249,198,31081,1,0,0:0:0:0:
256,192,31165,1,8,0:0:0:0:
256,192,31335,1,8,0:0:0:0:
256,192,31504,1,4,0:0:0:0:
256,192,31843,1,0,0:0:0:0:
256,192,32013,1,8,0:0:0:0:
256,192,32267,1,0,0:0:0:0:
256,192,32352,1,8,0:0:0:0:
256,192,32521,1,0,0:0:0:0:
256,192,32691,1,8,0:0:0:0:
256,192,32860,1,4,0:0:0:0:
256,192,33030,8,0,34216,0:0:0:0:
256,192,34386,5,4,0:0:0:0:
256,192,34640,1,8,0:0:0:0:
256,192,34725,1,8,0:0:0:0:
256,192,34894,1,4,0:0:0:0:
256,192,35148,1,8,0:0:0:0:
256,192,35233,1,0,0:0:0:0:
256,192,35403,1,12,0:0:0:0:
256,192,35911,1,0,0:0:0:0:
256,192,36081,1,0,0:0:0:0:
256,192,36250,1,0,0:0:0:0:
256,192,36420,1,8,0:0:0:0:
256,192,36504,1,8,0:0:0:0:
256,192,36589,1,0,0:0:0:0:
256,192,36674,1,0,0:0:0:0:
256,192,36758,1,8,0:0:0:0:
256,192,36928,1,8,0:0:0:0:
256,192,37097,1,4,0:0:0:0:
256,192,37352,1,8,0:0:0:0:
256,192,37436,1,0,0:0:0:0:
256,192,37606,1,12,0:0:0:0:
256,192,37860,1,0,0:0:0:0:
256,192,37945,1,0,0:0:0:0:
256,192,38114,1,12,0:0:0:0:
256,192,38623,1,8,0:0:0:0:
256,192,38792,1,0,0:0:0:0:
256,192,38962,1,0,0:0:0:0:
256,192,39131,1,8,0:0:0:0:
256,192,39244,1,8,0:0:0:0:
256,192,39357,1,8,0:0:0:0:
256,192,39470,1,0,0:0:0:0:
256,192,39809,1,12,0:0:0:0:
256,192,40064,1,0,0:0:0:0:
256,192,40148,1,8,0:0:0:0:
256,192,40318,1,4,0:0:0:0:
256,192,40572,1,8,0:0:0:0:
256,192,40657,1,0,0:0:0:0:
256,192,40826,1,12,0:0:0:0:
256,192,41335,1,0,0:0:0:0:
256,192,41504,1,8,0:0:0:0:
256,192,41674,1,8,0:0:0:0:
256,192,41843,1,0,0:0:0:0:
256,192,41928,1,0,0:0:0:0:
256,192,42013,1,8,0:0:0:0:
256,192,42097,1,8,0:0:0:0:
256,192,42182,1,0,0:0:0:0:
256,192,42352,1,0,0:0:0:0:
256,192,42521,1,12,0:0:0:0:
256,192,42691,1,0,0:0:0:0:
256,192,42775,1,0,0:0:0:0:
256,192,42860,1,0,0:0:0:0:
256,192,43030,1,12,0:0:0:0:
256,192,43199,1,0,0:0:0:0:
256,192,43284,1,0,0:0:0:0:
256,192,43369,1,0,0:0:0:0:
256,192,43538,1,12,0:0:0:0:
256,192,43708,2,4,L|303:190,14,43.75
256,192,45233,1,0,0:0:0:0:
256,192,45403,1,8,0:0:0:0:
256,192,45572,1,0,0:0:0:0:
256,192,45657,1,0,0:0:0:0:
256,192,45742,1,0,0:0:0:0:
256,192,45911,1,8,0:0:0:0:
256,192,45996,1,8,0:0:0:0:
256,192,46081,1,0,0:0:0:0:
256,192,46250,1,8,0:0:0:0:
256,192,46420,1,8,0:0:0:0:
256,192,46589,1,4,0:0:0:0:
256,192,46927,1,8,0:0:0:0:
256,192,47097,1,0,0:0:0:0:
256,192,47182,1,0,0:0:0:0:
256,192,47266,1,8,0:0:0:0:
256,192,47436,1,0,0:0:0:0:
256,192,47605,1,8,0:0:0:0:
256,192,47775,1,8,0:0:0:0:
256,192,47860,1,8,0:0:0:0:
256,192,47944,1,0,0:0:0:0:
256,192,48114,1,8,0:0:0:0:
256,192,48199,1,8,0:0:0:0:
256,192,48283,1,0,0:0:0:0:
256,192,48453,1,0,0:0:0:0:
256,192,48622,1,8,0:0:0:0:
256,192,48792,1,8,0:0:0:0:
256,192,48961,1,0,0:0:0:0:
256,192,49131,1,8,0:0:0:0:
256,192,49300,1,0,0:0:0:0:
256,192,49470,1,8,0:0:0:0:
256,192,49639,1,8,0:0:0:0:
256,192,49809,1,0,0:0:0:0:
256,192,49894,1,0,0:0:0:0:
256,192,49978,1,8,0:0:0:0:
256,192,50148,1,0,0:0:0:0:
256,192,50317,1,8,0:0:0:0:
256,192,50487,1,8,0:0:0:0:
256,192,50572,1,8,0:0:0:0:
256,192,50656,1,0,0:0:0:0:
256,192,50826,1,8,0:0:0:0:
256,192,50911,1,8,0:0:0:0:
256,192,50995,1,0,0:0:0:0:
256,192,51080,1,0,0:0:0:0:
256,192,51165,1,8,0:0:0:0:
256,192,51334,1,0,0:0:0:0:
256,192,51504,1,0,0:0:0:0:
256,192,51673,1,8,0:0:0:0:
256,192,51843,1,0,0:0:0:0:
256,192,52012,1,8,0:0:0:0:
256,192,52351,1,8,0:0:0:0:
256,192,52521,1,0,0:0:0:0:
256,192,52605,1,0,0:0:0:0:
256,192,52690,1,8,0:0:0:0:
256,192,52860,1,0,0:0:0:0:
256,192,53029,1,8,0:0:0:0:
256,192,53199,1,0,0:0:0:0:
256,192,53283,1,0,0:0:0:0:
256,192,53368,1,8,0:0:0:0:
256,192,53538,1,0,0:0:0:0:
256,192,53622,1,0,0:0:0:0:
256,192,53707,1,8,0:0:0:0:
256,192,53877,1,0,0:0:0:0:
256,192,54046,1,8,0:0:0:0:
256,192,54216,1,0,0:0:0:0:
256,192,54385,1,8,0:0:0:0:
256,192,54555,1,8,0:0:0:0:
256,192,54724,1,0,0:0:0:0:
256,192,54894,1,8,0:0:0:0:
256,192,54978,1,8,0:0:0:0:
256,192,55063,1,8,0:0:0:0:
256,192,55233,1,0,0:0:0:0:
256,192,55402,1,8,0:0:0:0:
256,192,55572,1,0,0:0:0:0:
256,192,55656,1,0,0:0:0:0:
256,192,55741,1,8,0:0:0:0:
256,192,55911,1,8,0:0:0:0:
256,192,56080,1,0,0:0:0:0:
256,192,56250,1,8,0:0:0:0:
256,192,56334,1,8,0:0:0:0:
256,192,56419,1,0,0:0:0:0:
256,192,56504,1,0,0:0:0:0:
256,192,56589,1,8,0:0:0:0:
256,192,56758,1,0,0:0:0:0:
256,192,56927,1,0,0:0:0:0:
256,192,57097,1,8,0:0:0:0:
256,192,57266,1,0,0:0:0:0:
256,192,57436,1,12,0:0:0:0:
256,192,57775,1,8,0:0:0:0:
256,192,57944,1,0,0:0:0:0:
256,192,58029,1,8,0:0:0:0:
256,192,58199,1,8,0:0:0:0:
256,192,58283,1,0,0:0:0:0:
256,192,58453,1,8,0:0:0:0:
256,192,58622,1,8,0:0:0:0:
256,192,58792,1,4,0:0:0:0:
256,192,59131,1,8,0:0:0:0:
256,192,59216,1,8,0:0:0:0:
256,192,59300,1,0,0:0:0:0:
256,192,59470,1,8,0:0:0:0:
256,192,59639,1,0,0:0:0:0:
256,192,59809,1,8,0:0:0:0:
256,192,59978,1,8,0:0:0:0:
256,192,60148,1,0,0:0:0:0:
256,192,60317,1,8,0:0:0:0:
256,192,60402,1,8,0:0:0:0:
256,192,60487,1,8,0:0:0:0:
256,192,60656,1,0,0:0:0:0:
256,192,60826,1,8,0:0:0:0:
256,192,60995,1,0,0:0:0:0:
256,192,61080,1,0,0:0:0:0:
256,192,61165,1,8,0:0:0:0:
256,192,61334,1,8,0:0:0:0:
256,192,61504,1,0,0:0:0:0:
256,192,61673,1,8,0:0:0:0:
256,192,61758,1,8,0:0:0:0:
256,192,61843,1,0,0:0:0:0:
256,192,61927,1,0,0:0:0:0:
256,192,62012,1,8,0:0:0:0:
256,192,62182,1,0,0:0:0:0:
256,192,62351,1,0,0:0:0:0:
256,192,62521,1,8,0:0:0:0:
256,192,62690,1,0,0:0:0:0:
256,192,62860,1,8,0:0:0:0:
256,192,63199,1,8,0:0:0:0:
256,192,63368,1,0,0:0:0:0:
256,192,63453,1,0,0:0:0:0:
256,192,63538,1,8,0:0:0:0:
256,192,63707,1,0,0:0:0:0:
256,192,63877,1,8,0:0:0:0:
256,192,64046,1,8,0:0:0:0:
256,192,64131,1,8,0:0:0:0:
256,192,64216,1,0,0:0:0:0:
256,192,64385,1,8,0:0:0:0:
256,192,64470,1,8,0:0:0:0:
256,192,64555,1,0,0:0:0:0:
256,192,64639,1,0,0:0:0:0:
256,192,64724,1,8,0:0:0:0:
256,192,64894,1,0,0:0:0:0:
256,192,65063,1,0,0:0:0:0:
256,192,65233,1,8,0:0:0:0:
256,192,65402,1,8,0:0:0:0:
256,192,65572,1,0,0:0:0:0:
256,192,65741,1,8,0:0:0:0:
256,192,65911,1,0,0:0:0:0:
256,192,65995,1,8,0:0:0:0:
256,192,66165,1,8,0:0:0:0:
256,192,66250,1,0,0:0:0:0:
256,192,66419,1,0,0:0:0:0:
256,192,66589,1,8,0:0:0:0:
256,192,66758,1,8,0:0:0:0:
256,192,66927,1,4,0:0:0:0:
256,192,67097,1,8,0:0:0:0:
256,192,67182,1,8,0:0:0:0:
256,192,67266,1,0,0:0:0:0:
256,192,67436,1,8,0:0:0:0:
256,192,67605,1,0,0:0:0:0:
256,192,67690,1,0,0:0:0:0:
256,192,67775,1,0,0:0:0:0:
256,192,67944,1,8,0:0:0:0:
256,192,68283,1,4,0:0:0:0:
256,192,68792,1,8,0:0:0:0:
256,192,69300,1,0,0:0:0:0:
256,192,70148,1,0,0:0:0:0:
256,192,70487,1,8,0:0:0:0:
256,192,70995,1,0,0:0:0:0:
256,192,71334,1,8,0:0:0:0:
256,192,71504,1,0,0:0:0:0:
256,192,71843,1,8,0:0:0:0:
256,192,72012,1,0,0:0:0:0:
256,192,72182,1,8,0:0:0:0:
256,192,72521,1,0,0:0:0:0:
256,192,72690,1,8,0:0:0:0:
256,192,72860,1,0,0:0:0:0:
256,192,72944,1,8,0:0:0:0:
256,192,73199,1,0,0:0:0:0:
256,192,73368,1,8,0:0:0:0:
256,192,73538,1,0,0:0:0:0:
256,192,73707,1,12,0:0:0:0:
256,192,73877,1,0,0:0:0:0:
256,192,73961,1,0,0:0:0:0:
256,192,74046,1,8,0:0:0:0:
256,192,74216,1,0,0:0:0:0:
256,192,74385,1,8,0:0:0:0:
256,192,74555,1,8,0:0:0:0:
256,192,74724,1,0,0:0:0:0:
256,192,74894,1,8,0:0:0:0:
256,192,75233,1,0,0:0:0:0:
256,192,75402,1,8,0:0:0:0:
256,192,75572,1,8,0:0:0:0:
256,192,75741,1,0,0:0:0:0:
256,192,75911,1,8,0:0:0:0:
256,192,76080,1,0,0:0:0:0:
256,192,76250,1,8,0:0:0:0:
256,192,76419,1,4,0:0:0:0:
256,192,76673,1,8,0:0:0:0:
256,192,76758,1,8,0:0:0:0:
256,192,76927,1,4,0:0:0:0:
256,192,77182,1,8,0:0:0:0:
256,192,77266,1,0,0:0:0:0:
256,192,77436,1,12,0:0:0:0:
256,192,77690,1,0,0:0:0:0:
256,192,77775,1,0,0:0:0:0:
256,192,77944,1,12,0:0:0:0:
256,192,78199,1,0,0:0:0:0:
256,192,78283,1,0,0:0:0:0:
256,192,78368,1,8,0:0:0:0:
256,192,78453,1,8,0:0:0:0:
256,192,78622,1,0,0:0:0:0:
256,192,78792,1,8,0:0:0:0:
256,192,78961,1,4,0:0:0:0:
256,192,79300,1,0,0:0:0:0:
256,192,79470,1,8,0:0:0:0:
256,192,79639,1,0,0:0:0:0:
256,192,79809,1,8,0:0:0:0:
256,192,79978,1,8,0:0:0:0:
256,192,80148,1,0,0:0:0:0:
256,192,80317,1,8,0:0:0:0:
256,192,80656,1,0,0:0:0:0:
256,192,80826,1,8,0:0:0:0:
256,192,80995,1,8,0:0:0:0:
256,192,81165,1,0,0:0:0:0:
256,192,81334,1,0,0:0:0:0:
256,192,81504,1,8,0:0:0:0:
256,192,81673,1,8,0:0:0:0:
256,192,82012,1,0,0:0:0:0:
256,192,82182,1,8,0:0:0:0:
256,192,82351,1,0,0:0:0:0:
256,192,82521,1,8,0:0:0:0:
256,192,82690,1,8,0:0:0:0:
256,192,82860,1,8,0:0:0:0:
256,192,83029,1,0,0:0:0:0:
256,192,83538,1,8,0:0:0:0:
256,192,83707,1,0,0:0:0:0:
256,192,83877,1,0,0:0:0:0:
256,192,84216,1,8,0:0:0:0:
256,192,84385,1,0,0:0:0:0:
256,192,84724,1,0,0:0:0:0:
256,192,84894,1,8,0:0:0:0:
256,192,85063,1,0,0:0:0:0:
256,192,85233,1,8,0:0:0:0:
256,192,85402,1,8,0:0:0:0:
256,192,85572,1,0,0:0:0:0:
256,192,85741,1,8,0:0:0:0:
256,192,86080,1,0,0:0:0:0:
256,192,86250,1,8,0:0:0:0:
256,192,86419,1,0,0:0:0:0:
256,192,86589,1,0,0:0:0:0:
256,192,86758,1,8,0:0:0:0:
256,192,86927,1,8,0:0:0:0:
256,192,87097,1,0,0:0:0:0:
256,192,87436,1,0,0:0:0:0:
256,192,87605,1,8,0:0:0:0:
256,192,87944,1,0,0:0:0:0:
256,192,88114,1,0,0:0:0:0:
256,192,88283,1,8,0:0:0:0:
256,192,88453,1,0,0:0:0:0:
256,192,88792,1,0,0:0:0:0:
256,192,88961,1,8,0:0:0:0:
256,192,89300,1,8,0:0:0:0:
256,192,89385,1,8,0:0:0:0:
256,192,89470,1,0,0:0:0:0:
256,192,89555,1,0,0:0:0:0:
256,192,89639,1,8,0:0:0:0:
256,192,89809,1,4,0:0:0:0:
256,192,90063,1,8,0:0:0:0:
256,192,90148,1,0,0:0:0:0:
256,192,90317,1,12,0:0:0:0:
256,192,90487,1,0,0:0:0:0:
256,192,90656,1,8,0:0:0:0:
256,192,90826,1,8,0:0:0:0:
256,192,90911,1,8,0:0:0:0:
256,192,90995,1,0,0:0:0:0:
256,192,91165,1,8,0:0:0:0:
256,192,91504,1,0,0:0:0:0:
256,192,91673,1,8,0:0:0:0:
256,192,91843,1,8,0:0:0:0:
256,192,92012,1,0,0:0:0:0:
256,192,92097,1,0,0:0:0:0:
256,192,92182,1,8,0:0:0:0:
256,192,92351,1,0,0:0:0:0:
256,192,92521,1,8,0:0:0:0:
256,192,92860,1,8,0:0:0:0:
256,192,93029,1,8,0:0:0:0:
256,192,93199,1,0,0:0:0:0:
256,192,93283,1,0,0:0:0:0:
256,192,93368,1,8,0:0:0:0:
256,192,93538,1,0,0:0:0:0:
256,192,93707,1,8,0:0:0:0:
256,192,93877,1,8,0:0:0:0:
256,192,94216,1,0,0:0:0:0:
256,192,94385,1,8,0:0:0:0:
256,192,94555,1,8,0:0:0:0:
256,192,94639,1,8,0:0:0:0:
256,192,94724,1,0,0:0:0:0:
256,192,94894,1,0,0:0:0:0:
256,192,95063,1,8,0:0:0:0:
256,192,95233,1,0,0:0:0:0:
256,192,95741,1,0,0:0:0:0:
256,192,95911,1,12,0:0:0:0:
256,192,96080,1,0,0:0:0:0:
256,192,96165,1,0,0:0:0:0:
256,192,96250,1,8,0:0:0:0:
256,192,96419,1,8,0:0:0:0:
256,192,96589,1,0,0:0:0:0:
256,192,97097,1,0,0:0:0:0:
256,192,97266,1,12,0:0:0:0:
256,192,97436,1,0,0:0:0:0:
256,192,97521,1,0,0:0:0:0:
256,192,97605,1,8,0:0:0:0:
256,192,97775,1,8,0:0:0:0:
256,192,97944,1,4,0:0:0:0:
256,192,98283,1,0,0:0:0:0:
256,192,98453,1,8,0:0:0:0:
256,192,98622,1,0,0:0:0:0:
262,194,98707,1,0,0:0:0:0:
256,192,98792,1,0,0:0:0:0:
256,192,98961,1,0,0:0:0:0:
256,192,99131,1,8,0:0:0:0:
256,192,99300,1,4,0:0:0:0:
256,192,99470,8,0,100656,0:0:0:0:
256,192,100826,5,4,0:0:0:0:
256,192,101080,1,8,0:0:0:0:
256,192,101165,1,8,0:0:0:0:
256,192,101334,1,4,0:0:0:0:
256,192,101589,1,8,0:0:0:0:
256,192,101673,1,0,0:0:0:0:
256,192,101843,1,12,0:0:0:0:
256,192,102351,1,0,0:0:0:0:
256,192,102521,1,0,0:0:0:0:
256,192,102690,1,0,0:0:0:0:
256,192,102860,1,8,0:0:0:0:
256,192,102944,1,8,0:0:0:0:
256,192,103029,1,0,0:0:0:0:
256,192,103114,1,0,0:0:0:0:
256,192,103199,1,8,0:0:0:0:
256,192,103368,1,8,0:0:0:0:
256,192,103538,1,4,0:0:0:0:
256,192,103792,1,8,0:0:0:0:
256,192,103877,1,0,0:0:0:0:
256,192,104046,1,12,0:0:0:0:
256,192,104300,1,0,0:0:0:0:
256,192,104385,1,0,0:0:0:0:
256,192,104555,1,12,0:0:0:0:
256,192,105063,1,8,0:0:0:0:
256,192,105233,1,0,0:0:0:0:
256,192,105402,1,0,0:0:0:0:
256,192,105572,1,8,0:0:0:0:
256,192,105656,1,8,0:0:0:0:
256,192,105741,1,8,0:0:0:0:
256,192,105911,1,0,0:0:0:0:
256,192,106250,1,12,0:0:0:0:
256,192,106504,1,0,0:0:0:0:
256,192,106589,1,8,0:0:0:0:
256,192,106758,1,4,0:0:0:0:
256,192,107012,1,8,0:0:0:0:
256,192,107097,1,0,0:0:0:0:
256,192,107266,1,12,0:0:0:0:
256,192,107775,1,0,0:0:0:0:
256,192,107944,1,8,0:0:0:0:
256,192,108114,1,8,0:0:0:0:
256,192,108283,1,0,0:0:0:0:
256,192,108368,1,0,0:0:0:0:
256,192,108453,1,8,0:0:0:0:
256,192,108538,1,8,0:0:0:0:
256,192,108622,1,0,0:0:0:0:
256,192,108792,1,0,0:0:0:0:
256,192,108961,1,12,0:0:0:0:
256,192,109131,1,0,0:0:0:0:
256,192,109300,1,0,0:0:0:0:
256,192,109470,1,12,0:0:0:0:
256,192,109639,1,0,0:0:0:0:
256,192,109809,1,0,0:0:0:0:
256,192,109978,1,12,0:0:0:0:
256,192,110148,2,4,L|299:188,14,43.75
256,192,111673,1,4,0:0:0:0:
256,192,111843,1,8,0:0:0:0:
256,192,112012,1,0,0:0:0:0:
256,192,112182,1,0,0:0:0:0:
256,192,112351,1,8,0:0:0:0:
256,192,112436,1,8,0:0:0:0:
256,192,112521,1,0,0:0:0:0:
256,192,112690,1,8,0:0:0:0:
256,192,112775,1,8,0:0:0:0:
256,192,112860,1,8,0:0:0:0:
256,192,113030,1,4,0:0:0:0:
256,192,113368,1,0,0:0:0:0:
256,192,113538,1,8,0:0:0:0:
256,192,113623,1,8,0:0:0:0:
256,192,113707,1,0,0:0:0:0:
256,192,113877,1,8,0:0:0:0:
256,192,114046,1,0,0:0:0:0:
256,192,114216,1,8,0:0:0:0:
256,192,114301,1,8,0:0:0:0:
256,192,114385,1,0,0:0:0:0:
256,192,114555,1,8,0:0:0:0:
256,192,114724,1,0,0:0:0:0:
256,192,114809,1,0,0:0:0:0:
256,192,114894,1,8,0:0:0:0:
256,192,115063,1,0,0:0:0:0:
256,192,115233,1,8,0:0:0:0:
256,192,115318,1,8,0:0:0:0:
256,192,115402,1,8,0:0:0:0:
256,192,115572,1,0,0:0:0:0:
256,192,115741,1,8,0:0:0:0:
256,192,116080,1,0,0:0:0:0:
256,192,116250,1,8,0:0:0:0:
256,192,116335,1,8,0:0:0:0:
256,192,116419,1,8,0:0:0:0:
256,192,116589,1,0,0:0:0:0:
256,192,116758,1,8,0:0:0:0:
256,192,116928,1,0,0:0:0:0:
256,192,117013,1,0,0:0:0:0:
256,192,117097,1,0,0:0:0:0:
256,192,117267,1,8,0:0:0:0:
256,192,117352,1,8,0:0:0:0:
256,192,117436,1,0,0:0:0:0:
256,192,117521,1,0,0:0:0:0:
256,192,117606,1,8,0:0:0:0:
256,192,117775,1,0,0:0:0:0:
256,192,117945,1,8,0:0:0:0:
256,192,118030,1,8,0:0:0:0:
256,192,118114,1,0,0:0:0:0:
256,192,118284,1,8,0:0:0:0:
256,192,118453,1,0,0:0:0:0:
256,192,118792,1,0,0:0:0:0:
256,192,118962,1,8,0:0:0:0:
256,192,119046,1,8,0:0:0:0:
256,192,119131,1,0,0:0:0:0:
256,192,119301,1,8,0:0:0:0:
256,192,119470,1,0,0:0:0:0:
256,192,119640,1,8,0:0:0:0:
256,192,119724,1,8,0:0:0:0:
256,192,119809,1,0,0:0:0:0:
256,192,119979,1,8,0:0:0:0:
256,192,120148,1,0,0:0:0:0:
256,192,120233,1,0,0:0:0:0:
256,192,120318,1,8,0:0:0:0:
256,192,120487,1,0,0:0:0:0:
256,192,120657,1,8,0:0:0:0:
256,192,120741,1,8,0:0:0:0:
256,192,120826,1,8,0:0:0:0:
256,192,120996,1,0,0:0:0:0:
256,192,121165,1,8,0:0:0:0:
256,192,121504,1,0,0:0:0:0:
256,192,121674,1,8,0:0:0:0:
256,192,121758,1,8,0:0:0:0:
256,192,121843,1,0,0:0:0:0:
256,192,122013,1,8,0:0:0:0:
256,192,122182,1,0,0:0:0:0:
256,192,122267,1,0,0:0:0:0:
256,192,122352,1,8,0:0:0:0:
256,192,122521,1,0,0:0:0:0:
256,192,122691,1,8,0:0:0:0:
256,192,122775,1,8,0:0:0:0:
256,192,122860,1,0,0:0:0:0:
256,192,122945,1,0,0:0:0:0:
256,192,123030,1,8,0:0:0:0:
256,192,123199,1,0,0:0:0:0:
256,192,123368,1,8,0:0:0:0:
256,192,123453,1,8,0:0:0:0:
256,192,123538,1,8,0:0:0:0:
256,192,123707,1,0,0:0:0:0:
256,192,123877,1,12,0:0:0:0:
256,192,124385,1,8,0:0:0:0:
256,192,124470,1,8,0:0:0:0:
256,192,124555,1,8,0:0:0:0:
256,192,124724,1,0,0:0:0:0:
256,192,124894,1,8,0:0:0:0:
256,192,125233,1,4,0:0:0:0:
256,192,125572,1,0,0:0:0:0:
256,192,125741,1,8,0:0:0:0:
256,192,125826,1,8,0:0:0:0:
256,192,125911,1,0,0:0:0:0:
256,192,126080,1,8,0:0:0:0:
256,192,126250,1,0,0:0:0:0:
256,192,126419,1,8,0:0:0:0:
256,192,126504,1,8,0:0:0:0:
256,192,126589,1,0,0:0:0:0:
256,192,126758,1,8,0:0:0:0:
256,192,126928,1,0,0:0:0:0:
256,192,127013,1,0,0:0:0:0:
256,192,127097,1,8,0:0:0:0:
256,192,127267,1,0,0:0:0:0:
256,192,127436,1,8,0:0:0:0:
256,192,127521,1,8,0:0:0:0:
256,192,127606,1,8,0:0:0:0:
256,192,127775,1,0,0:0:0:0:
256,192,127945,1,0,0:0:0:0:
256,192,128114,1,8,0:0:0:0:
256,192,128199,1,8,0:0:0:0:
256,192,128284,1,0,0:0:0:0:
256,192,128368,1,0,0:0:0:0:
256,192,128453,1,8,0:0:0:0:
256,192,128623,1,0,0:0:0:0:
256,192,128792,1,8,0:0:0:0:
256,192,128877,1,8,0:0:0:0:
256,192,128962,1,0,0:0:0:0:
256,192,129131,1,8,0:0:0:0:
256,192,129301,1,0,0:0:0:0:
256,192,129640,1,0,0:0:0:0:
256,192,129809,1,8,0:0:0:0:
256,192,129894,1,8,0:0:0:0:
256,192,129979,1,0,0:0:0:0:
256,192,130148,1,8,0:0:0:0:
256,192,130318,1,0,0:0:0:0:
256,192,130487,1,8,0:0:0:0:
256,192,130572,1,8,0:0:0:0:
256,192,130657,1,0,0:0:0:0:
256,192,130826,1,8,0:0:0:0:
256,192,130996,1,0,0:0:0:0:
256,192,131080,1,0,0:0:0:0:
256,192,131165,1,8,0:0:0:0:
256,192,131335,1,0,0:0:0:0:
256,192,131504,1,8,0:0:0:0:
256,192,131589,1,8,0:0:0:0:
256,192,131674,1,8,0:0:0:0:
256,192,131843,1,0,0:0:0:0:
256,192,132013,1,12,0:0:0:0:
256,192,132182,1,0,0:0:0:0:
256,192,132352,1,0,0:0:0:0:
256,192,132521,1,0,0:0:0:0:
256,192,132691,1,8,0:0:0:0:
256,192,132775,1,8,0:0:0:0:
256,192,132860,1,0,0:0:0:0:
256,192,132945,1,0,0:0:0:0:
256,192,133030,1,8,0:0:0:0:
256,192,133199,1,8,0:0:0:0:
256,192,133368,1,4,0:0:0:0:
256,192,133538,1,8,0:0:0:0:
256,192,133623,1,8,0:0:0:0:
256,192,133707,1,8,0:0:0:0:
256,192,133877,1,0,0:0:0:0:
256,192,134046,1,8,0:0:0:0:
256,192,134131,1,8,0:0:0:0:
256,192,134216,1,0,0:0:0:0:
256,192,134385,1,8,0:0:0:0:
256,192,134724,1,4,0:0:0:0:
256,192,135063,1,8,0:0:0:0:
256,192,135233,1,0,0:0:0:0:
256,192,135318,1,0,0:0:0:0:
256,192,135402,1,8,0:0:0:0:
256,192,135572,1,0,0:0:0:0:
256,192,135741,1,8,0:0:0:0:
256,192,135911,1,8,0:0:0:0:
256,192,136250,1,0,0:0:0:0:
256,192,136419,1,8,0:0:0:0:
256,192,136504,1,8,0:0:0:0:
256,192,136589,1,0,0:0:0:0:
256,192,136758,1,8,0:0:0:0:
256,192,136928,1,0,0:0:0:0:
256,192,137013,1,0,0:0:0:0:
256,192,137097,1,8,0:0:0:0:
256,192,137267,1,8,0:0:0:0:
256,192,137436,1,0,0:0:0:0:
256,192,137606,1,8,0:0:0:0:
256,192,137775,1,0,0:0:0:0:
256,192,137945,1,0,0:0:0:0:
256,192,138114,1,8,0:0:0:0:
256,192,138199,1,8,0:0:0:0:
256,192,138284,1,0,0:0:0:0:
256,192,138453,1,8,0:0:0:0:
256,192,138623,1,8,0:0:0:0:
256,192,138792,1,0,0:0:0:0:
256,192,138962,1,8,0:0:0:0:
256,192,139131,1,0,0:0:0:0:
256,192,139216,1,0,0:0:0:0:
256,192,139301,1,8,0:0:0:0:
256,192,139470,1,0,0:0:0:0:
256,192,139640,1,0,0:0:0:0:
256,192,139809,1,8,0:0:0:0:
256,192,139979,1,8,0:0:0:0:
256,192,140148,1,0,0:0:0:0:
256,192,140487,1,8,0:0:0:0:
256,192,140657,1,0,0:0:0:0:
256,192,140741,1,0,0:0:0:0:
256,192,140826,1,8,0:0:0:0:
256,192,140996,1,0,0:0:0:0:
256,192,141165,1,8,0:0:0:0:
256,192,141335,1,8,0:0:0:0:
256,192,141504,1,0,0:0:0:0:
256,192,141674,1,8,0:0:0:0:
256,192,141843,1,0,0:0:0:0:
256,192,141928,1,0,0:0:0:0:
256,192,142013,1,8,0:0:0:0:
256,192,142182,1,0,0:0:0:0:
256,192,142352,1,0,0:0:0:0:
256,192,142521,1,8,0:0:0:0:
256,192,142691,1,8,0:0:0:0:
256,192,142860,1,0,0:0:0:0:
256,192,143030,1,8,0:0:0:0:
256,192,143199,1,0,0:0:0:0:
256,192,143368,1,8,0:0:0:0:
256,192,143453,1,8,0:0:0:0:
256,192,143538,1,0,0:0:0:0:
256,192,143707,1,0,0:0:0:0:
256,192,143877,1,8,0:0:0:0:
256,192,144046,1,8,0:0:0:0:
256,192,144216,1,0,0:0:0:0:
256,192,144385,1,8,0:0:0:0:
256,192,144555,1,8,0:0:0:0:
256,192,144894,1,8,0:0:0:0:
256,192,145063,1,0,0:0:0:0:
256,192,145148,1,0,0:0:0:0:
256,192,145233,1,8,0:0:0:0:
256,192,145402,1,8,0:0:0:0:
256,192,145572,1,4,0:0:0:0:
256,192,145911,1,8,0:0:0:0:
256,192,146080,1,0,0:0:0:0:
256,192,146165,1,0,0:0:0:0:
256,192,146250,1,8,0:0:0:0:
256,192,146419,1,0,0:0:0:0:
256,192,146589,1,8,0:0:0:0:
256,192,146758,1,8,0:0:0:0:
256,192,147097,1,0,0:0:0:0:
256,192,147267,1,8,0:0:0:0:
256,192,147352,1,8,0:0:0:0:
256,192,147436,1,0,0:0:0:0:
256,192,147606,1,8,0:0:0:0:
256,192,147775,1,0,0:0:0:0:
256,192,147860,1,0,0:0:0:0:
256,192,147945,1,8,0:0:0:0:
256,192,148114,1,8,0:0:0:0:
256,192,148284,1,0,0:0:0:0:
256,192,148453,1,8,0:0:0:0:
256,192,148623,1,0,0:0:0:0:
256,192,148792,1,0,0:0:0:0:
256,192,148962,1,8,0:0:0:0:
256,192,149046,1,8,0:0:0:0:
256,192,149131,1,0,0:0:0:0:
256,192,149301,1,8,0:0:0:0:
256,192,149470,1,8,0:0:0:0:
256,192,149640,1,0,0:0:0:0:
256,192,149809,1,8,0:0:0:0:
256,192,149979,1,0,0:0:0:0:
256,192,150063,1,0,0:0:0:0:
256,192,150148,1,8,0:0:0:0:
256,192,150318,1,0,0:0:0:0:
256,192,150487,1,0,0:0:0:0:
256,192,150657,1,8,0:0:0:0:
256,192,150826,1,8,0:0:0:0:
256,192,150996,1,0,0:0:0:0:
256,192,151335,1,8,0:0:0:0:
256,192,151504,1,0,0:0:0:0:
256,192,151589,1,0,0:0:0:0:
256,192,151674,1,8,0:0:0:0:
256,192,151843,1,0,0:0:0:0:
256,192,152013,1,8,0:0:0:0:
256,192,152182,1,8,0:0:0:0:
256,192,152352,1,0,0:0:0:0:
256,192,152521,1,8,0:0:0:0:
256,192,152691,1,0,0:0:0:0:
256,192,152775,1,0,0:0:0:0:
256,192,152860,1,8,0:0:0:0:
256,192,153030,1,0,0:0:0:0:
256,192,153199,1,0,0:0:0:0:
256,192,153368,1,8,0:0:0:0:
256,192,153538,1,8,0:0:0:0:
256,192,153707,1,0,0:0:0:0:
256,192,153877,1,0,0:0:0:0:
256,192,154046,1,8,0:0:0:0:
256,192,154131,1,8,0:0:0:0:
256,192,154216,1,0,0:0:0:0:
256,192,154301,1,0,0:0:0:0:
256,192,154385,1,8,0:0:0:0:
256,192,154555,1,0,0:0:0:0:
256,192,154724,1,8,0:0:0:0:
256,192,154894,1,8,0:0:0:0:
256,192,155063,1,0,0:0:0:0:
256,192,155148,1,0,0:0:0:0:
256,192,155233,1,0,0:0:0:0:
256,192,155318,1,0,0:0:0:0:
256,192,155402,1,8,0:0:0:0:
256,192,155572,1,0,0:0:0:0:
256,192,155741,1,8,0:0:0:0:
256,192,155826,1,8,0:0:0:0:
256,192,155911,1,0,0:0:0:0:
256,192,155996,1,0,0:0:0:0:
256,192,156080,1,8,0:0:0:0:
256,192,156250,1,8,0:0:0:0:
256,192,156419,1,4,0:0:0:0:
256,192,156758,1,8,0:0:0:0:
256,192,156928,1,0,0:0:0:0:
256,192,157013,1,0,0:0:0:0:
256,192,157097,1,8,0:0:0:0:
256,192,157267,1,0,0:0:0:0:
256,192,157436,1,8,0:0:0:0:
256,192,157775,1,0,0:0:0:0:
256,192,157945,1,0,0:0:0:0:
256,192,158114,1,8,0:0:0:0:
256,192,158284,1,0,0:0:0:0:
256,192,158453,1,8,0:0:0:0:
256,192,158538,1,8,0:0:0:0:
256,192,158623,1,0,0:0:0:0:
256,192,158792,1,8,0:0:0:0:
256,192,158962,1,8,0:0:0:0:
256,192,159301,1,8,0:0:0:0:
256,192,159470,1,8,0:0:0:0:
256,192,159640,1,0,0:0:0:0:
256,192,159724,1,0,0:0:0:0:
256,192,159809,1,8,0:0:0:0:
256,192,159979,1,0,0:0:0:0:
256,192,160148,1,8,0:0:0:0:
256,192,160318,1,8,0:0:0:0:
256,192,160487,1,0,0:0:0:0:
256,192,160657,1,0,0:0:0:0:
256,192,160826,1,8,0:0:0:0:
256,192,160911,1,8,0:0:0:0:
256,192,160996,1,0,0:0:0:0:
256,192,161165,1,8,0:0:0:0:
256,192,161335,1,0,0:0:0:0:
256,192,161504,1,8,0:0:0:0:
256,192,161843,1,4,0:0:0:0:
256,192,162182,1,8,0:0:0:0:
256,192,162352,1,0,0:0:0:0:
256,192,162436,1,8,0:0:0:0:
256,192,162606,1,8,0:0:0:0:
256,192,162691,1,0,0:0:0:0:
256,192,162860,1,8,0:0:0:0:
256,192,163030,1,4,0:0:0:0:
256,192,163368,1,0,0:0:0:0:
256,192,163538,1,8,0:0:0:0:
256,192,163707,1,0,0:0:0:0:
256,192,163792,1,8,0:0:0:0:
256,192,163962,1,8,0:0:0:0:
256,192,164046,1,0,0:0:0:0:
256,192,164216,1,8,0:0:0:0:
256,192,164385,1,4,0:0:0:0:
256,192,164724,1,0,0:0:0:0:
256,192,164894,1,8,0:0:0:0:
256,192,165063,1,0,0:0:0:0:
256,192,165148,1,8,0:0:0:0:
256,192,165318,1,8,0:0:0:0:
256,192,165402,1,0,0:0:0:0:
256,192,165572,1,8,0:0:0:0:
256,192,165741,1,4,0:0:0:0:
256,192,166080,1,8,0:0:0:0:
256,192,166165,1,8,0:0:0:0:
256,192,166250,1,8,0:0:0:0:
256,192,166335,1,8,0:0:0:0:
256,192,166419,1,0,0:0:0:0:
256,192,166589,1,8,0:0:0:0:
256,192,166758,1,0,0:0:0:0:
256,192,166843,1,0,0:0:0:0:
256,192,166928,1,8,0:0:0:0:
256,192,167013,1,8,0:0:0:0:
256,192,167097,1,0,0:0:0:0:
256,192,167267,1,12,0:0:0:0:
256,192,167606,1,8,0:0:0:0:
256,192,167775,1,0,0:0:0:0:
256,192,167860,1,0,0:0:0:0:
256,192,167945,1,8,0:0:0:0:
256,192,168114,1,0,0:0:0:0:
256,192,168284,1,8,0:0:0:0:
256,192,168623,1,0,0:0:0:0:
256,192,168792,1,0,0:0:0:0:
256,192,168962,1,8,0:0:0:0:
256,192,169046,1,8,0:0:0:0:
256,192,169131,1,0,0:0:0:0:
256,192,169301,1,8,0:0:0:0:
256,192,169470,1,0,0:0:0:0:
256,192,169640,1,8,0:0:0:0:
256,192,169809,1,8,0:0:0:0:
256,192,170148,1,8,0:0:0:0:
256,192,170318,1,8,0:0:0:0:
256,192,170487,1,0,0:0:0:0:
256,192,170657,1,8,0:0:0:0:
256,192,170826,1,0,0:0:0:0:
256,192,170911,1,0,0:0:0:0:
256,192,170996,1,8,0:0:0:0:
256,192,171165,1,8,0:0:0:0:
256,192,171335,1,0,0:0:0:0:
256,192,171504,1,0,0:0:0:0:
256,192,171674,1,8,0:0:0:0:
256,192,171758,1,8,0:0:0:0:
256,192,171843,1,0,0:0:0:0:
256,192,172013,1,8,0:0:0:0:
256,192,172182,1,0,0:0:0:0:
256,192,172352,1,8,0:0:0:0:
256,192,172521,1,8,0:0:0:0:
256,192,172691,1,4,0:0:0:0:
256,192,173030,1,8,0:0:0:0:
256,192,173199,1,0,0:0:0:0:
256,192,173284,1,0,0:0:0:0:
256,192,173368,1,8,0:0:0:0:
256,192,173538,1,0,0:0:0:0:
256,192,173707,1,8,0:0:0:0:
256,192,173877,1,4,0:0:0:0:
256,192,174216,1,0,0:0:0:0:
256,192,174385,1,8,0:0:0:0:
256,192,174470,1,8,0:0:0:0:
256,192,174555,1,0,0:0:0:0:
256,192,174724,1,8,0:0:0:0:
256,192,174894,1,8,0:0:0:0:
256,192,175063,1,8,0:0:0:0:
256,192,175233,1,0,0:0:0:0:
256,192,175402,1,12,0:0:0:0:
256,192,175741,1,8,0:0:0:0:
256,192,176080,1,0,0:0:0:0:
256,192,176250,1,0,0:0:0:0:
256,192,176419,1,8,0:0:0:0:
256,192,176589,1,8,0:0:0:0:
256,192,176928,1,8,0:0:0:0:
256,192,177097,1,8,0:0:0:0:
256,192,177267,1,0,0:0:0:0:
256,192,177436,1,8,0:0:0:0:
256,192,177521,1,8,0:0:0:0:
256,192,177606,1,0,0:0:0:0:
256,192,177775,1,8,0:0:0:0:
256,192,177945,1,8,0:0:0:0:
256,192,178114,1,4,0:0:0:0:
256,192,178453,1,8,0:0:0:0:
256,192,178792,1,0,0:0:0:0:
256,192,178962,1,0,0:0:0:0:
256,192,179131,1,8,0:0:0:0:
256,192,179301,1,8,0:0:0:0:
256,192,179470,1,0,0:0:0:0:
256,192,179640,1,8,0:0:0:0:
256,192,179809,1,8,0:0:0:0:
256,192,179979,1,0,0:0:0:0:
256,192,180063,1,0,0:0:0:0:
256,192,180148,1,8,0:0:0:0:
256,192,180318,1,0,0:0:0:0:
256,192,180487,1,8,0:0:0:0:
256,192,180826,1,4,0:0:0:0:
256,192,181080,1,8,0:0:0:0:
256,192,181165,1,8,0:0:0:0:
256,192,181335,1,4,0:0:0:0:
256,192,181589,1,8,0:0:0:0:
256,192,181674,1,8,0:0:0:0:
256,192,181843,1,4,0:0:0:0:
256,192,182013,1,0,0:0:0:0:
256,192,182182,1,12,0:0:0:0:
256,192,182352,1,0,0:0:0:0:
256,192,182436,1,0,0:0:0:0:
256,192,182521,1,0,0:0:0:0:
256,192,182606,1,0,0:0:0:0:
256,192,182691,1,8,0:0:0:0:
256,192,182860,1,8,0:0:0:0:
256,192,182945,1,8,0:0:0:0:
256,192,183030,1,0,0:0:0:0:
256,192,183199,1,8,0:0:0:0:
256,192,183538,1,4,0:0:0:0:
256,192,184216,1,8,0:0:0:0:
256,192,184724,1,0,0:0:0:0:
256,192,184894,1,0,0:0:0:0:
256,192,185233,1,0,0:0:0:0:
256,192,185572,1,8,0:0:0:0:
256,192,186250,1,0,0:0:0:0:
256,192,186928,1,8,0:0:0:0:
256,192,187436,1,0,0:0:0:0:
256,192,187606,1,0,0:0:0:0:
256,192,187945,1,0,0:0:0:0:
256,192,188284,1,8,0:0:0:0:
256,192,188623,1,8,0:0:0:0:
256,192,188962,1,0,0:0:0:0:
256,192,189640,1,8,0:0:0:0:
256,192,190148,1,0,0:0:0:0:
256,192,190318,1,8,0:0:0:0:
256,192,190487,1,0,0:0:0:0:
256,192,190826,1,0,0:0:0:0:
256,192,190996,1,8,0:0:0:0:
256,192,191674,1,0,0:0:0:0:
256,192,192182,1,0,0:0:0:0:
256,192,192352,1,8,0:0:0:0:
256,192,192521,1,8,0:0:0:0:
256,192,193030,1,0,0:0:0:0:
256,192,193368,1,0,0:0:0:0:
256,192,193707,1,8,0:0:0:0:
256,192,193877,1,8,0:0:0:0:
256,192,194046,1,0,0:0:0:0:
256,192,194385,1,12,0:0:0:0:
256,192,194724,1,0,0:0:0:0:
256,192,195063,1,8,0:0:0:0:
256,192,195572,1,0,0:0:0:0:
256,192,195741,1,0,0:0:0:0:
256,192,196080,1,0,0:0:0:0:
256,192,196419,1,8,0:0:0:0:
256,192,196758,1,8,0:0:0:0:
256,192,197097,1,0,0:0:0:0:
256,192,197775,1,8,0:0:0:0:
256,192,198284,1,0,0:0:0:0:
256,192,198453,1,0,0:0:0:0:
256,192,198792,1,0,0:0:0:0:
256,192,199131,1,8,0:0:0:0:
256,192,199301,1,8,0:0:0:0:
256,192,199470,1,0,0:0:0:0:
256,192,199640,1,0,0:0:0:0:
256,192,199809,1,8,0:0:0:0:
256,192,200148,1,0,0:0:0:0:
256,192,200318,1,0,0:0:0:0:
256,192,200487,1,8,0:0:0:0:
256,192,200996,1,0,0:0:0:0:
256,192,201165,1,8,0:0:0:0:
256,192,201504,1,0,0:0:0:0:
256,192,201674,1,0,0:0:0:0:
256,192,201843,1,8,0:0:0:0:
256,192,202182,1,8,0:0:0:0:
256,192,202521,1,0,0:0:0:0:
256,192,202860,1,8,0:0:0:0:
256,192,203030,1,0,0:0:0:0:
256,192,203199,1,8,0:0:0:0:
256,192,203707,1,0,0:0:0:0:
256,192,203877,1,0,0:0:0:0:
256,192,204216,1,0,0:0:0:0:
256,192,204555,1,8,0:0:0:0:
256,192,204894,1,8,0:0:0:0:
256,192,205233,1,0,0:0:0:0:
256,192,205402,1,12,0:0:0:0:
256,192,205572,1,0,0:0:0:0:
256,192,205741,1,0,0:0:0:0:
256,192,205911,1,12,0:0:0:0:
256,192,206080,1,0,0:0:0:0:
256,192,206250,1,0,0:0:0:0:
256,192,206419,1,12,0:0:0:0:
256,192,206589,1,0,0:0:0:0:
256,192,206758,1,0,0:0:0:0:
256,192,206928,1,12,0:0:0:0:
256,192,207097,1,0,0:0:0:0:
256,192,207267,1,0,0:0:0:0:
256,192,207436,1,12,0:0:0:0:
256,192,207606,1,0,0:0:0:0:
256,192,207691,1,0,0:0:0:0:
256,192,207775,1,0,0:0:0:0:
256,192,207860,1,0,0:0:0:0:
256,192,207945,1,8,0:0:0:0:
256,192,208623,1,8,0:0:0:0:
256,192,208707,1,8,0:0:0:0:
256,192,208792,1,0,0:0:0:0:
256,192,208877,1,0,0:0:0:0:
256,192,208962,1,8,0:0:0:0:
256,192,209131,1,8,0:0:0:0:
256,192,209301,1,0,0:0:0:0:
256,192,209639,1,0,0:0:0:0:
256,192,209809,1,12,0:0:0:0:
256,192,210148,1,0,0:0:0:0:
256,192,210233,1,0,0:0:0:0:
256,192,210317,1,8,0:0:0:0:
256,192,210487,1,0,0:0:0:0:
256,192,210656,1,12,0:0:0:0:
256,192,210826,1,0,0:0:0:0:
256,192,210995,1,0,0:0:0:0:
256,192,211165,1,8,0:0:0:0:
256,192,211250,1,8,0:0:0:0:
256,192,211334,1,8,0:0:0:0:
256,192,211419,1,8,0:0:0:0:
256,192,211504,1,0,0:0:0:0:
256,192,211673,1,8,0:0:0:0:
256,192,212012,1,4,0:0:0:0:
256,192,212182,1,8,0:0:0:0:
256,192,212267,1,8,0:0:0:0:
256,192,212351,1,8,0:0:0:0:
256,192,212521,1,4,0:0:0:0:
256,192,212690,1,8,0:0:0:0:
256,192,212860,1,0,0:0:0:0:
256,192,213029,1,12,0:0:0:0:
256,192,213368,1,0,0:0:0:0:
256,192,213538,1,12,0:0:0:0:
256,192,213877,1,8,0:0:0:0:
256,192,214046,1,4,0:0:0:0:
256,192,214216,1,8,0:0:0:0:
256,192,214301,1,8,0:0:0:0:
256,192,214385,1,8,0:0:0:0:
256,192,214724,1,4,0:0:0:0:
256,192,215063,1,8,0:0:0:0:
256,192,215233,1,0,0:0:0:0:
256,192,215317,1,0,0:0:0:0:
256,192,215402,1,8,0:0:0:0:
256,192,215572,1,0,0:0:0:0:
256,192,215741,1,8,0:0:0:0:
256,192,215911,1,0,0:0:0:0:
256,192,215995,1,0,0:0:0:0:
256,192,216080,1,8,0:0:0:0:
256,192,216250,1,0,0:0:0:0:
256,192,216334,1,0,0:0:0:0:
256,192,216419,1,8,0:0:0:0:
256,192,216589,1,0,0:0:0:0:
256,192,216758,1,8,0:0:0:0:
256,192,216928,1,0,0:0:0:0:
256,192,217097,1,8,0:0:0:0:
256,192,217267,1,8,0:0:0:0:
256,192,217436,1,0,0:0:0:0:
256,192,217606,1,8,0:0:0:0:
256,192,217690,1,8,0:0:0:0:
256,192,217775,1,8,0:0:0:0:
256,192,217945,1,0,0:0:0:0:
256,192,218114,1,8,0:0:0:0:
256,192,218284,1,0,0:0:0:0:
256,192,218368,1,0,0:0:0:0:
256,192,218453,1,8,0:0:0:0:
256,192,218623,1,8,0:0:0:0:
256,192,218792,1,0,0:0:0:0:
256,192,218962,1,8,0:0:0:0:
256,192,219046,1,8,0:0:0:0:
256,192,219131,1,0,0:0:0:0:
256,192,219216,1,0,0:0:0:0:
256,192,219301,1,8,0:0:0:0:
256,192,219470,1,0,0:0:0:0:
256,192,219639,1,0,0:0:0:0:
256,192,219809,1,8,0:0:0:0:
256,192,219978,1,0,0:0:0:0:
256,192,220148,1,12,0:0:0:0:
256,192,220487,1,8,0:0:0:0:
256,192,220656,1,0,0:0:0:0:
256,192,220741,1,8,0:0:0:0:
256,192,220911,1,8,0:0:0:0:
256,192,220995,1,0,0:0:0:0:
256,192,221165,1,8,0:0:0:0:
256,192,221334,1,8,0:0:0:0:
256,192,221504,1,4,0:0:0:0:
256,192,221843,1,8,0:0:0:0:
256,192,221928,1,8,0:0:0:0:
256,192,222012,1,0,0:0:0:0:
256,192,222182,1,8,0:0:0:0:
256,192,222351,1,0,0:0:0:0:
256,192,222521,1,8,0:0:0:0:
256,192,222690,1,8,0:0:0:0:
256,192,222860,1,0,0:0:0:0:
256,192,223029,1,8,0:0:0:0:
256,192,223114,1,8,0:0:0:0:
256,192,223199,1,8,0:0:0:0:
256,192,223368,1,0,0:0:0:0:
256,192,223538,1,8,0:0:0:0:
256,192,223707,1,0,0:0:0:0:
256,192,223792,1,0,0:0:0:0:
256,192,223877,1,8,0:0:0:0:
256,192,224046,1,8,0:0:0:0:
256,192,224216,1,0,0:0:0:0:
256,192,224385,1,8,0:0:0:0:
256,192,224470,1,8,0:0:0:0:
256,192,224555,1,0,0:0:0:0:
256,192,224639,1,0,0:0:0:0:
256,192,224724,1,8,0:0:0:0:
256,192,224894,1,0,0:0:0:0:
256,192,225063,1,0,0:0:0:0:
256,192,225233,1,8,0:0:0:0:
256,192,225402,1,0,0:0:0:0:
256,192,225572,1,8,0:0:0:0:
256,192,225911,1,8,0:0:0:0:
256,192,226080,1,0,0:0:0:0:
256,192,226165,1,0,0:0:0:0:
256,192,226250,1,8,0:0:0:0:
256,192,226419,1,0,0:0:0:0:
256,192,226589,1,8,0:0:0:0:
256,192,226758,1,8,0:0:0:0:
256,192,226843,1,8,0:0:0:0:
256,192,226928,1,0,0:0:0:0:
256,192,227097,1,8,0:0:0:0:
256,192,227182,1,8,0:0:0:0:
256,192,227267,1,0,0:0:0:0:
256,192,227351,1,0,0:0:0:0:
256,192,227436,1,8,0:0:0:0:
256,192,227606,1,0,0:0:0:0:
256,192,227775,1,0,0:0:0:0:
256,192,227945,1,8,0:0:0:0:
256,192,228114,1,8,0:0:0:0:
256,192,228284,1,0,0:0:0:0:
256,192,228453,1,8,0:0:0:0:
256,192,228623,1,0,0:0:0:0:
256,192,228707,1,8,0:0:0:0:
256,192,228877,1,8,0:0:0:0:
256,192,228962,1,0,0:0:0:0:
256,192,229131,1,0,0:0:0:0:
256,192,229301,1,8,0:0:0:0:
256,192,229470,1,8,0:0:0:0:
256,192,229639,1,4,0:0:0:0:
256,192,229809,1,8,0:0:0:0:
256,192,229894,1,8,0:0:0:0:
256,192,229978,1,0,0:0:0:0:
256,192,230148,1,8,0:0:0:0:
256,192,230317,1,0,0:0:0:0:
256,192,230402,1,0,0:0:0:0:
256,192,230487,1,0,0:0:0:0:
256,192,230656,1,8,0:0:0:0:
256,192,230995,1,4,0:0:0:0:
256,192,231334,1,8,0:0:0:0:
256,192,231504,1,0,0:0:0:0:
256,192,231589,1,0,0:0:0:0:
256,192,231673,1,8,0:0:0:0:
256,192,231843,1,0,0:0:0:0:
256,192,232012,1,8,0:0:0:0:
256,192,232182,1,8,0:0:0:0:
256,192,232521,1,0,0:0:0:0:
256,192,232690,1,8,0:0:0:0:
256,192,232775,1,8,0:0:0:0:
256,192,232860,1,0,0:0:0:0:
256,192,233029,1,8,0:0:0:0:
256,192,233199,1,0,0:0:0:0:
256,192,233284,1,0,0:0:0:0:
256,192,233368,1,8,0:0:0:0:
256,192,233538,1,8,0:0:0:0:
256,192,233707,1,0,0:0:0:0:
256,192,233877,1,8,0:0:0:0:
256,192,234046,1,0,0:0:0:0:
256,192,234216,1,0,0:0:0:0:
256,192,234385,1,8,0:0:0:0:
256,192,234470,1,8,0:0:0:0:
256,192,234555,1,0,0:0:0:0:
256,192,234724,1,8,0:0:0:0:
256,192,234894,1,8,0:0:0:0:
256,192,235063,1,0,0:0:0:0:
256,192,235233,1,8,0:0:0:0:
256,192,235402,1,0,0:0:0:0:
256,192,235487,1,0,0:0:0:0:
256,192,235572,1,8,0:0:0:0:
256,192,235741,1,0,0:0:0:0:
256,192,235911,1,0,0:0:0:0:
256,192,236080,1,8,0:0:0:0:
256,192,236250,1,8,0:0:0:0:
256,192,236419,1,0,0:0:0:0:
256,192,236758,1,8,0:0:0:0:
256,192,236928,1,0,0:0:0:0:
256,192,237012,1,0,0:0:0:0:
256,192,237097,1,8,0:0:0:0:
256,192,237267,1,0,0:0:0:0:
256,192,237436,1,8,0:0:0:0:
256,192,237606,1,8,0:0:0:0:
256,192,237775,1,0,0:0:0:0:
256,192,237945,1,8,0:0:0:0:
256,192,238114,1,0,0:0:0:0:
256,192,238199,1,0,0:0:0:0:
256,192,238284,1,8,0:0:0:0:
256,192,238453,1,0,0:0:0:0:
256,192,238623,1,0,0:0:0:0:
256,192,238792,1,8,0:0:0:0:
256,192,238962,1,8,0:0:0:0:
256,192,239131,1,0,0:0:0:0:
256,192,239301,1,8,0:0:0:0:
256,192,239470,1,0,0:0:0:0:
256,192,239639,1,8,0:0:0:0:
256,192,239724,1,8,0:0:0:0:
256,192,239809,1,0,0:0:0:0:
256,192,239978,1,0,0:0:0:0:
256,192,240148,1,8,0:0:0:0:
256,192,240317,1,8,0:0:0:0:
256,192,240487,1,0,0:0:0:0:
256,192,240656,1,8,0:0:0:0:
256,192,240826,1,8,0:0:0:0:
256,192,241165,1,8,0:0:0:0:
256,192,241334,1,0,0:0:0:0:
256,192,241419,1,0,0:0:0:0:
256,192,241504,1,8,0:0:0:0:
256,192,241673,1,8,0:0:0:0:
256,192,241843,1,4,0:0:0:0:
256,192,242182,1,8,0:0:0:0:
256,192,242351,1,0,0:0:0:0:
256,192,242436,1,0,0:0:0:0:
256,192,242521,1,8,0:0:0:0:
256,192,242690,1,0,0:0:0:0:
256,192,242860,1,8,0:0:0:0:
256,192,243029,1,8,0:0:0:0:
256,192,243368,1,0,0:0:0:0:
256,192,243538,1,8,0:0:0:0:
256,192,243623,1,8,0:0:0:0:
256,192,243707,1,0,0:0:0:0:
256,192,243877,1,8,0:0:0:0:
256,192,244046,1,0,0:0:0:0:
256,192,244131,1,0,0:0:0:0:
256,192,244216,1,8,0:0:0:0:
256,192,244385,1,8,0:0:0:0:
256,192,244555,1,0,0:0:0:0:
256,192,244724,1,8,0:0:0:0:
256,192,244894,1,0,0:0:0:0:
256,192,245063,1,0,0:0:0:0:
256,192,245233,1,8,0:0:0:0:
256,192,245317,1,8,0:0:0:0:
256,192,245402,1,0,0:0:0:0:
256,192,245572,1,8,0:0:0:0:
256,192,245741,1,8,0:0:0:0:
256,192,245911,1,0,0:0:0:0:
256,192,246080,1,8,0:0:0:0:
256,192,246250,1,0,0:0:0:0:
256,192,246334,1,0,0:0:0:0:
256,192,246419,1,8,0:0:0:0:
256,192,246589,1,0,0:0:0:0:
256,192,246758,1,0,0:0:0:0:
256,192,246928,1,8,0:0:0:0:
256,192,247097,1,8,0:0:0:0:
256,192,247267,1,0,0:0:0:0:
256,192,247606,1,8,0:0:0:0:
256,192,247775,1,0,0:0:0:0:
256,192,247860,1,0,0:0:0:0:
256,192,247945,1,8,0:0:0:0:
256,192,248114,1,0,0:0:0:0:
256,192,248284,1,8,0:0:0:0:
256,192,248453,1,8,0:0:0:0:
256,192,248623,1,0,0:0:0:0:
256,192,248792,1,8,0:0:0:0:
256,192,248962,1,0,0:0:0:0:
256,192,249046,1,0,0:0:0:0:
256,192,249131,1,8,0:0:0:0:
256,192,249301,1,0,0:0:0:0:
256,192,249470,1,0,0:0:0:0:
256,192,249639,1,8,0:0:0:0:
256,192,249809,1,8,0:0:0:0:
256,192,249978,1,0,0:0:0:0:
256,192,250148,1,0,0:0:0:0:
256,192,250317,1,8,0:0:0:0:
256,192,250402,1,8,0:0:0:0:
256,192,250487,1,0,0:0:0:0:
256,192,250572,1,0,0:0:0:0:
256,192,250656,1,8,0:0:0:0:
256,192,250826,1,0,0:0:0:0:
256,192,250995,1,8,0:0:0:0:
256,192,251165,1,8,0:0:0:0:
256,192,251334,1,4,0:0:0:0:
256,192,251504,1,8,0:0:0:0:
256,192,251589,1,8,0:0:0:0:
256,192,251673,1,8,0:0:0:0:
256,192,251843,1,0,0:0:0:0:
256,192,252012,1,8,0:0:0:0:
256,192,252097,1,8,0:0:0:0:
256,192,252182,1,0,0:0:0:0:
256,192,252267,1,0,0:0:0:0:
256,192,252351,1,8,0:0:0:0:
256,192,252521,1,8,0:0:0:0:
256,192,252690,1,4,0:0:0:0:
256,192,253199,1,8,0:0:0:0:
256,192,253707,1,0,0:0:0:0:
256,192,254555,1,8,0:0:0:0:
256,192,254894,1,8,0:0:0:0:
256,192,255402,1,0,0:0:0:0:
256,192,255741,1,8,0:0:0:0:
256,192,255911,1,0,0:0:0:0:
256,192,256250,1,8,0:0:0:0:
256,192,256419,1,0,0:0:0:0:
256,192,256589,1,8,0:0:0:0:
256,192,256928,1,0,0:0:0:0:
256,192,257097,1,8,0:0:0:0:
256,192,257267,1,0,0:0:0:0:
256,192,257351,1,8,0:0:0:0:
256,192,257606,1,0,0:0:0:0:
256,192,257775,1,8,0:0:0:0:
256,192,257945,1,0,0:0:0:0:
256,192,258114,1,12,0:0:0:0:
256,192,258284,1,0,0:0:0:0:
256,192,258368,1,0,0:0:0:0:
256,192,258453,1,8,0:0:0:0:
256,192,258623,1,0,0:0:0:0:
256,192,258792,1,8,0:0:0:0:
256,192,258962,1,8,0:0:0:0:
256,192,259131,1,0,0:0:0:0:
256,192,259301,1,8,0:0:0:0:
256,192,259639,1,0,0:0:0:0:
256,192,259809,1,8,0:0:0:0:
256,192,259978,1,8,0:0:0:0:
256,192,260148,1,0,0:0:0:0:
256,192,260317,1,8,0:0:0:0:
256,192,260487,1,0,0:0:0:0:
256,192,260656,1,8,0:0:0:0:
256,192,260826,1,4,0:0:0:0:
256,192,261080,1,8,0:0:0:0:
256,192,261165,1,8,0:0:0:0:
256,192,261334,1,4,0:0:0:0:
256,192,261589,1,8,0:0:0:0:
256,192,261673,1,0,0:0:0:0:
256,192,261843,1,12,0:0:0:0:
256,192,262097,1,0,0:0:0:0:
256,192,262182,1,0,0:0:0:0:
256,192,262351,1,12,0:0:0:0:
256,192,262606,1,0,0:0:0:0:
256,192,262690,1,0,0:0:0:0:
256,192,262775,1,8,0:0:0:0:
256,192,262860,1,8,0:0:0:0:
256,192,263029,1,4,0:0:0:0:
256,192,263199,1,4,0:0:0:0:
256,192,263368,1,12,0:0:0:0:
