osu file format v14

[General]
AudioFilename: audio.mp3
AudioLeadIn: 0
PreviewTime: 46613
Countdown: 0
SampleSet: Soft
StackLeniency: 0.7
Mode: 0
LetterboxInBreaks: 0
WidescreenStoryboard: 0

[Editor]
DistanceSpacing: 1
BeatDivisor: 4
GridSize: 4
TimelineZoom: 1.9

[Metadata]
Title:TwinkleStars
TitleUnicode:TwinkleStars
Artist:Yui (CV: Taneda Risa), Hiyori (CV: Touyama Nao), Rei (CV: Hayami Saori)
ArtistUnicode:ユイ (CV: 種田梨沙), ヒヨリ (CV: 東山奈央), レイ (CV: 早見沙織)
Creator:Firis Mistlud
Version:Normal
Source:プリンセスコネクト!Re:Dive
Tags:KuranteMelodii krt MiyohashiKoori Princess connect redive priconne プリコネ 新春トゥインクルクライシス! Shinshun Twinkle Crisis cygames japanese video game
BeatmapID:2201295
BeatmapSetID:1012181

[Difficulty]
HPDrainRate:5
CircleSize:3.5
OverallDifficulty:5
ApproachRate:6
SliderMultiplier:1.2
SliderTickRate:1

[Events]
//Background and Video events
0,0,"6.jpg",0,0
Video,65,"twinklestars.avi"
//Break Periods
//Storyboard Layer 0 (Background)
//Storyboard Layer 1 (Fail)
//Storyboard Layer 2 (Pass)
//Storyboard Layer 3 (Foreground)
//Storyboard Layer 4 (Overlay)
//Storyboard Sound Samples

[TimingPoints]
1526,348.837209302326,4,2,1,40,1,0
1526,-100,4,2,1,40,0,0
6235,-100,4,2,2,70,0,0
6932,-100,4,2,1,70,0,0
7107,-100,4,2,1,60,0,0
9898,-100,4,2,1,60,0,0
12514,-100,4,2,1,70,0,0
13037,-100,4,2,1,40,0,0
22281,-100,4,2,1,70,0,0
22805,-100,4,2,2,70,0,0
23677,-100,4,2,1,70,0,0
35014,-100,4,2,1,50,0,0
42165,-100,4,2,1,50,0,0
47572,-100,4,2,1,80,0,1
64316,-100,4,2,1,60,0,0
85246,-100,4,2,1,5,0,0

[Colours]
Combo1 : 255,128,64
Combo2 : 7,116,197
Combo3 : 128,0,255
Combo4 : 255,128,255
Combo5 : 213,0,213
Combo6 : 219,219,0

[HitObjects]
46,323,1526,6,0,B|37:259|37:259|47:212|47:212|36:140,2,180,2|2|2,0:0|0:0|0:0,0:0:0:0:
46,323,3444,1,2,0:0:0:0:
143,252,3793,2,0,P|179:248|254:288,1,120,2|0,0:0|0:0,0:0:0:0:
292,329,4316,6,0,B|356:338|356:338|403:328|403:328|475:339,2,180,2|2|2,0:0|0:0|0:0,0:0:0:0:
292,329,6235,1,0,1:0:0:0:
375,241,6584,2,0,L|384:113,1,120,0|0,1:0|1:0,0:0:0:0:
351,69,7107,6,0,B|413:96|466:60|466:60|501:73|508:112,2,180,4|0|8,0:2|0:0|0:0,0:0:0:0:
174,32,8677,2,0,L|176:101,1,60,0|8,0:0|0:0,0:0:0:0:
171,152,9026,1,0,0:0:0:0:
57,113,9374,2,0,L|55:182,1,60,0|8,0:0|0:0,0:0:0:0:
77,291,9898,6,0,P|125:278|201:296,1,120,4|0,0:0|1:0,0:0:0:0:
252,298,10421,2,0,B|273:258|273:258|268:180,1,120,4|0,0:0|1:0,0:0:0:0:
258,124,10944,2,0,P|306:137|382:119,1,120,4|0,0:0|1:0,0:0:0:0:
418,84,11467,2,0,B|439:124|439:124|434:202,1,120,4|0,0:0|1:0,0:0:0:0:
429,258,11991,1,8,0:0:0:0:
429,258,12165,1,8,0:0:0:0:
354,352,12514,6,0,L|233:346,1,120,4|0,0:0|0:0,0:0:0:0:
189,306,13037,2,0,L|68:312,2,120,0|0|0,1:0|1:0|1:0,0:0:0:0:
224,257,13909,1,0,0:0:0:0:
275,148,14258,2,0,P|297:86|278:32,2,120
163,193,15305,6,0,P|101:171|47:190,1,120,2|0,0:0|0:0,0:0:0:0:
16,235,15828,1,0,1:0:0:0:
71,341,16177,2,0,L|190:335,1,120,0|0,1:0|1:0,0:0:0:0:
250,328,16700,1,2,0:0:0:0:
349,261,17049,1,0,0:0:0:0:
349,261,17223,2,0,P|401:277|467:248,1,120,0|0,1:0|1:0,0:0:0:0:
500,140,17921,1,0,1:0:0:0:
500,140,18095,6,0,B|474:118|474:118|376:124,1,120,2|0,0:0|0:0,0:0:0:0:
330,139,18619,2,0,L|324:17,2,120,0|0|0,1:0|1:0|0:0,0:0:0:0:
285,179,19491,2,0,B|259:201|259:201|161:195,1,120,2|0,0:0|0:0,0:0:0:0:
54,180,20188,2,0,P|30:111|55:61,1,120
155,18,20886,5,2,0:0:0:0:
258,78,21235,1,0,0:0:0:0:
258,78,21409,2,0,B|284:56|284:56|382:62,2,120,0|0|0,1:0|1:0|1:0,0:0:0:0:
280,134,22281,2,0,L|285:258,1,120,4|0,0:0|1:0,0:0:0:0:
283,314,22805,2,0,P|205:327|160:305,1,120,0|0,1:0|1:0,0:0:0:0:
123,272,23328,1,0,1:0:0:0:
62,168,23677,6,0,P|118:150|177:165,1,120,4|0,0:0|0:0,0:0:0:0:
231,188,24200,2,0,L|226:68,2,120,8|0|8,0:0|1:0|0:0,0:0:0:0:
283,217,25072,1,0,0:0:0:0:
400,192,25421,2,0,L|395:311,2,120
459,87,26467,6,0,P|402:69|344:84,1,120,2|0,0:0|0:0,0:0:0:0:
298,122,26991,1,8,0:0:0:0:
201,51,27339,2,0,P|144:68|86:54,1,120,0|8,1:0|0:0,0:0:0:0:
35,22,27863,2,0,B|41:79|41:79|38:98|38:98|44:160,1,120,2|0,0:0|0:0,0:0:0:0:
24,198,28386,2,0,P|16:258|58:310,1,120,8|0,0:0|1:0,0:0:0:0:
159,351,29084,5,8,0:0:0:0:
159,351,29258,2,0,B|250:346|250:346|276:323,1,120,2|0,0:0|0:0,0:0:0:0:
299,273,29781,2,0,L|289:147,1,120,8|0,0:0|1:0,0:0:0:0:
345,45,30479,1,8,0:0:0:0:
345,45,30653,2,0,B|436:50|436:50|462:73,1,120,2|0,0:0|0:0,0:0:0:0:
498,113,31177,2,0,L|488:232,1,120,8|0,0:0|1:0,0:0:0:0:
403,317,31874,1,8,0:0:0:0:
403,317,32049,6,0,L|268:322,1,120,2|0,0:0|0:0,0:0:0:0:
229,293,32572,2,0,L|94:298,2,120,8|0|8,0:0|1:0|0:0,0:0:0:0:
256,239,33444,1,2,0:0:0:0:
206,128,33793,1,0,0:0:0:0:
206,128,33967,2,0,L|71:133,2,120,8|0|8,0:0|1:0|0:0,0:0:0:0:
286,36,35014,6,0,P|344:92|436:68,2,180,8|8|8,0:0|0:0|0:0,0:0:0:0:
169,173,36584,1,0,1:0:0:0:
169,173,36758,2,0,L|178:301,2,120,4|0|2,0:0|0:0|0:0,0:0:0:0:
84,87,37805,6,0,P|142:31|234:55,2,180,8|8|8,0:0|0:0|0:0,0:0:0:0:
240,175,39374,1,0,1:0:0:0:
240,175,39549,2,0,L|375:169,2,120,4|0|2,0:0|0:0|0:0,0:0:0:0:
124,208,40595,6,0,B|117:281|117:281|134:318|134:318|129:383,2,180,8|8|8,0:0|0:0|0:0,0:0:0:0:
157,30,42165,1,0,1:0:0:0:
157,30,42339,2,0,L|22:24,2,120,4|0|8,0:0|1:0|0:0,0:0:0:0:
248,113,43386,6,0,B|268:144|268:144|262:233,1,120,4|0,0:0|1:0,0:0:0:0:
250,285,43909,2,0,B|281:265|281:265|370:271,1,120,12|0,0:0|1:0,0:0:0:0:
423,277,44432,1,12,0:0:0:0:
256,192,44607,12,8,46177,0:0:0:0:
443,16,47572,6,0,P|429:73|444:131,1,120,6|8,1:2|0:0,0:0:0:0:
493,167,48095,1,2,0:0:0:0:
446,277,48444,2,0,B|393:272|393:272|381:263|381:263|321:255,1,120,2|0,0:0|0:0,0:0:0:0:
279,289,48967,1,2,1:2:0:0:
170,345,49316,1,8,0:0:0:0:
170,345,49491,2,0,P|156:288|172:231,1,120,2|2,0:0|0:0,0:0:0:0:
215,188,50014,1,10,0:0:0:0:
187,71,50363,6,0,L|66:76,1,120,2|8,1:2|0:0,0:0:0:0:
12,51,50886,2,0,B|39:88|39:88|43:168,1,120,2|0,0:0|0:0,0:0:0:0:
42,222,51409,1,10,0:0:0:0:
46,341,51758,2,0,P|93:355|160:317,1,120,0|8,1:0|0:0,0:0:0:0:
195,281,52281,2,0,P|242:267|309:305,1,120,0|2,1:2|1:2,0:0:0:0:
339,345,52805,1,10,0:0:0:0:
439,279,53153,6,0,L|432:156,1,120,6|8,1:2|0:0,0:0:0:0:
454,102,53677,2,0,P|403:130|345:117,1,120,2|2,0:0|0:0,0:0:0:0:
254,40,54374,1,0,0:0:0:0:
254,40,54549,2,0,L|247:163,1,120,2|8,1:2|0:0,0:0:0:0:
269,217,55072,2,0,P|218:188|160:201,1,120,2|0,0:0|0:0,0:0:0:0:
123,248,55595,1,10,0:0:0:0:
184,351,55944,6,0,L|307:358,1,120,2|10,1:2|0:0,0:0:0:0:
336,307,56467,2,0,L|459:300,1,120,2|2,0:0|0:0,0:0:0:0:
509,327,56991,1,10,0:2:0:0:
455,219,57339,1,0,1:0:0:0:
455,219,57514,2,0,P|436:165|444:92,1,120,0|0,1:0|1:0,0:0:0:0:
477,56,58037,2,0,L|334:65,1,120,2|10,1:2|0:0,0:0:0:0:
241,97,58735,6,0,P|187:78|114:86,1,120,6|8,1:2|0:0,0:0:0:0:
77,119,59258,1,2,0:0:0:0:
1,212,59607,2,0,L|13:340,1,120,2|0,0:0|0:0,0:0:0:0:
65,360,60130,1,0,1:0:0:0:
148,273,60479,1,8,0:0:0:0:
148,273,60653,2,0,P|202:254|275:262,1,120,2|2,0:0|0:0,0:0:0:0:
306,300,61177,1,10,0:0:0:0:
411,357,61526,6,0,B|431:329|431:329|424:240,1,120,2|10,1:2|0:0,0:0:0:0:
370,217,62049,2,0,B|350:189|350:189|357:100,1,120,2|0,0:0|0:0,0:0:0:0:
363,43,62572,1,10,0:0:0:0:
480,16,62921,2,0,L|473:82,1,60,0|2,1:0|0:0,0:0:0:0:
504,127,63270,2,0,L|495:246,1,120,4|0,0:0|1:0,0:0:0:0:
489,306,63793,1,2,1:2:0:0:
489,306,63967,1,8,0:0:0:0:
390,237,64316,6,0,B|320:214|252:230|327:253|221:289|160:249,1,240,4|8,0:0|0:0,0:0:0:0:
5,161,65537,2,0,L|-1:27,2,120,2|8|2,1:2|0:0|1:2,0:0:0:0:
7,221,66409,1,8,0:0:0:0:
182,259,66932,6,0,L|176:393,2,120,6|8|0,1:2|0:0|1:0,0:0:0:0:
210,206,67805,1,8,0:0:0:0:
210,206,67979,2,0,L|212:132,1,60,2|2,0:0|1:2,0:0:0:0:
183,92,68328,1,4,0:0:0:0:
183,92,69549,1,8,0:0:0:0:
291,40,69898,6,0,P|351:28|440:110,2,180,4|0|8,0:2|0:0|0:0,0:0:0:0:
178,180,71467,2,0,L|176:250,1,60,0|8,0:0|0:0,0:0:0:0:
147,292,71816,1,0,0:0:0:0:
259,334,72165,2,0,L|393:340,1,120
433,364,72688,6,0,B|466:332|466:332|473:176,2,180,0|0|8,1:2|0:0|0:0,0:0:0:0:
290,253,74258,2,0,L|294:187,1,60,0|8,0:0|0:0,0:0:0:0:
354,89,74781,2,0,P|303:110|235:89,1,120,2|8,0:0|0:0,0:0:0:0:
202,48,75305,1,0,1:0:0:0:
202,48,75479,6,0,P|142:28|54:102,2,180,4|0|8,1:2|0:0|0:0,0:0:0:0:
254,156,76874,2,0,L|248:280,1,120,4|0,1:2|1:0,0:0:0:0:
218,328,77398,1,0,1:0:0:0:
332,361,77746,2,0,L|401:358,1,60,0|0,1:0|1:0,0:0:0:0:
468,265,78270,6,0,P|409:275|354:253,1,120,4|0,0:0|1:0,0:0:0:0:
315,208,78793,2,0,B|334:181|334:181|330:67,1,120,4|0,0:0|1:0,0:0:0:0:
317,35,79316,2,0,P|259:24|204:46,1,120,4|0,0:0|1:0,0:0:0:0:
159,87,79839,2,0,B|178:114|178:114|174:228,1,120,4|0,0:0|1:0,0:0:0:0:
142,251,80363,1,8,0:0:0:0:
142,251,80537,1,8,0:0:0:0:
256,192,83328,12,0,85246,0:0:0:0:
