osu file format v14

[General]
AudioFilename: audio.mp3
AudioLeadIn: 0
PreviewTime: 46613
Countdown: 0
SampleSet: Soft
StackLeniency: 0.7
Mode: 0
LetterboxInBreaks: 0
WidescreenStoryboard: 0

[Editor]
DistanceSpacing: 0.2
BeatDivisor: 4
GridSize: 4
TimelineZoom: 1.9

[Metadata]
Title:TwinkleStars
TitleUnicode:TwinkleStars
Artist:Yui (CV: Taneda Risa), Hiyori (CV: Touyama Nao), Rei (CV: Hayami Saori)
ArtistUnicode:ユイ (CV: 種田梨沙), ヒヨリ (CV: 東山奈央), レイ (CV: 早見沙織)
Creator:Firis Mistlud
Version:Hard
Source:プリンセスコネクト!Re:Dive
Tags:KuranteMelodii krt MiyohashiKoori Princess connect redive priconne プリコネ 新春トゥインクルクライシス! Shinshun Twinkle Crisis cygames japanese video game
BeatmapID:2201294
BeatmapSetID:1012181

[Difficulty]
HPDrainRate:6
CircleSize:4
OverallDifficulty:6
ApproachRate:8
SliderMultiplier:1.5
SliderTickRate:1

[Events]
//Background and Video events
0,0,"6.jpg",0,0
Video,65,"twinklestars.avi"
//Break Periods
//Storyboard Layer 0 (Background)
//Storyboard Layer 1 (Fail)
//Storyboard Layer 2 (Pass)
//Storyboard Layer 3 (Foreground)
//Storyboard Layer 4 (Overlay)
//Storyboard Sound Samples

[TimingPoints]
1526,348.837209302326,4,2,1,40,1,0
1526,-133.333333333333,4,2,1,40,0,0
6235,-100,4,2,2,70,0,0
6932,-100,4,2,1,70,0,0
7107,-100,4,2,1,60,0,0
9898,-100,4,2,1,60,0,0
12514,-133.333333333333,4,2,1,70,0,0
13037,-133.333333333333,4,2,1,40,0,0
22281,-100,4,2,1,70,0,0
22805,-100,4,2,2,70,0,0
23677,-100,4,2,1,70,0,0
35014,-133.333333333333,4,2,1,50,0,0
42165,-100,4,2,1,50,0,0
47572,-90.9090909090909,4,2,1,80,0,1
64316,-100,4,2,1,60,0,0
85246,-100,4,2,1,5,0,0

[Colours]
Combo1 : 255,128,64
Combo2 : 7,116,197
Combo3 : 128,0,255
Combo4 : 255,128,255
Combo5 : 213,0,213
Combo6 : 219,219,0

[HitObjects]
39,181,1526,6,0,L|44:259,1,56.2500021457673,2|0,0:0|0:0,0:0:0:0:
43,248,1787,1,0,0:0:0:0:
43,259,1874,1,0,0:0:0:0:
94,314,2049,1,2,0:0:0:0:
155,267,2223,2,0,P|194:261|229:270,2,56.2500021457673,0|0|2,0:0|0:0|0:0,0:0:0:0:
190,339,2746,6,0,B|238:339|238:339|267:327|267:327|316:326,1,112.500004291535
373,368,3270,1,0,0:0:0:0:
443,317,3444,2,0,L|440:252,1,56.2500021457673,2|0,0:0|0:0,0:0:0:0:
490,203,3793,2,0,P|450:212|375:166,1,112.500004291535,2|0,0:0|0:0,0:0:0:0:
345,119,4316,6,0,L|350:41,1,56.2500021457673,2|0,0:0|0:0,0:0:0:0:
349,52,4578,1,0,0:0:0:0:
349,41,4665,1,0,0:0:0:0:
271,78,4839,2,0,L|268:121,2,28.1250010728836,2|0|0,0:0|0:0|0:0,0:0:0:0:
197,41,5188,2,0,L|193:97,1,56.2500021457673,0|2,0:0|0:0,0:0:0:0:
223,172,5537,6,0,P|179:152|106:158,1,112.500004291535
43,190,6060,1,0,0:0:0:0:
79,84,6235,5,0,1:0:0:0:
79,84,6584,2,0,B|95:52|125:64|125:64|95:108|124:179,1,150,0|0,1:0|1:0,0:0:0:0:
223,172,7107,6,0,L|306:168,1,75,4|0,1:2|0:0,0:0:0:0:
312,168,7369,1,0,0:0:0:0:
326,167,7456,2,0,P|339:208|326:251,1,75,8|0,0:0|0:0,0:0:0:0:
286,299,7805,1,2,0:0:0:0:
364,310,7979,2,0,L|447:306,1,75,0|8,0:0|0:0,0:0:0:0:
490,371,8328,6,0,B|486:310|486:310|492:274|492:274|487:206,1,150
427,167,8851,1,8,0:0:0:0:
438,92,9026,2,0,L|521:88,1,75,0|2,0:0|0:0,0:0:0:0:
444,17,9374,2,0,P|401:27|369:122,1,150
413,244,9898,6,0,L|338:247,1,75,4|0,0:0|1:0,0:0:0:0:
331,252,10159,1,0,1:0:0:0:
324,256,10246,1,0,1:0:0:0:
225,208,10421,2,0,P|216:165|231:122,1,75,4|0,0:0|1:0,0:0:0:0:
227,129,10682,1,0,1:0:0:0:
231,122,10770,1,0,1:0:0:0:
305,33,10944,6,0,L|230:29,1,75,4|0,0:0|1:0,0:0:0:0:
223,25,11206,1,0,1:0:0:0:
216,21,11293,1,0,1:0:0:0:
129,93,11467,2,0,P|120:136|135:179,1,75,4|0,0:0|1:0,0:0:0:0:
131,172,11729,1,0,1:0:0:0:
135,179,11816,1,0,1:0:0:0:
183,268,11991,5,8,0:0:0:0:
90,361,12165,1,8,0:0:0:0:
90,361,12514,6,0,L|100:234,1,112.500004291535,4|0,0:0|0:0,0:0:0:0:
135,179,13037,2,0,P|165:177|202:196,1,56.2500021457673,0|0,1:0|0:0,0:0:0:0:
261,171,13386,2,0,P|263:201|244:238,1,56.2500021457673,0|0,1:0|0:0,0:0:0:0:
183,268,13735,1,0,1:0:0:0:
183,268,13909,6,0,P|246:308|296:297,1,112.500004291535
331,243,14432,1,0,1:0:0:0:
331,243,14607,2,0,P|394:203|444:214,1,112.500004291535
501,364,15305,6,0,B|476:328|476:328|488:235,1,112.500004291535,2|0,0:0|0:0,0:0:0:0:
500,183,15828,1,0,1:0:0:0:
500,183,16002,2,0,L|508:122,2,56.2500021457673,0|0|0,0:0|1:0|0:0,0:0:0:0:
428,207,16526,1,0,1:0:0:0:
364,155,16700,6,0,L|374:39,1,112.500004291535,2|0,0:0|0:0,0:0:0:0:
295,61,17223,2,0,L|228:56,1,56.2500021457673,0|0,1:0|0:0,0:0:0:0:
173,15,17572,2,0,P|123:68|73:57,1,112.500004291535,0|0,1:0|1:0,0:0:0:0:
27,24,18095,6,0,B|52:60|52:60|40:153,1,112.500004291535,2|0,0:0|0:0,0:0:0:0:
2,195,18619,2,0,L|64:201,1,56.2500021457673,0|0,1:0|0:0,0:0:0:0:
125,229,18967,2,0,B|132:208|132:208|128:175,2,56.2500021457673,0|0|0,1:0|0:0|0:0,0:0:0:0:
63,275,19491,6,0,B|38:311|38:311|50:404,1,112.500004291535,2|0,0:0|0:0,0:0:0:0:
119,331,20014,1,0,1:0:0:0:
119,331,20188,2,0,L|240:320,1,112.500004291535
368,231,20886,6,0,P|322:260|314:328,1,112.500004291535,2|0,0:0|0:0,0:0:0:0:
370,359,21409,2,0,L|490:348,1,112.500004291535,0|0,1:0|1:0,0:0:0:0:
512,273,21932,1,0,0:0:0:0:
512,273,22107,1,0,1:0:0:0:
429,180,22281,6,0,B|424:118|424:118|436:79|436:79|428:20,1,150,4|0,0:0|1:0,0:0:0:0:
363,69,22805,2,0,P|322:71|285:52,1,75,0|0,1:0|0:0,0:0:0:0:
224,16,23153,1,0,1:0:0:0:
238,116,23328,1,0,1:0:0:0:
238,116,23677,6,0,P|156:112|82:150,1,150,4|0,0:0|0:0,0:0:0:0:
17,110,24200,2,0,L|24:194,1,75,8|0,0:0|0:0,0:0:0:0:
95,216,24549,2,0,L|88:300,1,75,0|0,1:0|0:0,0:0:0:0:
37,351,24898,1,8,0:0:0:0:
139,349,25072,6,0,B|178:335|227:345|206:362|232:366|288:357,1,150
336,300,25595,1,8,0:0:0:0:
336,300,25770,2,0,P|363:328|397:334,1,75,0|0,0:0|1:0,0:0:0:0:
468,297,26119,2,0,P|478:259|466:227,1,75,0|8,0:0|0:0,0:0:0:0:
391,141,26467,6,0,B|446:170|494:152|494:152|483:123|490:99,1,150,2|0,0:0|0:0,0:0:0:0:
488,33,26991,2,0,P|446:46|417:84,1,75,8|0,0:0|0:0,0:0:0:0:
349,75,27339,1,0,1:0:0:0:
349,75,27514,2,0,L|351:-3,1,75,0|8,0:0|0:0,0:0:0:0:
273,62,27863,6,0,B|229:52|183:64|205:74|174:89|122:78,1,150,2|0,0:0|0:0,0:0:0:0:
72,28,28386,1,8,0:0:0:0:
179,154,28735,1,0,1:0:0:0:
179,154,28909,2,0,L|178:232,1,75,0|8,0:0|0:0,0:0:0:0:
196,322,29258,6,0,P|162:354|68:328,1,150,2|0,0:0|0:0,0:0:0:0:
130,286,29781,1,8,0:0:0:0:
130,286,29956,2,0,P|164:254|258:280,1,150
314,325,30479,1,8,0:0:0:0:
316,322,30653,6,0,P|350:354|444:328,1,150,2|0,0:0|0:0,0:0:0:0:
382,286,31177,1,8,0:0:0:0:
382,286,31351,2,0,P|348:254|254:280,1,150
196,322,31874,1,8,0:0:0:0:
186,219,32049,6,0,L|183:115,1,75,2|0,0:0|1:0,0:0:0:0:
181,68,32398,1,0,0:0:0:0:
181,68,32485,1,0,0:0:0:0:
181,68,32572,2,0,B|139:63|139:63|100:76,2,75,8|0|0,0:0|0:0|1:0,0:0:0:0:
253,100,33095,2,0,B|295:105|295:105|334:92,1,75,0|8,0:0|0:0,0:0:0:0:
420,18,33444,6,0,B|481:9|481:9|515:60|485:111,1,150,2|0,0:0|0:0,0:0:0:0:
454,162,33967,2,0,L|368:154,1,75,8|0,0:0|0:0,0:0:0:0:
304,177,34316,2,0,P|294:213|311:259,2,75,0|0|8,1:0|1:0|0:0,0:0:0:0:
448,344,35014,5,8,0:0:0:0:
379,155,35537,1,8,0:0:0:0:
250,308,36060,1,8,0:0:0:0:
452,218,36584,5,0,1:0:0:0:
452,218,36758,2,0,L|457:137,1,56.2500021457673,4|0,0:0|0:0,0:0:0:0:
429,94,37107,1,0,0:0:0:0:
429,94,37281,2,0,B|461:88|461:88|487:96,2,56.2500021457673,0|2|0,1:0|0:0|1:0,0:0:0:0:
346,45,37805,5,8,0:0:0:0:
277,234,38328,1,8,0:0:0:0:
148,81,38851,1,8,0:0:0:0:
327,300,39374,6,0,L|395:295,2,56.2500021457673,0|4|0,1:0|0:0|0:0,0:0:0:0:
250,308,39898,2,0,L|182:303,1,56.2500021457673,0|0,0:0|1:0,0:0:0:0:
119,296,40246,1,2,0:0:0:0:
304,374,40595,6,0,L|421:367,1,112.500004291535,8|0,0:0|0:0,0:0:0:0:
461,301,41119,2,0,P|472:252|448:173,1,112.500004291535,8|0,0:0|1:0,0:0:0:0:
401,143,41642,1,8,0:0:0:0:
453,7,42165,5,0,1:0:0:0:
453,7,42339,2,0,L|448:91,1,75,4|0,0:0|0:0,0:0:0:0:
401,143,42688,1,0,1:0:0:0:
374,69,42863,1,0,1:0:0:0:
374,69,42950,1,0,1:0:0:0:
374,69,43037,2,0,P|334:57|293:73,1,75,8|0,0:0|1:0,0:0:0:0:
197,30,43386,6,0,L|207:114,1,75,4|0,0:0|0:0,0:0:0:0:
201,110,43648,1,0,0:0:0:0:
197,116,43735,1,0,1:0:0:0:
122,67,43909,2,0,P|85:60|14:147,1,150,12|0,0:0|1:0,0:0:0:0:
28,217,44432,1,12,0:0:0:0:
28,217,44781,5,0,0:0:0:0:
43,296,44956,2,0,L|195:290,1,150,2|0,0:0|0:0,0:0:0:0:
253,246,45479,2,0,P|267:281|261:327,1,75,0|2,1:0|0:0,0:0:0:0:
196,362,45828,2,0,L|137:365,2,50,0|0|0,1:0|1:0|1:0,0:0:0:0:
213,376,46177,1,8,0:0:0:0:
327,366,46351,5,8,0:0:0:0:
327,366,46700,2,0,L|406:357,1,75,2|2,0:0|0:0,0:0:0:0:
430,287,47049,2,0,L|509:296,2,75,2|2|2,0:0|0:0|0:0,0:0:0:0:
333,276,47572,6,0,P|326:225|341:183,1,82.5000025177003,6|0,1:2|0:0,0:0:0:0:
376,129,47921,1,8,0:0:0:0:
376,129,48095,2,0,L|467:122,1,82.5000025177003,2|0,0:0|1:0,0:0:0:0:
511,65,48444,2,0,B|475:48|475:48|324:59,1,165.000005035401
255,97,48967,6,0,B|207:103|160:87|188:71|142:55|91:64,1,165.000005035401,2|8,1:2|0:0,0:0:0:0:
22,80,49491,2,0,L|27:165,1,82.5000025177003,2|0,0:0|1:0,0:0:0:0:
95,208,49839,1,2,0:0:0:0:
95,208,50014,2,0,L|90:293,1,82.5000025177003,10|2,0:0|0:0,0:0:0:0:
12,352,50363,6,0,P|114:310|159:344,1,165.000005035401,2|8,1:2|0:0,0:0:0:0:
197,266,50886,2,0,P|299:308|344:274,1,165.000005035401,2|0,0:0|0:0,0:0:0:0:
414,312,51409,2,0,L|406:229,1,82.5000025177003,10|0,0:0|0:0,0:0:0:0:
435,130,51758,6,0,P|483:119|514:131,2,82.5000025177003,0|0|8,1:0|0:0|0:0,0:0:0:0:
365,160,52281,2,0,B|326:185|280:178|250:151|250:151|274:160|301:150,1,165.000005035401,0|2,1:2|1:2,0:0:0:0:
275,80,52805,1,10,0:0:0:0:
275,80,52979,1,0,0:0:0:0:
197,8,53153,6,0,B|207:129|207:129|167:174,1,165.000005035401,6|8,1:2|0:0,0:0:0:0:
132,97,53677,2,0,B|20:88|20:88|54:128,1,165.000005035401,2|0,0:0|0:0,0:0:0:0:
105,186,54200,1,8,0:0:0:0:
9,352,54549,6,0,B|-1:231|-1:231|39:186,1,165.000005035401,2|8,1:2|0:0,0:0:0:0:
73,263,55072,2,0,B|131:261|131:261|170:244|170:244|238:241,1,165.000005035401,2|0,0:0|0:0,0:0:0:0:
299,287,55595,2,0,L|305:373,1,82.5000025177003,10|0,0:0|0:0,0:0:0:0:
380,290,55944,6,0,B|414:267|470:275|488:313|488:313|464:334|437:326,1,165.000005035401,2|10,1:2|0:0,0:0:0:0:
380,290,56467,2,0,P|321:289|362:211,1,165.000005035401,2|2,0:0|0:0,0:0:0:0:
427,224,56991,2,0,P|412:181|417:131,1,82.5000025177003,10|0,0:2|0:0,0:0:0:0:
430,51,57339,6,0,L|517:46,2,82.5000025177003,0|0|8,1:0|1:0|0:0,0:0:0:0:
356,93,57863,1,0,1:0:0:0:
356,93,58037,2,0,L|273:88,1,82.5000025177003,2|0,1:2|1:2,0:0:0:0:
265,87,58299,1,0,1:0:0:0:
256,86,58386,1,10,0:0:0:0:
197,37,58560,1,2,1:2:0:0:
197,37,58648,1,0,1:0:0:0:
197,37,58735,6,0,P|181:85|200:137,1,82.5000025177003,6|0,1:2|0:0,0:0:0:0:
252,167,59084,1,8,0:0:0:0:
252,167,59258,2,0,L|256:249,1,82.5000025177003,2|0,0:0|1:0,0:0:0:0:
211,312,59607,2,0,P|158:320|206:253,1,165.000005035401
283,316,60130,6,0,B|346:314|346:314|380:336|380:336|448:335,1,165.000005035401,0|8,1:0|0:0,0:0:0:0:
509,303,60653,2,0,P|499:372|441:335,1,165.000005035401,2|2,0:0|0:0,0:0:0:0:
446,257,61177,2,0,L|449:172,1,82.5000025177003,10|0,0:0|0:0,0:0:0:0:
512,98,61526,6,0,P|473:87|429:95,1,82.5000025177003,2|0,1:2|0:0,0:0:0:0:
373,144,61874,1,10,0:0:0:0:
302,100,62049,2,0,L|305:15,1,82.5000025177003,2|0,0:0|1:0,0:0:0:0:
229,59,62398,1,0,0:0:0:0:
162,17,62572,1,10,0:0:0:0:
95,60,62746,6,0,L|98:145,1,82.5000025177003,2|0,0:0|1:0,0:0:0:0:
102,217,63095,1,2,0:0:0:0:
187,158,63270,2,0,B|217:190|217:190|220:313,1,165.000005035401,4|0,0:0|1:0,0:0:0:0:
155,356,63793,1,2,1:2:0:0:
155,356,63967,1,8,0:0:0:0:
372,259,64316,6,0,B|405:260|436:248|437:216|437:216|403:182|357:167|314:209,1,225,4|0,0:0|1:0,0:0:0:0:
294,280,65014,1,8,0:0:0:0:
294,280,65188,2,0,L|295:360,1,75,2|0,0:0|0:0,0:0:0:0:
223,263,65537,6,0,P|173:245|93:309,1,150,2|8,1:2|0:0,0:0:0:0:
67,364,66060,1,2,0:0:0:0:
97,294,66235,2,0,P|111:248|47:168,1,150,2|0,1:2|0:0,0:0:0:0:
0,121,66758,1,2,0:0:0:0:
99,65,66932,6,0,B|159:66|159:66|185:83|185:83|266:84,2,150,6|8|0,1:2|0:0|1:0,0:0:0:0:
34,25,67805,1,8,0:0:0:0:
34,25,67979,2,0,P|23:77|38:112,1,75,2|2,0:0|1:2,0:0:0:0:
95,198,68328,6,0,B|127:219|137:292|91:321|81:282|35:322|26:375|26:375|-17:339|-11:256|25:230,1,375,4|0,0:0|0:0,0:0:0:0:
84,191,69374,1,0,1:0:0:0:
211,185,69549,1,8,0:0:0:0:
211,185,69898,6,0,P|220:229|208:268,1,75,4|0,0:2|0:0,0:0:0:0:
208,263,70159,1,0,0:0:0:0:
203,269,70246,1,8,0:0:0:0:
135,296,70421,1,0,0:0:0:0:
199,345,70595,2,0,L|275:340,2,75,2|0|8,0:0|0:0|0:0,0:0:0:0:
127,370,71119,6,0,P|70:333|93:235,1,150
123,191,71642,1,8,0:0:0:0:
48,176,71816,2,0,L|57:93,1,75,0|2,0:0|0:0,0:0:0:0:
29,25,72165,2,0,B|87:32|87:32|117:53|117:53|177:58,1,150
234,120,72688,6,0,P|278:111|317:123,1,75,0|0,1:2|0:0,0:0:0:0:
311,123,72950,1,0,0:0:0:0:
317,128,73037,1,8,0:0:0:0:
387,90,73212,2,0,L|391:46,2,37.5,0|0|2,0:0|0:0|0:0,0:0:0:0:
456,137,73560,2,0,L|452:218,1,75,0|8,0:0|0:0,0:0:0:0:
500,282,73909,2,0,P|465:267|366:305,1,150
329,368,74432,1,8,0:0:0:0:
209,193,74781,6,0,L|117:198,1,75,2|0,0:0|1:0,0:0:0:0:
126,197,75043,1,0,1:0:0:0:
118,197,75130,1,8,0:0:0:0:
42,155,75305,1,0,1:0:0:0:
42,155,75392,1,0,0:0:0:0:
42,155,75479,6,0,P|28:106|41:72,1,75,4|0,1:2|0:0,0:0:0:0:
39,78,75741,1,0,0:0:0:0:
44,72,75828,1,8,0:0:0:0:
103,113,76002,1,0,0:0:0:0:
174,78,76177,2,0,L|173:-8,2,75,2|0|8,0:0|0:0|0:0,0:0:0:0:
245,142,76700,1,0,0:0:0:0:
245,142,76787,1,0,0:0:0:0:
245,142,76874,6,0,L|248:265,1,112.5,4|0,1:2|0:0,0:0:0:0:
247,292,77223,2,0,L|299:295,3,37.5,0|0|0|0,1:0|1:0|1:0|1:0,0:0:0:0:
317,275,77572,2,0,L|369:272,3,37.5,0|0|0|0,1:0|1:0|1:0|1:0,0:0:0:0:
386,292,77921,2,0,L|438:295,3,37.5,0|0|0|0,1:0|1:0|1:0|1:0,0:0:0:0:
452,269,78270,6,0,P|465:223|450:188,1,75,4|0,0:0|1:0,0:0:0:0:
452,192,78531,1,0,1:0:0:0:
447,186,78619,1,0,1:0:0:0:
488,98,78793,2,0,L|400:105,1,75,4|0,0:0|1:0,0:0:0:0:
405,104,79055,1,0,1:0:0:0:
397,104,79142,1,0,1:0:0:0:
302,60,79316,6,0,P|315:106|300:141,1,75,4|0,0:0|1:0,0:0:0:0:
302,137,79578,1,0,1:0:0:0:
297,143,79665,1,0,1:0:0:0:
338,231,79839,2,0,L|250:224,1,75,4|0,0:0|1:0,0:0:0:0:
255,225,80101,1,0,1:0:0:0:
247,225,80188,1,0,1:0:0:0:
159,169,80363,5,8,0:0:0:0:
77,267,80537,1,8,0:0:0:0:
256,192,83328,12,0,85246,0:0:0:0:
