osu file format v14

[General]
AudioFilename: audio.mp3
AudioLeadIn: 0
PreviewTime: 46613
Countdown: 0
SampleSet: Soft
StackLeniency: 0.7
Mode: 0
LetterboxInBreaks: 0
WidescreenStoryboard: 1

[Editor]
DistanceSpacing: 1
BeatDivisor: 2
GridSize: 4
TimelineZoom: 1.9

[Metadata]
Title:TwinkleStars
TitleUnicode:TwinkleStars
Artist:Yui (CV: Taneda Risa), Hiyori (CV: Touyama Nao), Rei (CV: Hayami Saori)
ArtistUnicode:ユイ (CV: 種田梨沙), ヒヨリ (CV: 東山奈央), レイ (CV: 早見沙織)
Creator:Firis Mistlud
Version:Easy
Source:プリンセスコネクト!Re:Dive
Tags:KuranteMelodii krt MiyohashiKoori Princess connect redive priconne プリコネ 新春トゥインクルクライシス! Shinshun Twinkle Crisis cygames japanese video game
BeatmapID:2202304
BeatmapSetID:1012181

[Difficulty]
HPDrainRate:2
CircleSize:3
OverallDifficulty:2
ApproachRate:3
SliderMultiplier:0.8
SliderTickRate:1

[Events]
//Background and Video events
0,0,"6.jpg",0,0
Video,65,"twinklestars.avi"
//Break Periods
//Storyboard Layer 0 (Background)
//Storyboard Layer 1 (Fail)
//Storyboard Layer 2 (Pass)
//Storyboard Layer 3 (Foreground)
//Storyboard Layer 4 (Overlay)
//Storyboard Sound Samples

[TimingPoints]
1526,348.837209302326,4,2,1,40,1,0
1526,-100,4,2,1,40,0,0
6235,-100,4,2,2,70,0,0
6932,-100,4,2,1,70,0,0
7107,-100,4,2,1,60,0,0
9898,-100,4,2,1,60,0,0
12514,-100,4,2,1,70,0,0
13037,-100,4,2,1,40,0,0
22281,-100,4,2,1,70,0,0
22805,-100,4,2,2,70,0,0
23677,-100,4,2,1,70,0,0
35014,-100,4,2,1,50,0,0
42165,-100,4,2,1,50,0,0
47572,-100,4,2,1,80,0,1
64316,-100,4,2,1,60,0,0
85246,-100,4,2,1,5,0,0

[Colours]
Combo1 : 255,128,64
Combo2 : 7,116,197
Combo3 : 128,0,255
Combo4 : 255,128,255
Combo5 : 213,0,213
Combo6 : 219,219,0

[HitObjects]
162,358,1526,6,0,P|103:378|51:341,2,120,2|2|2,0:0|0:0|0:0,0:0:0:0:
218,166,3444,2,0,P|255:145|295:160,1,80,2|2,0:0|0:0,0:0:0:0:
359,251,4316,6,0,P|418:271|470:234,2,120,2|2|2,0:0|0:0|0:0,0:0:0:0:
303,59,6235,2,0,P|266:38|226:53,1,80,0|0,1:0|1:0,0:0:0:0:
132,115,7107,6,0,L|135:201,1,80,4|8,0:2|0:0,0:0:0:0:
160,271,7805,2,0,L|74:274,1,80,2|8,0:0|0:0,0:0:0:0:
19,221,8502,2,0,P|12:195|27:139,2,80,0|8|2,1:0|0:0|0:0,0:0:0:0:
3,299,9549,1,8,0:0:0:0:
54,360,9898,6,0,L|187:355,1,120,4|4,0:0|0:0,0:0:0:0:
250,263,10944,2,0,L|383:268,1,120,4|4,0:0|0:0,0:0:0:0:
468,336,11991,1,8,0:0:0:0:
506,222,12514,6,0,P|485:167|422:159,1,120,4|0,0:0|1:0,0:0:0:0:
353,179,13386,2,0,L|257:175,1,80,0|0,1:0|1:0,0:0:0:0:
194,84,14258,2,0,P|154:75|113:86,2,80
156,154,15305,6,0,L|161:278,1,120,2|0,0:0|1:0,0:0:0:0:
129,347,16177,1,0,1:0:0:0:
240,302,16700,2,0,B|323:302|285:338|369:334,1,120,2|0,0:0|1:0,0:0:0:0:
423,296,17572,1,0,1:0:0:0:
501,205,18095,6,0,L|491:76,1,120,2|0,0:0|1:0,0:0:0:0:
433,29,18967,1,0,1:0:0:0:
318,67,19491,2,0,B|262:79|222:65|253:47|199:34|137:59,1,160,2|0,0:0|0:0,0:0:0:0:
95,92,20537,1,0,0:0:0:0:
29,45,20886,6,0,P|12:92|46:161,1,120,2|0,0:0|1:0,0:0:0:0:
115,171,21758,1,0,1:0:0:0:
67,280,22281,2,0,L|199:273,1,120,4|0,0:0|1:0,0:0:0:0:
257,311,23153,1,0,1:0:0:0:
278,192,23677,6,0,P|325:172|392:201,1,120,4|8,0:0|0:0,0:0:0:0:
429,262,24549,1,0,1:0:0:0:
505,169,25072,2,0,B|513:130|513:130|503:82,2,80,2|0|2,0:0|0:0|0:0,0:0:0:0:
432,133,26119,1,2,0:0:0:0:
432,53,26467,6,0,B|386:55|386:55|360:70|360:70|300:74,1,120,2|10,0:0|0:0,0:0:0:0:
236,80,27339,1,2,1:2:0:0:
121,42,27863,2,0,B|140:80|140:80|135:168,1,120,2|8,0:0|0:0,0:0:0:0:
129,237,28735,1,0,1:0:0:0:
83,347,29258,6,0,P|145:318|206:323,1,120,2|8,0:0|0:0,0:0:0:0:
263,361,30130,1,0,1:0:0:0:
325,258,30653,2,0,P|387:287|448:282,1,120,2|8,0:0|0:0,0:0:0:0:
505,244,31526,2,0,L|509:154,1,80,0|8,1:0|0:0,0:0:0:0:
477,90,32223,6,0,P|423:82|384:97,1,80,0|8,1:0|0:0,0:0:0:0:
336,137,32921,2,0,P|282:145|243:130,1,80,0|8,1:0|0:0,0:0:0:0:
183,108,33619,2,0,L|186:25,2,80,0|8|0,1:0|0:0|1:0,0:0:0:0:
117,153,34665,1,8,0:0:0:0:
151,225,35014,6,0,P|85:228|41:168,2,120,8|8|8,0:0|0:0|0:0,0:0:0:0:
258,106,36758,2,0,L|254:22,2,80,4|0|2,0:0|0:0|0:0,0:0:0:0:
315,162,37805,6,0,P|381:159|425:219,2,120,8|8|8,0:0|0:0|0:0,0:0:0:0:
208,281,39549,2,0,L|212:365,2,80,4|0|2,0:0|0:0|0:0,0:0:0:0:
151,225,40595,6,0,P|85:228|41:168,2,120,8|8|8,0:0|0:0|0:0,0:0:0:0:
294,153,42339,2,0,L|381:152,2,80,4|0|8,0:0|1:0|0:0,0:0:0:0:
215,134,43386,6,0,P|192:85|233:22,2,120,4|12|12,0:0|0:0|0:0,0:0:0:0:
256,192,44607,12,8,46177,0:0:0:0:
505,34,47572,6,0,L|424:34,1,80,6|8,1:2|0:0,0:0:0:0:
344,34,48270,2,0,P|330:80|341:116,1,80,0|8,1:0|0:0,0:0:0:0:
398,161,48967,2,0,L|395:243,2,80,2|8|0,1:2|0:0|1:0,0:0:0:0:
463,114,50014,1,10,0:0:0:0:
484,191,50363,6,0,L|481:273,1,80,2|8,1:2|0:0,0:0:0:0:
416,318,51060,2,0,P|369:319|338:298,1,80,0|10,1:0|0:0,0:0:0:0:
280,250,51758,2,0,P|233:249|202:270,1,80,0|8,1:0|0:0,0:0:0:0:
170,337,52456,1,0,1:2:0:0:
98,300,52805,1,10,0:0:0:0:
133,228,53153,6,0,L|127:91,2,120,6|2|8,1:2|0:0|0:0,0:0:0:0:
53,235,54549,2,0,L|47:372,2,120,2|2|10,1:2|0:0|0:0,0:0:0:0:
47,155,55944,6,0,P|35:100|66:38,2,120,2|2|10,1:2|0:0|0:2,0:0:0:0:
121,183,57339,2,0,L|209:173,1,80,0|8,1:0|0:0,0:0:0:0:
265,127,58037,2,0,L|353:137,1,80,2|10,1:2|0:0,0:0:0:0:
415,98,58735,6,0,B|425:140|425:140|416:184,1,80,6|8,1:2|0:0,0:0:0:0:
349,218,59432,2,0,B|339:260|339:260|348:304,1,80,0|8,1:0|0:0,0:0:0:0:
394,360,60130,2,0,L|477:355,2,80,0|8|0,1:0|0:0|1:0,0:0:0:0:
314,372,61177,1,10,0:0:0:0:
245,329,61526,6,0,B|195:335|195:335|165:347|165:347|114:352,2,120,2|2|10,1:2|0:0|0:0,0:0:0:0:
295,266,62921,2,0,L|287:185,1,80,0|4,1:0|0:0,0:0:0:0:
228,131,63619,2,0,L|236:50,1,80,0|8,1:0|0:0,0:0:0:0:
312,29,64316,6,0,P|373:21|457:81,1,160,4|8,0:0|0:0,0:0:0:0:
457,192,65537,2,0,L|454:296,1,80,2|8,1:2|0:0,0:0:0:0:
375,364,66409,1,8,0:0:0:0:
270,304,66932,6,0,L|267:200,1,80,6|8,1:2|0:0,0:0:0:0:
160,169,67805,1,8,0:0:0:0:
58,233,68328,1,4,0:0:0:0:
58,233,69549,1,8,0:0:0:0:
20,162,69898,6,0,P|12:106|21:80,1,80,4|8,0:2|0:0,0:0:0:0:
80,34,70595,2,0,L|164:31,1,80,2|8,0:0|0:0,0:0:0:0:
220,83,71293,2,0,L|304:80,2,80,0|8|2,1:0|0:0|0:0,0:0:0:0:
174,148,72339,1,8,0:0:0:0:
243,187,72688,6,0,P|254:227|243:269,1,80,0|8,1:2|0:0,0:0:0:0:
165,264,73386,2,0,P|125:253|83:264,1,80,2|8,0:0|0:0,0:0:0:0:
15,295,74084,2,0,L|20:380,2,80,0|8|2,1:0|0:0|0:0,0:0:0:0:
17,215,75130,1,8,0:0:0:0:
28,135,75479,6,0,L|111:129,1,80,4|8,1:2|0:0,0:0:0:0:
178,166,76177,2,0,L|261:160,1,80,2|8,0:0|0:0,0:0:0:0:
306,96,76874,2,0,P|373:71|438:204,1,240,4|0,1:2|1:0,0:0:0:0:
417,268,78270,6,0,P|348:253|284:276,1,120,4|4,0:0|0:0,0:0:0:0:
205,337,79316,2,0,P|136:352|72:329,1,120,4|4,0:0|0:0,0:0:0:0:
31,234,80363,1,8,0:0:0:0:
256,192,83328,12,0,85246,0:0:0:0:
