osu file format v14

[General]
AudioFilename: audio.mp3
AudioLeadIn: 0
PreviewTime: 80841
Countdown: 0
SampleSet: Normal
StackLeniency: 0.7
Mode: 1
LetterboxInBreaks: 0
WidescreenStoryboard: 0

[Editor]
Bookmarks: 17466,25466,33466,41466,49466,57466,65466,73466,81466
DistanceSpacing: 1.2
BeatDivisor: 4
GridSize: 4
TimelineZoom: 1.3

[Metadata]
Title:Watashi no COLOR(S)
TitleUnicode:わたしのCOLOR(S)
Artist:Yui (CV: Takada Yuuki)
ArtistUnicode:結衣 (CV: 高田憂希)
Creator:Charlotte
Version:Muzukashii
Source:三ツ星カラーズ
Tags:yuki Mitsuboshi Colors cut ver キャラクターソングシリーズ01 CHARACTER SONG SERIES japanese j-pop jpop version anime yuzu__rinrin
BeatmapID:2335250
BeatmapSetID:1116296

[Difficulty]
HPDrainRate:6
CircleSize:5
OverallDifficulty:5
ApproachRate:5
SliderMultiplier:1.4
SliderTickRate:1

[Events]
//Background and Video events
0,0,"BG.jpg",0,-40
//Break Periods
//Storyboard Layer 0 (Background)
//Storyboard Layer 1 (Fail)
//Storyboard Layer 2 (Pass)
//Storyboard Layer 3 (Foreground)
//Storyboard Layer 4 (Overlay)
//Storyboard Sound Samples

[TimingPoints]
-6534,500,4,1,0,80,1,0
17341,-100,4,1,0,90,0,0
33341,-100,4,1,0,70,0,0
49403,-100,4,1,0,80,0,0
65341,-100,4,1,0,85,0,0
81403,-100,4,1,0,90,0,0
81466,-100,4,1,0,90,0,1
95466,-100,4,1,0,90,0,0
97466,-100,4,1,0,90,0,1
111091,-100,4,1,0,60,0,1
111341,-100,4,1,0,50,0,1
111466,-100,4,1,0,50,0,0

[HitObjects]
254,191,966,5,0,0:0:0:0:
254,191,1216,1,0,0:0:0:0:
254,191,1466,1,12,0:0:0:0:
254,191,1966,1,0,0:0:0:0:
254,191,2216,1,8,0:0:0:0:
254,191,2466,1,0,0:0:0:0:
254,191,2841,1,0,0:0:0:0:
254,191,2966,1,0,0:0:0:0:
254,191,3216,1,8,0:0:0:0:
254,191,3466,1,0,0:0:0:0:
254,191,3716,1,0,0:0:0:0:
254,191,3966,1,8,0:0:0:0:
254,191,4216,1,8,0:0:0:0:
254,191,4466,1,0,0:0:0:0:
254,191,4966,1,8,0:0:0:0:
254,191,5216,1,0,0:0:0:0:
254,191,5466,1,8,0:0:0:0:
254,191,5966,1,8,0:0:0:0:
254,191,6216,1,0,0:0:0:0:
254,191,6466,1,8,0:0:0:0:
254,191,6716,1,8,0:0:0:0:
254,191,6966,1,0,0:0:0:0:
254,191,7466,1,8,0:0:0:0:
254,191,7716,1,0,0:0:0:0:
254,191,7966,1,8,0:0:0:0:
254,191,8216,1,0,0:0:0:0:
254,191,8466,1,8,0:0:0:0:
254,191,8966,1,0,0:0:0:0:
254,191,9216,1,0,0:0:0:0:
254,191,9466,1,12,0:0:0:0:
254,191,9966,1,0,0:0:0:0:
254,191,10216,1,8,0:0:0:0:
254,191,10466,1,0,0:0:0:0:
254,191,10841,1,0,0:0:0:0:
254,191,10966,1,0,0:0:0:0:
254,191,11216,1,8,0:0:0:0:
254,191,11466,1,0,0:0:0:0:
254,191,11716,1,0,0:0:0:0:
254,191,11966,1,8,0:0:0:0:
254,191,12216,1,8,0:0:0:0:
254,191,12466,1,0,0:0:0:0:
254,191,12966,1,8,0:0:0:0:
254,191,13216,1,0,0:0:0:0:
254,191,13466,1,8,0:0:0:0:
254,191,13966,1,8,0:0:0:0:
254,191,14216,1,0,0:0:0:0:
254,191,14466,1,8,0:0:0:0:
254,191,14716,1,8,0:0:0:0:
254,191,14966,1,0,0:0:0:0:
254,191,15466,1,8,0:0:0:0:
254,191,15716,1,8,0:0:0:0:
254,191,15841,1,8,0:0:0:0:
254,191,15966,1,8,0:0:0:0:
254,191,16216,1,8,0:0:0:0:
254,191,16466,1,0,0:0:0:0:
254,191,17466,1,12,0:0:0:0:
254,191,17966,1,0,0:0:0:0:
254,191,18216,1,8,0:0:0:0:
254,191,18466,1,0,0:0:0:0:
254,191,18841,1,8,0:0:0:0:
254,191,18966,1,8,0:0:0:0:
254,191,19216,1,8,0:0:0:0:
254,191,19466,1,0,0:0:0:0:
254,191,19716,1,0,0:0:0:0:
254,191,19966,1,8,0:0:0:0:
254,191,20216,1,8,0:0:0:0:
254,191,20466,1,0,0:0:0:0:
254,191,20966,1,0,0:0:0:0:
254,191,21216,1,8,0:0:0:0:
254,191,21466,1,0,0:0:0:0:
254,191,21841,1,0,0:0:0:0:
254,191,21966,1,0,0:0:0:0:
254,191,22216,1,8,0:0:0:0:
254,191,22466,1,0,0:0:0:0:
254,191,22716,1,8,0:0:0:0:
254,191,22841,1,8,0:0:0:0:
254,191,22966,1,8,0:0:0:0:
254,191,23216,1,0,0:0:0:0:
254,191,23466,1,8,0:0:0:0:
254,191,23966,1,8,0:0:0:0:
254,191,24216,1,0,0:0:0:0:
254,191,24466,1,8,0:0:0:0:
254,191,24716,1,0,0:0:0:0:
254,191,24841,1,0,0:0:0:0:
254,191,24966,1,0,0:0:0:0:
254,191,25216,1,0,0:0:0:0:
254,191,25466,1,12,0:0:0:0:
254,191,25966,1,0,0:0:0:0:
254,191,26216,1,8,0:0:0:0:
254,191,26466,1,0,0:0:0:0:
254,191,26841,1,8,0:0:0:0:
254,191,26966,1,8,0:0:0:0:
254,191,27216,1,8,0:0:0:0:
254,191,27466,1,0,0:0:0:0:
254,191,27716,1,0,0:0:0:0:
254,191,27966,1,8,0:0:0:0:
254,191,28216,1,8,0:0:0:0:
254,191,28466,1,0,0:0:0:0:
254,191,28966,1,0,0:0:0:0:
254,191,29216,1,8,0:0:0:0:
254,191,29466,1,0,0:0:0:0:
254,191,29841,1,0,0:0:0:0:
254,191,29966,1,0,0:0:0:0:
254,191,30216,1,8,0:0:0:0:
254,191,30466,1,0,0:0:0:0:
254,191,30716,1,8,0:0:0:0:
254,191,30841,1,8,0:0:0:0:
254,191,30966,1,8,0:0:0:0:
254,191,31216,1,0,0:0:0:0:
254,191,31466,1,8,0:0:0:0:
254,191,31966,1,8,0:0:0:0:
254,191,32216,1,0,0:0:0:0:
254,191,32466,1,8,0:0:0:0:
254,191,32716,1,0,0:0:0:0:
254,191,32841,1,0,0:0:0:0:
254,191,32966,1,0,0:0:0:0:
254,191,33216,1,8,0:0:0:0:
254,191,33466,1,4,0:0:0:0:
254,191,34216,1,8,0:0:0:0:
254,191,34466,1,0,0:0:0:0:
254,191,34966,1,0,0:0:0:0:
254,191,35216,1,0,0:0:0:0:
254,191,35466,1,8,0:0:0:0:
254,191,35966,1,8,0:0:0:0:
254,191,36216,1,8,0:0:0:0:
254,191,36466,1,0,0:0:0:0:
254,191,36716,1,0,0:0:0:0:
254,191,36966,1,8,0:0:0:0:
254,191,37466,1,0,0:0:0:0:
254,191,37966,1,0,0:0:0:0:
254,191,38216,1,8,0:0:0:0:
254,191,38466,1,0,0:0:0:0:
254,191,38966,1,8,0:0:0:0:
254,191,39216,1,0,0:0:0:0:
254,191,39466,1,8,0:0:0:0:
254,191,39591,1,8,0:0:0:0:
254,191,39716,1,8,0:0:0:0:
254,191,39966,1,0,0:0:0:0:
254,191,40216,1,0,0:0:0:0:
254,191,40466,1,8,0:0:0:0:
254,191,40966,1,8,0:0:0:0:
254,191,41466,1,4,0:0:0:0:
254,191,41966,1,8,0:0:0:0:
254,191,42216,1,8,0:0:0:0:
254,191,42466,1,0,0:0:0:0:
254,191,42966,1,8,0:0:0:0:
254,191,43216,1,8,0:0:0:0:
254,191,43466,1,0,0:0:0:0:
254,191,43716,1,8,0:0:0:0:
254,191,43841,1,8,0:0:0:0:
254,191,43966,1,8,0:0:0:0:
254,191,44216,1,8,0:0:0:0:
254,191,44466,1,0,0:0:0:0:
254,191,44716,1,0,0:0:0:0:
254,191,44966,1,8,0:0:0:0:
254,191,45466,1,0,0:0:0:0:
254,191,45966,1,8,0:0:0:0:
254,191,46216,1,8,0:0:0:0:
254,191,46466,1,0,0:0:0:0:
254,191,46966,1,8,0:0:0:0:
254,191,47216,1,8,0:0:0:0:
254,191,47466,1,0,0:0:0:0:
254,191,47716,1,8,0:0:0:0:
254,191,47841,1,8,0:0:0:0:
254,191,47966,1,8,0:0:0:0:
254,191,48216,1,0,0:0:0:0:
254,191,48466,1,8,0:0:0:0:
254,191,49216,1,0,0:0:0:0:
254,191,49466,1,12,0:0:0:0:
254,191,49966,1,8,0:0:0:0:
254,191,50216,1,0,0:0:0:0:
254,191,50466,1,8,0:0:0:0:
254,191,50966,1,8,0:0:0:0:
254,191,51216,1,0,0:0:0:0:
254,191,51466,1,8,0:0:0:0:
254,191,51716,1,0,0:0:0:0:
254,191,51841,1,0,0:0:0:0:
254,191,51966,1,0,0:0:0:0:
254,191,52216,1,8,0:0:0:0:
254,191,52466,1,0,0:0:0:0:
254,191,52966,1,8,0:0:0:0:
254,191,53216,1,0,0:0:0:0:
254,191,53466,1,8,0:0:0:0:
254,191,53716,1,0,0:0:0:0:
254,191,53841,1,0,0:0:0:0:
254,191,53966,1,0,0:0:0:0:
254,191,54216,1,8,0:0:0:0:
254,191,54466,1,0,0:0:0:0:
254,191,54716,1,8,0:0:0:0:
254,191,54841,1,8,0:0:0:0:
254,191,54966,1,8,0:0:0:0:
254,191,55216,1,0,0:0:0:0:
254,191,55466,1,8,0:0:0:0:
254,191,55966,1,0,0:0:0:0:
254,191,56216,1,8,0:0:0:0:
254,191,56466,1,0,0:0:0:0:
254,191,56966,1,8,0:0:0:0:
254,191,57466,1,4,0:0:0:0:
254,191,57966,1,8,0:0:0:0:
254,191,58216,1,0,0:0:0:0:
254,191,58466,1,8,0:0:0:0:
254,191,58966,1,8,0:0:0:0:
254,191,59216,1,0,0:0:0:0:
254,191,59466,1,8,0:0:0:0:
254,191,59716,1,0,0:0:0:0:
254,191,59841,1,0,0:0:0:0:
254,191,59966,1,0,0:0:0:0:
254,191,60216,1,8,0:0:0:0:
254,191,60466,1,0,0:0:0:0:
254,191,60966,1,8,0:0:0:0:
254,191,61216,1,0,0:0:0:0:
254,191,61466,1,8,0:0:0:0:
254,191,61716,1,0,0:0:0:0:
254,191,61841,1,0,0:0:0:0:
254,191,61966,1,0,0:0:0:0:
254,191,62216,1,8,0:0:0:0:
254,191,62466,1,0,0:0:0:0:
254,191,62716,1,8,0:0:0:0:
254,191,62841,1,8,0:0:0:0:
254,191,62966,1,8,0:0:0:0:
254,191,63216,1,0,0:0:0:0:
254,191,63466,1,8,0:0:0:0:
254,191,63966,1,0,0:0:0:0:
254,191,64216,1,8,0:0:0:0:
254,191,64466,1,0,0:0:0:0:
254,191,65466,1,4,0:0:0:0:
254,191,65966,1,0,0:0:0:0:
254,191,66216,1,0,0:0:0:0:
254,191,66466,1,8,0:0:0:0:
254,191,66966,1,0,0:0:0:0:
254,191,67466,1,8,0:0:0:0:
254,191,67716,1,8,0:0:0:0:
254,191,67966,1,0,0:0:0:0:
254,191,68216,1,0,0:0:0:0:
254,191,68466,1,8,0:0:0:0:
254,191,68966,1,0,0:0:0:0:
254,191,69216,1,0,0:0:0:0:
254,191,69466,1,8,0:0:0:0:
254,191,69966,1,8,0:0:0:0:
254,191,70216,1,0,0:0:0:0:
254,191,70466,1,8,0:0:0:0:
254,191,70716,1,0,0:0:0:0:
254,191,70966,1,8,0:0:0:0:
254,191,71466,1,8,0:0:0:0:
254,191,71716,1,8,0:0:0:0:
254,191,71841,1,8,0:0:0:0:
254,191,71966,1,8,0:0:0:0:
254,191,72216,1,8,0:0:0:0:
254,191,72466,1,0,0:0:0:0:
254,191,73466,1,4,0:0:0:0:
254,191,73966,1,0,0:0:0:0:
254,191,74216,1,0,0:0:0:0:
254,191,74466,1,8,0:0:0:0:
254,191,74966,1,8,0:0:0:0:
254,191,75216,1,0,0:0:0:0:
254,191,75466,1,8,0:0:0:0:
254,191,75716,1,8,0:0:0:0:
254,191,75841,1,8,0:0:0:0:
254,191,75966,1,8,0:0:0:0:
254,191,76216,1,0,0:0:0:0:
254,191,76466,1,8,0:0:0:0:
254,191,76966,1,0,0:0:0:0:
254,191,77216,1,0,0:0:0:0:
254,191,77466,1,12,0:0:0:0:
254,191,77716,1,8,0:0:0:0:
254,191,77841,1,8,0:0:0:0:
254,191,77966,1,8,0:0:0:0:
254,191,78466,1,8,0:0:0:0:
254,191,78716,1,8,0:0:0:0:
254,191,78841,1,8,0:0:0:0:
254,191,78966,1,8,0:0:0:0:
254,191,79216,1,0,0:0:0:0:
254,191,79466,1,8,0:0:0:0:
254,191,80466,1,8,0:0:0:0:
254,191,80966,1,8,0:0:0:0:
254,191,81216,1,8,0:0:0:0:
254,191,81466,1,4,0:0:0:0:
254,191,81841,1,8,0:0:0:0:
254,191,81966,1,8,0:0:0:0:
254,191,82216,1,0,0:0:0:0:
254,191,82466,1,8,0:0:0:0:
254,191,82966,1,8,0:0:0:0:
254,191,83216,1,0,0:0:0:0:
254,191,83466,1,8,0:0:0:0:
254,191,83716,1,0,0:0:0:0:
254,191,83841,1,0,0:0:0:0:
254,191,83966,1,0,0:0:0:0:
254,191,84216,1,0,0:0:0:0:
254,191,84466,1,8,0:0:0:0:
254,191,84966,1,8,0:0:0:0:
254,191,85216,1,0,0:0:0:0:
254,191,85466,1,8,0:0:0:0:
254,191,85841,1,0,0:0:0:0:
254,191,85966,1,0,0:0:0:0:
254,191,86216,1,8,0:0:0:0:
254,191,86466,1,0,0:0:0:0:
254,191,86716,1,8,0:0:0:0:
254,191,86841,1,8,0:0:0:0:
254,191,86966,1,8,0:0:0:0:
254,191,87216,1,0,0:0:0:0:
254,191,87466,1,8,0:0:0:0:
254,191,87841,1,0,0:0:0:0:
254,191,88216,1,8,0:0:0:0:
254,191,88466,1,0,0:0:0:0:
254,191,89216,1,8,0:0:0:0:
254,191,89466,1,4,0:0:0:0:
254,191,89841,1,8,0:0:0:0:
254,191,89966,1,8,0:0:0:0:
254,191,90216,1,0,0:0:0:0:
254,191,90466,1,8,0:0:0:0:
254,191,90966,1,8,0:0:0:0:
254,191,91216,1,0,0:0:0:0:
254,191,91466,1,8,0:0:0:0:
254,191,91716,1,0,0:0:0:0:
254,191,91841,1,0,0:0:0:0:
254,191,91966,1,0,0:0:0:0:
254,191,92216,1,0,0:0:0:0:
254,191,92466,1,8,0:0:0:0:
254,191,92966,1,8,0:0:0:0:
254,191,93216,1,0,0:0:0:0:
254,191,93466,1,8,0:0:0:0:
254,191,93841,1,8,0:0:0:0:
254,191,93966,1,8,0:0:0:0:
254,191,94216,1,0,0:0:0:0:
254,191,94466,1,8,0:0:0:0:
254,191,94716,1,0,0:0:0:0:
254,191,94841,1,0,0:0:0:0:
254,191,94966,1,0,0:0:0:0:
254,191,95216,1,8,0:0:0:0:
254,191,95466,1,0,0:0:0:0:
254,191,95841,1,0,0:0:0:0:
254,191,95966,1,0,0:0:0:0:
254,191,96216,1,8,0:0:0:0:
254,191,96466,1,0,0:0:0:0:
254,191,97216,1,8,0:0:0:0:
254,191,97466,1,4,0:0:0:0:
254,191,97716,1,8,0:0:0:0:
254,191,97841,1,8,0:0:0:0:
254,191,97966,1,8,0:0:0:0:
254,191,98216,1,0,0:0:0:0:
254,191,98466,1,8,0:0:0:0:
254,191,98716,1,8,0:0:0:0:
254,191,98966,1,0,0:0:0:0:
254,191,99466,1,8,0:0:0:0:
254,191,99716,1,0,0:0:0:0:
254,191,99841,1,0,0:0:0:0:
254,191,99966,1,0,0:0:0:0:
254,191,100216,1,8,0:0:0:0:
254,191,100466,1,0,0:0:0:0:
254,191,100716,1,0,0:0:0:0:
254,191,100966,1,8,0:0:0:0:
254,191,101466,1,0,0:0:0:0:
254,191,101716,1,8,0:0:0:0:
254,191,101841,1,8,0:0:0:0:
254,191,101966,1,8,0:0:0:0:
254,191,102216,1,0,0:0:0:0:
254,191,102466,1,8,0:0:0:0:
254,191,102716,1,8,0:0:0:0:
254,191,102966,1,0,0:0:0:0:
254,191,103466,1,8,0:0:0:0:
254,191,103716,1,0,0:0:0:0:
254,191,103841,1,0,0:0:0:0:
254,191,103966,1,0,0:0:0:0:
254,191,104216,1,8,0:0:0:0:
254,191,104466,1,0,0:0:0:0:
254,191,104716,1,0,0:0:0:0:
254,191,104966,1,8,0:0:0:0:
254,191,105716,1,8,0:0:0:0:
254,191,105966,1,4,0:0:0:0:
254,191,106466,1,0,0:0:0:0:
254,191,106716,1,8,0:0:0:0:
254,191,106966,1,0,0:0:0:0:
254,191,107466,1,8,0:0:0:0:
254,191,107841,1,0,0:0:0:0:
254,191,107966,1,0,0:0:0:0:
254,191,108216,1,8,0:0:0:0:
254,191,108466,1,0,0:0:0:0:
254,191,108716,1,0,0:0:0:0:
254,191,108966,1,8,0:0:0:0:
254,191,109466,1,0,0:0:0:0:
254,191,109716,1,8,0:0:0:0:
254,191,109841,1,8,0:0:0:0:
254,191,109966,1,8,0:0:0:0:
254,191,110216,1,0,0:0:0:0:
254,191,110466,1,8,0:0:0:0:
254,191,110716,1,8,0:0:0:0:
254,191,110966,1,0,0:0:0:0:
254,191,111466,1,8,0:0:0:0:
