osu file format v14

[General]
AudioFilename: audio.mp3
AudioLeadIn: 0
PreviewTime: 90016
Countdown: 0
SampleSet: Normal
StackLeniency: 0.2
Mode: 0
LetterboxInBreaks: 0
WidescreenStoryboard: 0

[Editor]
Bookmarks: 9268,13754,18240,24969,27212,29455,33941,36184,38427,40390,42913,45156,62539,63100,72072,83287,90016,94502,98988,103474,107960,110203,114689,119175,123661,125904,134876,139362
DistanceSpacing: 1.2
BeatDivisor: 8
GridSize: 32
TimelineZoom: 2.7

[Metadata]
Title:Canzoni Preferite
TitleUnicode:Canzoni Preferite
Artist:Yugo Kanno feat. Daisuke Hasegawa
ArtistUnicode:Yugo Kanno feat. Daisuke Hasegawa
Creator:Rabbitt
Version:Torture Dance
Source:ジョジョの奇妙な冒険 黄金の風
Tags:
BeatmapID:1937333
BeatmapSetID:927554

[Difficulty]
HPDrainRate:6
CircleSize:4.1
OverallDifficulty:7.5
ApproachRate:9
SliderMultiplier:1.7
SliderTickRate:1

[Events]
//Background and Video events
0,0,"72597002_p0_master1200.jpg",0,0
//Break Periods
//Storyboard Layer 0 (Background)
//Storyboard Layer 1 (Fail)
//Storyboard Layer 2 (Pass)
//Storyboard Layer 3 (Foreground)
//Storyboard Sound Samples

[TimingPoints]
297,560.747663551402,4,1,0,50,1,0
24969,-66.6666666666667,4,1,0,50,0,0
25530,-50,4,1,0,50,0,0
26091,-133.333333333333,4,1,0,50,0,0
26652,-66.6666666666667,4,1,0,50,0,0
27212,-100,4,1,0,50,0,0
43474,-80,4,1,0,50,0,0
43754,-66.6666666666667,4,1,0,50,0,0
44035,-57.1428571428571,4,1,0,50,0,0
44596,-50,4,1,0,50,0,0
44876,-28.5714285714286,4,1,0,50,0,0
45226,-100,4,1,0,50,0,0
51325,-66.6666666666667,4,1,0,50,0,0
53568,-100,4,1,0,50,0,0
54128,-66.6666666666667,4,1,0,50,0,0
70881,-100,4,1,0,50,0,0
74596,-66.6666666666667,4,1,0,50,0,0
83287,-100,4,1,0,50,0,0
90016,-100,4,1,0,50,0,1
105577,-100,4,1,0,50,0,0
105717,-133.333333333333,4,1,0,50,0,0
107960,-66.6666666666667,4,1,0,50,0,1
125904,-100,4,1,0,50,0,0

[Colours]
Combo1 : 255,128,0
Combo2 : 0,255,64
Combo3 : 255,17,136
Combo4 : 255,255,0
Combo5 : 128,0,255
Combo6 : 0,0,255

[HitObjects]
32,32,297,5,0,2:0:0:0:
32,168,577,1,0,2:0:0:0:
176,176,857,2,0,L|208:176,1,21.25,0|0,2:0|2:0,2:0:0:0:
400,288,1418,5,0,2:0:0:0:
480,176,1698,1,0,2:0:0:0:
400,56,1979,2,0,L|400:24,1,21.25,0|0,2:0|2:0,2:0:0:0:
224,144,2539,1,0,2:0:0:0:
224,280,2820,1,0,2:0:0:0:
120,368,3100,1,0,2:0:0:0:
24,280,3381,6,0,B|8:256|8:256|8:176,1,85,0|0,2:0|2:0,2:0:0:0:
32,80,3941,1,0,2:0:0:0:
152,32,4222,1,0,2:0:0:0:
480,32,4782,5,0,2:0:0:0:
480,168,5062,1,0,2:0:0:0:
336,176,5342,2,0,L|304:176,1,21.25,0|0,2:0|2:0,2:0:0:0:
112,288,5903,5,0,2:0:0:0:
32,176,6183,1,0,2:0:0:0:
112,56,6464,2,0,L|112:24,1,21.25,0|0,2:0|2:0,2:0:0:0:
288,144,7024,1,0,2:0:0:0:
288,280,7305,1,0,2:0:0:0:
392,368,7585,1,0,2:0:0:0:
496,280,7867,1,0,2:0:0:0:
256,192,8147,12,0,9128,2:0:0:0:
59,217,9268,6,0,B|117:117|0:118|99:28,1,170,0|0,2:0|2:0,2:0:0:0:
320,250,9969,2,0,L|336:300,1,42.5,0|0,2:0|2:0,2:0:0:0:
59,217,10250,2,0,L|75:167,1,42.5,0|0,2:0|2:0,2:0:0:0:
249,77,10670,1,0,2:0:0:0:
85,343,10951,2,0,P|51:344|72:317,1,85,0|0,2:0|2:0,2:0:0:0:
340,337,11511,6,0,L|320:289,1,42.5,0|0,2:0|2:0,2:0:0:0:
481,192,11792,2,0,L|464:231,1,42.5,0|0,2:0|2:0,2:0:0:0:
340,337,12072,2,0,P|321:294|271:255,1,85,0|0,2:0|2:0,2:0:0:0:
218,117,12493,5,0,2:0:0:0:
273,42,12633,2,0,P|256:81|227:111,1,85,0|0,2:0|2:0,2:0:0:0:
75,229,13054,5,0,2:0:0:0:
17,303,13194,2,0,P|33:263|62:233,1,85,0|0,2:0|2:0,2:0:0:0:
445,45,13754,6,0,L|391:52,1,42.5,0|0,2:0|2:0,2:0:0:0:
175,192,14035,2,0,L|229:199,1,42.5,0|0,2:0|2:0,2:0:0:0:
466,81,14315,6,0,L|441:38,1,42.5,0|0,2:0|2:0,2:0:0:0:
175,192,14596,2,0,L|200:235,1,42.5,0|0,2:0|2:0,2:0:0:0:
272,328,14876,5,0,2:0:0:0:
292,298,15016,1,0,2:0:0:0:
443,272,15156,5,0,2:0:0:0:
423,242,15296,1,0,2:0:0:0:
315,167,15437,5,0,2:0:0:0:
335,137,15577,1,0,2:0:0:0:
486,111,15717,5,0,2:0:0:0:
466,81,15857,1,0,2:0:0:0:
333,26,15997,6,0,P|288:16|274:18,1,42.5,0|0,2:0|2:0,2:0:0:0:
47,188,16278,2,0,P|66:196|88:199,1,42.5,0|0,2:0|2:0,2:0:0:0:
251,25,16558,6,0,P|296:15|310:17,1,42.5,0|0,2:0|2:0,2:0:0:0:
47,188,16839,2,0,P|28:196|7:199,1,42.5,0|0,2:0|2:0,2:0:0:0:
186,70,17119,5,0,2:0:0:0:
204,103,17259,1,0,2:0:0:0:
162,263,17399,5,0,2:0:0:0:
180,230,17539,1,0,2:0:0:0:
74,383,17680,2,0,B|74:356|74:356|53:341|66:320|66:320|68:303,1,85,0|0,2:0|2:0,2:0:0:0:
453,217,18240,6,0,B|395:117|512:118|413:28,1,170,0|0,2:0|2:0,2:0:0:0:
192,250,18941,2,0,L|176:300,1,42.5,0|0,2:0|2:0,2:0:0:0:
453,217,19222,2,0,L|437:167,1,42.5,0|0,2:0|2:0,2:0:0:0:
263,77,19642,1,0,2:0:0:0:
427,343,19923,2,0,P|461:344|440:317,1,85,0|0,2:0|2:0,2:0:0:0:
172,337,20483,6,0,L|192:289,1,42.5,0|0,2:0|2:0,2:0:0:0:
31,192,20764,2,0,L|48:231,1,42.5,0|0,2:0|2:0,2:0:0:0:
172,337,21044,2,0,P|191:294|241:255,1,85,0|0,2:0|2:0,2:0:0:0:
294,117,21465,5,0,2:0:0:0:
239,42,21605,2,0,P|256:81|285:111,1,85,0|0,2:0|2:0,2:0:0:0:
437,229,22026,5,0,2:0:0:0:
495,303,22166,2,0,P|479:263|450:233,1,85,0|0,2:0|2:0,2:0:0:0:
67,45,22726,6,0,L|121:52,1,42.5,0|0,2:0|2:0,2:0:0:0:
337,192,23007,2,0,L|283:199,1,42.5,0|0,2:0|2:0,2:0:0:0:
46,81,23287,6,0,L|71:38,1,42.5,0|0,2:0|2:0,2:0:0:0:
337,192,23568,2,0,L|312:235,1,42.5,0|0,2:0|2:0,2:0:0:0:
240,328,23848,5,0,2:0:0:0:
220,298,23988,1,0,2:0:0:0:
69,272,24128,5,0,2:0:0:0:
89,242,24268,1,0,2:0:0:0:
197,167,24409,5,0,2:0:0:0:
177,137,24549,1,0,2:0:0:0:
26,111,24689,5,0,2:0:0:0:
46,81,24829,1,0,2:0:0:0:
214,14,24969,6,0,L|298:26,1,63.7500024318696,0|0,2:0|2:0,2:0:0:0:
491,198,25250,2,0,L|407:210,1,63.7500024318696,0|0,2:0|2:0,2:0:0:0:
277,23,25530,6,0,L|183:38,1,85,0|0,2:0|2:0,2:0:0:0:
427,207,25811,2,0,L|517:221,1,85,0|0,2:0|2:0,2:0:0:0:
197,67,26091,6,0,L|189:14,1,31.8750012159348,0|0,2:0|2:0,2:0:0:0:
510,220,26371,2,0,L|501:281,1,31.8750012159348,0|0,2:0|2:0,2:0:0:0:
280,345,26652,2,0,P|232:356|266:320,1,127.500004863739,0|0,2:0|2:0,2:0:0:0:
122,347,27072,5,0,2:0:0:0:
104,316,27212,2,0,L|87:198,1,85,0|0,2:0|2:0,2:0:0:0:
196,42,27633,1,0,2:0:0:0:
214,23,27773,2,0,L|312:14,1,85,0|0,2:0|2:0,2:0:0:0:
134,170,28194,5,0,2:0:0:0:
130,183,28334,2,0,P|113:216|81:235,1,63.75,0|0,2:0|2:0,2:0:0:0:
108,62,28614,2,0,P|125:29|157:10,1,63.75,0|0,2:0|2:0,2:0:0:0:
270,114,28895,2,0,L|185:105,1,85,0|0,2:0|2:0,2:0:0:0:
394,207,29455,6,0,L|408:152,1,42.5,0|0,2:0|2:0,2:0:0:0:
171,31,29736,2,0,L|185:86,1,42.5,0|0,2:0|2:0,2:0:0:0:
394,207,30016,6,0,L|449:221,1,42.5,0|0,2:0|2:0,2:0:0:0:
181,72,30297,2,0,L|139:82,1,42.5,0|0,2:0|2:0,2:0:0:0:
394,207,30577,6,0,L|383:248,1,42.5,0|0,2:0|2:0,2:0:0:0:
191,113,30857,2,0,L|181:72,1,42.5,0|0,2:0|2:0,2:0:0:0:
383,248,31138,5,0,2:0:0:0:
357,271,31278,1,0,2:0:0:0:
138,222,31418,5,0,2:0:0:0:
164,245,31558,1,0,2:0:0:0:
188,267,31698,2,0,L|205:357,1,85,0|0,2:0|2:0,2:0:0:0:
44,177,32119,1,0,2:0:0:0:
46,148,32259,2,0,L|74:55,1,85,0|0,2:0|2:0,2:0:0:0:
165,189,32680,5,0,2:0:0:0:
161,202,32820,2,0,P|144:235|112:254,1,63.75,0|0,2:0|2:0,2:0:0:0:
139,81,33100,2,0,P|156:48|188:29,1,63.75,0|0,2:0|2:0,2:0:0:0:
301,133,33381,2,0,L|216:124,1,85,0|0,2:0|2:0,2:0:0:0:
80,296,33941,5,0,2:0:0:0:
37,311,34081,1,0,2:0:0:0:
118,187,34222,5,0,2:0:0:0:
161,202,34362,1,0,2:0:0:0:
238,321,34502,5,0,2:0:0:0:
195,336,34642,1,0,2:0:0:0:
276,212,34783,5,0,2:0:0:0:
319,227,34923,1,0,2:0:0:0:
417,321,35063,1,0,2:0:0:0:
374,306,35203,1,0,2:0:0:0:
276,212,35343,5,0,2:0:0:0:
291,169,35483,1,0,2:0:0:0:
402,278,35624,1,0,2:0:0:0:
417,321,35764,1,0,2:0:0:0:
276,212,35904,5,0,2:0:0:0:
261,169,36044,1,0,2:0:0:0:
261,133,36184,2,0,L|309:53,1,85,0|0,2:0|2:0,2:0:0:0:
347,215,36605,1,0,2:0:0:0:
327,237,36745,2,0,L|238:261,1,85,0|0,2:0|2:0,2:0:0:0:
118,295,37166,5,0,2:0:0:0:
87,273,37306,2,0,P|55:232|52:209,1,63.75,0|0,2:0|2:0,2:0:0:0:
190,318,37586,2,0,P|178:347|155:369,1,63.75,0|0,2:0|2:0,2:0:0:0:
52,221,37867,2,0,L|138:197,1,85,0|0,2:0|2:0,2:0:0:0:
143,70,38427,6,0,L|102:59,1,42.5,0|0,2:0|2:0,2:0:0:0:
342,227,38708,2,0,L|383:216,1,42.5,0|0,2:0|2:0,2:0:0:0:
101,58,38988,6,0,L|92:116,1,42.5,0|0,2:0|2:0,2:0:0:0:
383,215,39268,2,0,L|374:157,1,42.5,0|0,2:0|2:0,2:0:0:0:
143,70,39549,2,0,L|136:111,1,42.5,0|0,2:0|2:0,2:0:0:0:
389,256,39829,2,0,L|382:213,1,42.5,0|0,2:0|2:0,2:0:0:0:
128,153,40110,5,0,2:0:0:0:
119,192,40250,1,0,2:0:0:0:
376,173,40390,5,0,2:3:0:0:
341,191,40530,1,0,2:3:0:0:
307,210,40670,2,0,L|333:115,1,85,0|0,2:3|2:3,2:3:0:0:
455,251,41091,1,0,2:0:0:0:
424,277,41231,2,0,L|329:290,1,85,0|0,2:0|2:0,2:0:0:0:
148,320,41652,5,0,2:0:0:0:
138,307,41792,2,0,P|122:270|122:244,1,63.75,0|0,2:0|2:0,2:0:0:0:
266,115,42072,2,0,P|306:119|328:132,1,63.75,0|0,2:0|2:0,2:0:0:0:
242,203,42353,2,0,P|192:182|160:165,1,85,0|0,2:0|2:0,2:0:0:0:
84,45,42913,5,0,2:0:0:0:
150,88,43054,1,0,2:0:0:0:
225,63,43194,6,0,L|304:47,1,63.75,0|0,2:0|2:0,2:0:0:0:
385,102,43474,2,0,L|288:120,1,79.6875,0|0,2:0|2:0,2:0:0:0:
459,92,43754,2,0,L|482:197,1,95.6250036478044,0|0,2:0|2:0,2:0:0:0:
285,227,44035,6,0,L|307:117,1,111.562501063943,0|0,2:0|2:0,2:0:0:0:
480,185,44315,2,0,L|508:309,1,111.562501063943,0|0,2:0|2:0,2:0:0:0:
366,352,44596,2,0,L|240:385,1,127.5,0|0,2:0|2:0,2:0:0:0:
95,236,44876,2,0,B|25:172|97:106|97:106|93:42|155:52|190:81,1,223.125002127886,0|0,2:0|2:0,2:0:0:0:
226,231,45156,5,0,2:0:0:0:
217,188,45297,1,0,2:0:0:0:
225,148,45437,1,0,2:0:0:0:
235,118,45577,1,0,2:0:0:0:
261,87,45717,5,0,2:0:0:0:
303,93,45857,1,0,2:0:0:0:
328,119,45997,1,0,2:0:0:0:
373,132,46138,1,0,2:0:0:0:
414,129,46278,6,0,L|419:86,1,42.5,0|0,2:0|2:0,2:0:0:0:
495,296,46558,2,0,L|486:227,1,42.5,0|0,2:0|2:0,2:0:0:0:
234,233,46839,2,0,P|184:261|158:295,1,85,0|0,2:0|2:0,2:0:0:0:
191,166,47259,5,0,2:0:0:0:
140,144,47399,1,0,2:0:0:0:
109,98,47539,1,0,2:0:0:0:
104,42,47680,1,0,2:0:0:0:
124,0,47820,1,0,2:0:0:0:
18,71,47960,6,0,L|3:129,1,42.5,0|0,2:0|2:0,2:0:0:0:
84,255,48240,2,0,L|69:197,1,42.5,0|0,2:0|2:0,2:0:0:0:
4,337,48521,2,0,P|62:354|96:350,2,85,0|0|0,2:0|2:0|2:0,2:0:0:0:
95,187,49222,2,0,B|109:172|109:172|186:203,1,85,0|0,2:0|2:0,2:0:0:0:
333,347,49642,2,0,B|323:290|323:290|343:230|343:230|327:175,1,170,0|0,2:0|2:0,2:0:0:0:
248,171,50343,5,0,2:0:0:0:
257,98,50483,1,0,2:0:0:0:
330,107,50624,1,0,2:0:0:0:
393,152,50764,2,0,B|397:169|397:169|422:86,1,85,0|0,2:0|2:0,2:0:0:0:
471,279,51184,1,0,2:0:0:0:
455,261,51325,2,0,B|428:235|428:235|410:346,1,127.500004863739,0|0,2:0|2:0,2:0:0:0:
318,334,51885,6,0,L|191:350,1,127.500004863739,0|0,2:0|2:0,2:0:0:0:
66,154,52446,1,0,2:0:0:0:
83,119,52586,1,0,2:0:0:0:
117,102,52726,1,0,2:0:0:0:
154,109,52867,1,0,2:0:0:0:
60,201,53007,6,0,L|-12:225,1,63.7500024318696,0|0,2:0|2:0,2:0:0:0:
189,129,53287,2,0,L|249:149,1,63.7500024318696,0|0,2:0|2:0,2:0:0:0:
60,202,53568,2,0,P|48:244|64:306,1,85,0|0,2:0|2:0,2:0:0:0:
187,353,53988,1,0,2:0:0:0:
206,331,54128,2,0,B|256:273|369:320|369:320|374:274|392:263|392:263|412:270,1,255.000009727478,0|0,2:0|2:0,2:0:0:0:
491,350,54829,5,0,2:0:0:0:
488,328,54969,2,0,L|480:237,1,63.7500024318696,0|0,2:0|2:0,2:0:0:0:
432,81,55250,2,0,L|419:144,1,63.7500024318696,0|0,2:0|2:0,2:0:0:0:
284,23,55530,2,0,L|297:85,1,63.7500024318696,0|0,2:0|2:0,2:0:0:0:
175,169,55811,2,0,B|157:135|157:135|139:138|139:138|88:307|88:307|65:295,1,255.000009727478,0|0,2:0|2:0,2:0:0:0:
69,130,56652,5,0,2:0:0:0:
80,82,56792,1,0,2:0:0:0:
145,37,56932,2,0,B|179:40|179:40|249:140,1,127.500004863739,0|0,2:0|2:0,2:0:0:0:
256,192,57493,12,0,62539,2:0:0:0:
256,192,62820,5,0,2:0:0:0:
256,192,63100,12,0,65343,2:0:0:0:
267,300,65624,5,0,2:0:0:0:
292,276,65764,1,0,2:0:0:0:
200,354,65904,2,0,P|127:354|68:314,1,127.500004863739,0|0,2:0|2:0,2:0:0:0:
292,276,66325,5,0,2:0:0:0:
327,297,66465,2,0,L|499:325,1,127.500004863739,0|0,2:0|2:0,2:0:0:0:
162,228,66885,5,0,2:0:0:0:
139,197,67025,2,0,L|25:178,1,63.7500024318696,0|0,2:0|2:0,2:0:0:0:
346,39,67586,2,0,B|345:90|345:90|292:157|431:178|369:253|335:290,1,255.000009727478,0|0,2:0|2:0,2:0:0:0:
450,159,68427,5,0,2:0:0:0:
464,119,68568,1,0,2:0:0:0:
273,191,68848,1,0,2:0:0:0:
287,231,68989,1,0,2:0:0:0:
306,25,69268,1,0,2:0:0:0:
346,39,69409,1,0,2:0:0:0:
455,300,69689,1,0,2:0:0:0:
415,314,69830,1,0,2:0:0:0:
209,301,70110,6,0,L|115:291,1,63.7500024318696,0|0,2:0|2:0,2:0:0:0:
0,193,70390,2,0,L|94:183,1,63.7500024318696,0|0,2:0|2:0,2:0:0:0:
58,358,70670,2,0,L|68:264,1,63.7500024318696,0|0,2:0|2:0,2:0:0:0:
166,149,70951,6,0,P|162:169|167:190,1,42.5,0|0,2:0|2:0,2:0:0:0:
253,127,71231,2,0,P|256:90|250:76,1,42.5,0|0,2:0|2:0,2:0:0:0:
272,228,71511,2,0,P|292:231|313:226,1,42.5,0|0,2:0|2:0,2:0:0:0:
443,66,72072,5,0,2:0:0:0:
440,84,72633,5,0,2:0:0:0:
437,102,73194,5,0,2:0:0:0:
434,120,73754,5,0,2:0:0:0:
487,333,74035,2,0,B|446:315|446:315|428:333|428:333|424:292,1,85,0|0,2:0|2:0,2:0:0:0:
311,359,74596,6,0,P|298:315|247:274,1,95.6250036478044,0|0,2:0|2:0,2:0:0:0:
202,320,74876,2,0,P|189:259|215:212,1,95.6250036478044,0|0,2:0|2:0,2:0:0:0:
273,206,75156,2,0,L|212:128,1,95.6250036478044,0|0,2:0|2:0,2:0:0:0:
142,135,75437,2,0,P|157:77|201:49,1,95.6250036478044,0|0,2:0|2:0,2:0:0:0:
263,64,75717,2,0,L|344:168,1,127.500004863739,0|0,2:0|2:0,2:0:0:0:
126,215,76278,1,0,2:0:0:0:
418,172,76558,6,0,L|396:250,1,63.7500024318696,0|0,2:0|2:0,2:0:0:0:
380,97,76839,2,0,P|314:63|235:72,1,127.500004863739,0|0,2:0|2:0,2:0:0:0:
289,201,77399,1,0,2:0:0:0:
209,354,77680,6,0,B|159:325|159:325|85:325|85:325|39:240,1,223.125008511544,0|0,2:0|2:0,2:0:0:0:
5,177,78240,2,0,P|-2:143|77:80,1,127.500004863739,0|0,2:0|2:0,2:0:0:0:
106,161,78661,1,0,2:0:0:0:
119,171,78801,2,0,L|252:181,1,127.500004863739,0|0,2:0|2:0,2:0:0:0:
405,244,79222,1,0,2:0:0:0:
392,254,79362,2,0,L|259:264,1,127.500004863739,0|0,2:0|2:0,2:0:0:0:
348,162,79782,5,0,2:0:0:0:
342,142,79923,2,0,L|352:65,1,63.7500024318696,0|0,2:0|2:0,2:0:0:0:
425,38,80203,1,0,2:0:0:0:
477,99,80343,1,0,2:0:0:0:
494,180,80483,2,0,L|481:304,1,95.6250036478044,0|0,2:0|2:0,2:0:0:0:
435,328,80764,2,0,P|368:293|293:300,1,127.500004863739,0|0,2:0|2:0,2:0:0:0:
179,330,81184,1,0,2:0:0:0:
159,305,81325,6,0,B|112:299|112:299|62:343,1,95.6250036478044,0|0,2:0|2:0,2:0:0:0:
3,313,81605,2,0,P|14:257|58:219,1,95.6250036478044,0|0,2:0|2:0,2:0:0:0:
115,227,81885,2,0,L|96:124,1,95.6250036478044,0|0,2:0|2:0,2:0:0:0:
28,103,82166,2,0,P|81:60|129:65,1,95.6250036478044,0|0,2:0|2:0,2:0:0:0:
175,93,82446,2,0,B|209:126|209:126|184:157|203:196,1,95.6250036478044,0|0,2:0|2:0,2:0:0:0:
231,242,82726,2,0,P|271:199|361:187,1,127.500004863739,0|0,2:0|2:0,2:0:0:0:
448,177,83287,5,0,2:0:0:0:
452,221,83381,1,0,2:0:0:0:
442,263,83474,1,0,2:0:0:0:
421,299,83568,1,0,2:0:0:0:
378,317,83661,1,0,2:0:0:0:
334,310,83754,1,0,2:0:0:0:
293,293,83848,6,0,L|249:264,1,28.3333333333333,0|0,2:0|2:0,2:0:0:0:
184,330,84035,2,0,L|228:301,1,28.3333333333333,0|0,2:0|2:0,2:0:0:0:
111,308,84222,2,0,L|79:334,1,28.3333333333333,0|0,2:0|2:0,2:0:0:0:
21,285,84409,1,0,2:0:0:0:
14,247,84502,1,0,2:0:0:0:
19,201,84596,1,0,2:0:0:0:
39,166,84689,1,0,2:0:0:0:
50,131,84782,6,0,L|32:97,1,28.3333333333333,0|0,2:0|2:0,2:0:0:0:
125,160,84969,2,0,L|107:194,1,28.3333333333333,0|0,2:0|2:0,2:0:0:0:
112,88,85156,2,0,P|122:74|152:56,1,28.3333333333333,0|0,2:0|2:0,2:0:0:0:
214,151,85343,2,0,P|204:137|174:119,1,28.3333333333333,0|0,2:0|2:0,2:0:0:0:
295,161,85530,5,0,2:0:0:0:
324,139,85624,1,0,2:0:0:0:
344,109,85717,1,0,2:0:0:0:
356,64,85811,2,0,L|408:98,1,56.6666666666667,0|0,2:0|2:0,2:0:0:0:
458,160,86091,5,0,2:0:0:0:
442,189,86184,1,0,2:0:0:0:
446,223,86278,1,0,2:0:0:0:
464,258,86371,1,0,2:0:0:0:
472,300,86465,6,0,L|506:312,1,28.3333333333333,0|0,2:0|2:0,2:0:0:0:
392,284,86652,2,0,L|358:296,1,28.3333333333333,0|0,2:0|2:0,2:0:0:0:
285,326,86839,2,0,L|266:286,1,28.3333333333333,0|0,2:0|2:0,2:0:0:0:
238,211,87025,2,0,L|200:224,1,28.3333333333333,0|0,2:0|2:0,2:0:0:0:
333,205,87212,2,0,L|320:169,1,28.3333333333333,0|0,2:0|2:0,2:0:0:0:
256,104,87399,5,0,2:0:0:0:
225,92,87493,1,0,2:0:0:0:
192,94,87586,1,0,2:0:0:0:
163,106,87680,1,0,2:0:0:0:
140,123,87773,1,0,2:0:0:0:
149,163,87867,1,0,2:0:0:0:
171,195,87960,1,0,2:0:0:0:
176,232,88054,1,0,2:0:0:0:
170,270,88147,6,0,L|170:314,1,28.3333333333333,0|0,2:0|2:0,2:0:0:0:
70,252,88334,2,0,L|70:208,1,28.3333333333333,0|0,2:0|2:0,2:0:0:0:
99,347,88521,2,0,L|131:360,1,28.3333333333333,0|0,2:0|2:0,2:0:0:0:
259,279,88708,2,0,L|220:303,1,28.3333333333333,0|0,2:0|2:0,2:0:0:0:
256,192,88895,12,0,89923,2:0:0:0:
37,96,90016,6,0,B|89:60|150:130|234:83,1,170,0|0,2:0|2:0,2:0:0:0:
298,6,90717,2,0,L|316:66,1,42.5,0|0,2:0|2:0,2:0:0:0:
430,230,90997,2,0,L|442:189,1,42.5,0|0,2:0|2:0,2:0:0:0:
298,6,91418,1,0,2:0:0:0:
244,345,91698,2,0,P|246:308|256:335,1,85,0|0,2:0|2:0,2:0:0:0:
110,286,92259,6,0,L|87:222,1,42.5,0|0,2:0|2:0,2:0:0:0:
182,92,92539,2,0,L|159:156,1,42.5,0|0,2:0|2:0,2:0:0:0:
110,286,92820,2,0,P|85:218|105:173,1,85,0|0,2:0|2:0,2:0:0:0:
303,258,93240,5,0,2:0:0:0:
253,346,93381,2,0,P|297:311|313:272,1,85,0|0,2:0|2:0,2:0:0:0:
461,215,93801,5,0,2:0:0:0:
511,127,93942,2,0,P|467:162|451:201,1,85,0|0,2:0|2:0,2:0:0:0:
403,41,94502,6,0,L|380:91,1,42.5,0|0,2:0|2:0,2:0:0:0:
250,231,94782,2,0,L|227:181,1,42.5,0|0,2:0|2:0,2:0:0:0:
385,79,95063,6,0,L|435:102,1,42.5,0|0,2:0|2:0,2:0:0:0:
232,192,95343,2,0,L|182:215,1,42.5,0|0,2:0|2:0,2:0:0:0:
96,297,95624,5,0,2:0:0:0:
74,266,95764,1,0,2:0:0:0:
171,154,95904,5,0,2:0:0:0:
149,185,96044,1,0,2:0:0:0:
30,141,96184,5,0,2:0:0:0:
8,110,96324,1,0,2:0:0:0:
177,20,96465,5,0,2:0:0:0:
155,51,96605,1,0,2:0:0:0:
270,109,96745,6,0,L|325:125,1,42.5,0|0,2:0|2:0,2:0:0:0:
487,224,97025,2,0,L|432:240,1,42.5,0|0,2:0|2:0,2:0:0:0:
270,109,97306,6,0,L|286:54,1,42.5,0|0,2:0|2:0,2:0:0:0:
487,224,97586,2,0,L|498:264,1,42.5,0|0,2:0|2:0,2:0:0:0:
389,342,97867,5,0,2:0:0:0:
355,326,98007,1,0,2:0:0:0:
220,300,98147,5,0,2:0:0:0:
254,284,98287,1,0,2:0:0:0:
285,263,98427,2,0,P|289:210|278:162,1,85,0|0,2:0|2:0,2:0:0:0:
472,59,98988,6,0,B|426:25|338:90|273:40,1,170,0|0,2:0|2:0,2:0:0:0:
41,45,99689,6,0,L|55:103,1,42.5,0|0,2:0|2:0,2:0:0:0:
182,228,99969,2,0,L|197:177,1,42.5,0|0,2:0|2:0,2:0:0:0:
57,283,100390,1,0,2:0:0:0:
195,55,100670,2,0,B|218:49|218:49|188:114,1,85,0|0,2:0|2:0,2:0:0:0:
287,200,101231,6,0,L|340:207,1,42.5,0|0,2:0|2:0,2:0:0:0:
507,307,101511,2,0,L|454:314,1,42.5,0|0,2:0|2:0,2:0:0:0:
287,200,101792,2,0,P|277:146|291:99,1,85,0|0,2:0|2:0,2:0:0:0:
429,125,102212,5,0,2:0:0:0:
458,30,102353,2,0,P|463:71|453:112,1,85,0|0,2:0|2:0,2:0:0:0:
287,200,102773,5,0,2:0:0:0:
257,294,102914,2,0,P|251:252|261:211,1,85,0|0,2:0|2:0,2:0:0:0:
65,309,103474,5,0,2:0:0:0:
45,270,103614,1,0,2:0:0:0:
162,196,103754,5,0,2:0:0:0:
142,235,103894,1,0,2:0:0:0:
145,121,104035,5,0,2:0:0:0:
184,101,104175,1,0,2:0:0:0:
312,156,104315,5,0,2:0:0:0:
273,136,104455,1,0,2:0:0:0:
398,162,104596,5,0,2:0:0:0:
392,209,104736,1,0,2:0:0:0:
427,135,104876,2,0,L|445:61,1,42.5,0|0,2:0|2:0,2:0:0:0:
268,294,105156,5,0,2:0:0:0:
262,247,105296,1,0,2:0:0:0:
297,321,105436,2,0,L|315:395,1,42.5,0|0,2:0|2:0,2:0:0:0:
108,339,105717,6,0,L|21:349,2,63.7500024318696,0|0|0,2:0|2:0|2:0,2:0:0:0:
177,240,106558,6,0,L|251:245,2,63.7500024318696,0|0|0,2:0|2:0|2:0,2:0:0:0:
96,150,107399,2,0,L|9:159,1,63.7500024318696,0|0,2:0|2:0,2:0:0:0:
177,98,107820,5,0,2:0:0:0:
289,143,107960,2,0,P|330:77|395:98,1,127.500004863739,0|0,2:0|2:0,2:0:0:0:
342,262,108381,1,0,2:0:0:0:
313,280,108521,2,0,L|282:358,1,63.7500024318696,0|0,2:0|2:0,2:0:0:0:
117,224,108801,2,0,P|114:163|157:140,1,63.7500024318696,0|0,2:0|2:0,2:0:0:0:
22,345,109082,2,0,P|92:329|152:346,1,127.500004863739,0|0,2:0|2:0,2:0:0:0:
31,189,109502,1,0,2:0:0:0:
47,165,109642,2,0,B|34:93|130:46|23:25,1,127.500004863739,0|0,2:0|2:0,2:0:0:0:
207,231,110203,6,0,P|248:281|345:250,1,127.500004863739,0|0,2:0|2:0,2:0:0:0:
382,161,110624,1,0,2:0:0:0:
394,137,110764,2,0,L|400:65,1,63.7500024318696,0|0,2:0|2:0,2:0:0:0:
207,231,111044,2,0,L|201:294,1,63.7500024318696,0|0,2:0|2:0,2:0:0:0:
441,187,111325,2,0,P|435:124|399:73,1,127.500004863739,0|0,2:0|2:0,2:0:0:0:
291,43,111745,1,0,2:0:0:0:
256,62,111885,2,0,P|187:90|85:90,1,127.500004863739,0|0,2:0|2:0,2:0:0:0:
322,149,112306,5,0,2:0:0:0:
352,175,112446,1,0,2:0:0:0:
366,206,112586,1,0,2:0:0:0:
371,247,112726,1,0,2:0:0:0:
226,88,112866,5,0,2:0:0:0:
212,119,113006,1,0,2:0:0:0:
214,156,113146,1,0,2:0:0:0:
229,192,113287,2,0,L|257:252,1,63.7500024318696,0|0,2:0|2:0,2:0:0:0:
101,130,113568,5,0,2:0:0:0:
75,160,113708,1,0,2:0:0:0:
44,174,113848,1,0,2:0:0:0:
3,179,113988,1,0,2:0:0:0:
162,34,114128,5,0,2:0:0:0:
131,20,114268,1,0,2:0:0:0:
94,22,114409,1,0,2:0:0:0:
58,37,114549,1,0,2:0:0:0:
197,56,114689,6,0,L|268:29,1,63.7500024318696,0|0,2:0|2:0,2:0:0:0:
367,293,114969,2,0,L|296:266,1,63.7500024318696,0|0,2:0|2:0,2:0:0:0:
255,35,115250,1,0,2:0:0:0:
293,20,115390,1,0,2:0:0:0:
332,25,115530,1,0,2:0:0:0:
116,175,115670,5,0,2:0:0:0:
154,190,115810,1,0,2:0:0:0:
193,185,115950,1,0,2:0:0:0:
15,216,116091,5,0,2:0:0:0:
0,254,116231,1,0,2:0:0:0:
5,293,116371,2,0,B|32:290|69:283|69:283|102:297|142:306,1,127.500004863739,0|0,2:0|2:0,2:0:0:0:
234,269,116792,5,0,2:0:0:0:
264,240,116932,2,0,L|365:212,1,63.7500024318696,0|0,2:0|2:0,2:0:0:0:
383,117,117212,2,0,P|363:176|377:238,1,127.500004863739,0|0,2:0|2:0,2:0:0:0:
452,288,117633,1,0,2:0:0:0:
495,212,117773,1,0,2:0:0:0:
492,120,117913,1,0,2:0:0:0:
485,103,118054,6,0,L|460:24,1,63.7500024318696,0|0,2:0|2:0,2:0:0:0:
277,106,118334,2,0,L|252:185,1,63.7500024318696,0|0,2:0|2:0,2:0:0:0:
359,30,118614,2,0,B|325:30|263:-25|202:11,1,127.500004863739,0|0,2:0|2:0,2:0:0:0:
277,106,119175,6,0,L|357:96,1,63.7500024318696,0|0,2:0|2:0,2:0:0:0:
447,343,119455,2,0,L|373:327,1,63.7500024318696,0|0,2:0|2:0,2:0:0:0:
335,85,119736,1,0,2:0:0:0:
373,70,119876,1,0,2:0:0:0:
412,75,120016,1,0,2:0:0:0:
273,235,120156,5,0,2:0:0:0:
234,240,120296,1,0,2:0:0:0:
196,225,120436,1,0,2:0:0:0:
393,238,120577,5,0,2:0:0:0:
378,200,120717,1,0,2:0:0:0:
383,160,120857,2,0,B|405:140|405:140|435:149|520:147,1,127.500004863739,0|0,2:0|2:0,2:0:0:0:
342,69,121278,5,0,2:0:0:0:
259,119,121418,2,0,L|178:113,1,63.7500024318696,0|0,2:0|2:0,2:0:0:0:
342,69,121698,5,0,2:0:0:0:
223,153,121839,2,0,L|142:147,1,63.7500024318696,0|0,2:0|2:0,2:0:0:0:
342,69,122119,5,0,2:0:0:0:
182,190,122259,2,0,L|101:184,1,63.7500024318696,0|0,2:0|2:0,2:0:0:0:
47,223,122539,2,0,P|28:153|76:69,1,127.500004863739,0|0,2:0|2:0,2:0:0:0:
143,283,122960,1,0,2:0:0:0:
175,308,123100,2,0,L|332:334,1,127.500004863739,0|0,2:0|2:0,2:0:0:0:
446,283,123521,5,0,2:0:0:0:
463,254,123661,2,0,L|480:193,1,63.7500024318696,0|0,2:0|2:0,2:0:0:0:
279,34,123941,2,0,L|296:95,1,63.7500024318696,0|0,2:0|2:0,2:0:0:0:
457,62,124222,2,0,P|433:33|365:21,1,63.7500024318696,0|0,2:0|2:0,2:0:0:0:
248,295,124502,2,0,P|275:279|294:254,1,63.7500024318696,0|0,2:0|2:0,2:0:0:0:
202,46,124782,5,0,2:0:0:0:
131,22,124923,1,0,2:0:0:0:
60,45,125063,1,0,2:0:0:0:
115,102,125202,5,0,2:0:0:0:
138,173,125343,2,0,L|111:256,1,63.7500024318696,0|0,2:0|2:0,2:0:0:0:
107,244,125624,2,0,L|87:183,1,63.7500024318696,0|0,2:0|2:0,2:0:0:0:
480,352,125904,5,0,2:0:0:0:
480,216,126184,1,0,2:0:0:0:
336,208,126464,2,0,L|304:208,1,21.25,0|0,2:0|2:0,2:0:0:0:
112,96,127025,5,0,2:0:0:0:
32,208,127305,1,0,2:0:0:0:
112,328,127586,2,0,L|112:360,1,21.25,0|0,2:0|2:0,2:0:0:0:
112,349,127867,2,0,L|112:328,1,21.25,0|0,2:0|2:0,2:0:0:0:
288,240,128146,1,0,2:0:0:0:
288,104,128427,1,0,2:0:0:0:
392,16,128707,1,0,2:0:0:0:
488,104,128988,6,0,B|504:128|504:128|504:208,1,85,0|0,2:0|2:0,2:0:0:0:
480,304,129548,1,0,2:0:0:0:
360,352,129829,1,0,2:0:0:0:
237,303,130110,1,0,2:0:0:0:
32,352,130389,5,0,2:0:0:0:
32,216,130669,1,0,2:0:0:0:
176,208,130949,2,0,L|208:208,1,21.25,0|0,2:0|2:0,2:0:0:0:
400,96,131510,5,0,2:0:0:0:
480,208,131790,1,0,2:0:0:0:
400,328,132071,2,0,L|400:360,1,21.25,0|0,2:0|2:0,2:0:0:0:
400,349,132353,2,0,L|400:328,1,21.25,0|0,2:0|2:0,2:0:0:0:
224,240,132631,5,0,2:0:0:0:
224,104,132912,1,0,2:0:0:0:
120,16,133192,1,0,2:0:0:0:
16,104,133474,1,0,2:0:0:0:
224,267,133754,5,0,2:0:0:0:
120,179,134034,1,0,2:0:0:0:
16,267,134316,1,0,2:0:0:0:
120,355,134596,1,0,2:0:0:0:
155,344,134735,5,0,2:0:0:0:
186,362,134875,2,0,L|304:379,1,85,0|0,2:0|2:0,2:0:0:0:
460,270,135296,1,0,2:0:0:0:
479,252,135436,2,0,L|488:154,1,85,0|0,2:0|2:0,2:0:0:0:
332,332,135857,5,0,2:0:0:0:
319,336,135997,2,0,P|286:353|267:385,1,63.75,0|0,2:0|2:0,2:0:0:0:
440,358,136277,2,0,P|473:341|492:309,1,63.75,0|0,2:0|2:0,2:0:0:0:
388,196,136558,2,0,L|397:281,2,85,0|0|0,2:0|2:0|2:0,2:0:0:0:
251,139,137399,6,0,L|247:94,1,42.5,0|0,2:0|2:0,2:0:0:0:
264,96,137680,2,0,L|261:139,1,42.5,0|0,2:0|2:0,2:0:0:0:
138,197,137960,6,0,L|183:193,1,42.5,0|0,2:0|2:0,2:0:0:0:
180,210,138241,2,0,L|137:206,1,42.5,0|0,2:0|2:0,2:0:0:0:
309,187,138521,6,0,L|354:183,1,42.5,0|0,2:0|2:0,2:0:0:0:
351,200,138802,2,0,L|309:197,1,42.5,0|0,2:0|2:0,2:0:0:0:
256,192,139362,12,0,140203,2:0:0:0:
