osu file format v14

[General]
AudioFilename: kurikaeshi hitotsubu.mp3
AudioLeadIn: 3000
PreviewTime: 73769
Countdown: 0
SampleSet: Soft
StackLeniency: 0.5
Mode: 0
LetterboxInBreaks: 1
WidescreenStoryboard: 1

[Editor]
DistanceSpacing: 1.3
BeatDivisor: 2
GridSize: 4
TimelineZoom: 1

[Metadata]
Title:One of Repetition
TitleUnicode:繰り返し一粒
Artist:Yueporu
ArtistUnicode:ゆえぽる
Creator:[-mii-chan-]
Version:Toy
Source:ねこむしP
Tags:vocaloid nico kurikaeshi hitotsubu mii-chan gideon5504 m1223961117 sheela901 tksalt kuo kyoka lzenxl pagno setsurei
BeatmapID:332743
BeatmapSetID:101819

[Difficulty]
HPDrainRate:4
CircleSize:3
OverallDifficulty:4
ApproachRate:5
SliderMultiplier:1.25
SliderTickRate:1

[Events]
//Background and Video events
0,0,"BG_Pagno's Toy.jpg",0,0
//Break Periods
2,90783,97519
2,155868,162603
2,182108,196346
2,214851,221586
//Storyboard Layer 0 (Background)
//Storyboard Layer 1 (Fail)
//Storyboard Layer 2 (Pass)
//Storyboard Layer 3 (Foreground)
//Storyboard Sound Samples

[TimingPoints]
1093,508.474576271186,4,2,2,5,1,0
4143,-100,4,2,2,10,0,0
5160,-100,4,2,2,20,0,0
6177,-100,4,2,2,30,0,0
7194,-100,4,2,2,40,0,0
8211,-100,4,2,2,60,0,0
9228,-100,4,2,2,60,0,0
17364,-100,4,2,2,65,0,0
24991,-100,4,2,2,65,0,0
25245,-100,4,2,2,65,0,0
25499,-111.111111111111,4,2,2,50,0,0
41008,508.474576271186,4,2,2,50,1,0
41008,-100,4,2,2,50,0,0
41516,-100,4,2,2,50,0,0
41770,508.474576271186,4,2,2,60,1,0
41770,-100,4,2,2,60,0,0
50125,-111.111111111111,4,2,2,60,0,0
52193,-111.111111111111,4,2,2,60,0,0
73803,-100,4,2,2,60,0,0
74312,-100,4,2,2,70,0,1
82193,-100,4,2,2,70,0,0
82447,-100,4,2,2,70,0,1
89566,-100,4,2,2,70,0,0
90585,-100,4,2,2,60,0,0
98720,-100,4,2,2,65,0,0
106855,-111.111111111111,4,2,2,50,0,0
123126,-111.111111111111,4,2,2,60,0,0
139398,-100,4,2,2,70,0,1
154651,-100,4,2,2,70,0,0
155670,-100,4,2,2,60,0,0
163803,-111.111111111111,4,2,2,60,0,0
172193,-111.111111111111,4,2,2,60,0,0
178042,-100,4,2,2,50,0,0
180075,-100,4,2,2,5,0,0
185668,-111.111111111111,4,2,2,50,0,0
198381,-100,4,2,2,70,0,1
213634,-100,4,2,2,70,0,0
214653,-100,4,2,2,60,0,0
222787,-100,4,2,2,65,0,0
230923,-100,4,2,2,60,0,0
235244,-111.111111111111,4,2,2,60,0,0
239059,-100,4,2,2,65,0,0

[Colours]
Combo1 : 255,130,202
Combo2 : 255,128,128
Combo3 : 244,11,99
Combo4 : 219,131,252

[HitObjects]
256,192,1093,12,8,8211,3:0:0:0:
145,147,9228,6,0,P|168:212|216:260,1,125,6|8,0:0|0:0,0:0:0:0:
319,130,10245,2,0,B|400:96|400:96|476:96,1,125,2|8,0:0|0:0,0:0:0:0:
280,48,11262,6,0,P|235:101|236:164,2,125,2|8|2,0:0|0:0|0:0,0:0:0:0:
436,60,12787,2,0,L|528:24,2,62.4999999999999,8|0|2,0:0|0:0|0:0,0:0:0:0:
456,220,13804,5,8,0:0:0:0:
352,96,14313,1,2,0:0:0:0:
196,48,14821,1,8,0:0:0:0:
32,60,15330,2,0,P|61:120|56:232,1,125,2|8,0:0|0:0,0:0:0:0:
52,340,16347,2,0,P|112:332|200:272,1,125,2|8,0:0|0:0,0:0:0:0:
324,228,17364,6,0,B|309:128|309:128|240:88,1,125,6|8,0:0|0:0,0:0:0:0:
216,84,18126,1,0,0:0:0:0:
144,48,18381,2,0,P|140:112|224:168,2,125,2|8|2,0:0|0:0|0:0,0:0:0:0:
292,116,19906,1,8,0:0:0:0:
444,188,20415,6,0,B|396:192|360:232|360:232|296:216,1,125,2|8,0:0|0:0,0:0:0:0:
256,204,21177,1,0,0:0:0:0:
180,224,21431,2,0,B|154:231|154:231|118:191|70:187,1,125,2|8,0:0|0:0,0:0:0:0:
224,116,22448,2,0,P|312:132|344:176,1,125,2|8,0:0|0:0,0:0:0:0:
384,220,23211,1,0,0:0:0:0:
408,296,23465,5,0,0:0:0:0:
256,204,23974,1,10,0:0:0:0:
96,168,24482,2,0,L|12:152,2,62.4999999999999,2|0|10,0:0|0:0|0:0,0:0:0:0:
240,93,25499,6,0,P|255:147|256:204,1,112.499996566772,6|0,0:0|0:0,0:0:0:0:
352,316,26516,2,0,P|344:256|356:168,1,112.499996566772,2|0,0:0|0:0,0:0:0:0:
384,64,27533,2,0,P|434:88|471:130,2,112.499996566773,2|0|2,0:0|0:0|0:0,0:0:0:0:
256,96,29059,1,2,0:0:0:0:
112,60,29567,6,0,P|96:132|40:184,1,112.499996566773,6|0,0:0|0:0,0:0:0:0:
216,180,30584,2,0,P|172:224|96:252,1,112.499996566773,2|0,0:0|0:0,0:0:0:0:
254,322,31601,2,0,P|341:256|360:148,1,224.999993133545,2|2,0:0|0:0,0:0:0:0:
216,180,33126,1,2,0:0:0:0:
360,148,33635,6,0,P|408:112|460:24,1,112.499996566773,6|0,0:0|0:0,0:0:0:0:
304,20,34652,2,0,P|255:55|204:144,1,112.499996566773,2|0,0:0|0:0,0:0:0:0:
360,148,35669,2,0,B|302:175|302:175|280:202|211:234|136:195|129:138,1,224.999993133545,2|2,0:0|0:0,0:0:0:0:
104,124,36940,1,0,0:0:0:0:
60,60,37194,2,0,P|31:94|30:141,2,56.2499982833863,2|0|6,0:0|0:0|0:0,0:0:0:0:
104,124,37957,5,0,0:0:0:0:
152,188,38211,2,0,P|163:267|208:324,2,112.499996566773,0|2|0,0:0|0:0|0:0,0:0:0:0:
180,116,39482,1,0,0:0:0:0:
208,44,39737,6,0,B|252:64|272:106|256:148|240:166|240:166|196:212|256:284,1,224.999993133545,2|10,0:0|0:0,0:0:0:0:
260,312,41008,1,8,0:0:0:0:
336,340,41262,2,0,B|344:332|344:332|350:342|350:342|355:332|355:332|362:338|362:338|367:330|367:330|373:331|373:331|419:309|448:234,1,125,8|6,0:0|0:0,0:0:0:0:
296,196,42278,5,8,0:0:0:0:
160,132,42786,2,0,P|124:108|56:12,2,125,2|8|2,0:0|0:0|0:0,0:0:0:0:
296,196,44312,2,0,B|300:246|300:246|307:298|356:312,1,125,0|2,0:0|0:0,0:0:0:0:
384,236,45075,1,0,0:0:0:0:
432,172,45329,2,0,L|480:96,2,62.5,8|0|2,0:0|0:0|0:0,0:0:0:0:
340,308,46346,5,8,0:0:0:0:
256,168,46854,1,2,0:0:0:0:
172,308,47363,1,8,0:0:0:0:
39,224,47871,6,0,P|135:150|256:168,1,250,2|2,0:0|0:0,0:0:0:0:
324,216,49142,1,0,0:0:0:0:
396,180,49397,2,0,P|426:160|456:124,2,62.5,8|0|6,0:0|0:0|0:0,0:0:0:0:
252,248,50414,6,0,P|188:276|96:280,2,112.499996566773,8|2|8,0:0|0:0|0:0,0:0:0:0:
272,172,51685,1,0,0:0:0:0:
288,96,51939,2,0,P|352:68|444:64,1,112.499996566773,2|8,0:0|0:0,0:0:0:0:
384,220,52956,2,0,P|320:248|228:252,1,112.499996566773,2|8,0:0|0:0,0:0:0:0:
200,260,53719,1,0,0:0:0:0:
120,260,53973,6,0,P|68:208|60:156,1,112.499996566773,2|8,0:0|0:0,0:0:0:0:
212,136,54990,1,2,0:0:0:0:
364,176,55498,2,0,P|346:228|303:264,1,112.499996566773,8|2,0:0|0:0,0:0:0:0:
228,240,56261,1,0,0:0:0:0:
152,264,56515,2,0,P|120:240|104:216,2,56.2499982833863,8|0|2,0:0|0:0|0:0,0:0:0:0:
232,128,57532,1,8,0:0:0:0:
324,256,58041,6,0,L|472:212,1,112.499996566773,6|8,0:0|0:0,0:0:0:0:
432,76,59058,2,0,L|324:43,1,112.499996566773,2|8,0:0|0:0,0:0:0:0:
256,84,59820,1,0,0:0:0:0:
187,43,60075,2,0,L|80:76,1,112.499996566773,2|8,0:0|0:0,0:0:0:0:
176,200,61092,5,2,0:0:0:0:
332,200,61600,1,8,0:0:0:0:
256,336,62108,6,0,L|256:224,1,112.499996566773,2|8,0:0|0:0,0:0:0:0:
210,95,63125,2,0,P|183:144|176:200,1,112.499996566773,2|8,0:0|0:0,0:0:0:0:
256,224,63888,1,0,0:0:0:0:
336,199,64142,2,0,P|328:143|302:95,1,112.499996566773,2|8,0:0|0:0,0:0:0:0:
148,56,65159,6,0,B|68:40|68:40|4:80,2,112.499996566773,2|8|6,0:0|0:0|0:0,0:0:0:0:
304,88,66685,1,8,0:0:0:0:
416,200,67193,2,0,B|467:263|467:263|462:338,1,112.499996566773,2|8,0:0|0:0,0:0:0:0:
388,312,67956,1,0,0:0:0:0:
312,332,68210,6,0,P|245:329|192:288,1,112.499996566773,2|8,0:0|0:0,0:0:0:0:
296,174,69227,2,0,P|247:147|192:148,1,112.499996566773,2|8,0:0|0:0,0:0:0:0:
116,172,69990,1,0,0:0:0:0:
40,196,70244,5,2,0:0:0:0:
192,148,70753,1,8,0:0:0:0:
288,272,71261,2,0,P|341:267|416:184,1,112.499996566773,2|8,0:0|0:0,0:0:0:0:
444,180,72024,1,0,0:0:0:0:
480,112,72278,6,0,P|488:84|492:20,2,56.2499982833863,0|2|10,0:0|0:0|0:0,0:0:0:0:
384,236,73295,1,2,0:0:0:0:
240,280,73803,1,2,0:0:0:0:
160,292,74058,1,2,0:0:0:0:
80,280,74312,6,0,P|28:240|-8:144,2,125,4|8|2,0:0|0:0|0:0,0:0:0:0:
152,136,75837,2,0,P|128:96|96:68,2,62.5,8|0|2,0:0|0:0|0:0,0:0:0:0:
200,292,76854,1,8,0:0:0:0:
252,136,77363,2,0,P|284:72|380:32,1,125,2|10,0:0|0:0,0:0:0:0:
404,68,78125,1,2,0:0:0:0:
448,136,78380,6,0,P|416:200|320:240,2,125,6|8|2,0:0|0:0|0:0,0:0:0:0:
292,84,79905,1,8,0:0:0:0:
212,72,80159,1,0,0:0:0:0:
132,60,80414,2,0,L|-8:40,2,125,2|8|2,0:0|0:0|0:0,0:0:0:0:
292,84,81939,1,10,0:0:0:0:
328,156,82193,1,2,0:0:0:0:
340,236,82447,6,0,P|330:308|288:384,2,125,4|8|2,0:0|0:0|0:0,0:0:0:0:
292,84,83973,2,0,P|264:68|240:36,2,62.5,8|0|2,0:0|0:0|0:0,0:0:0:0:
452,116,84990,1,8,0:0:0:0:
340,236,85498,2,0,P|264:244|188:200,1,125,2|8,0:0|0:0,0:0:0:0:
148,188,86261,1,0,0:0:0:0:
80,148,86515,6,0,B|58:187|81:231|81:231|81:323,1,125,6|8,0:0|0:0,0:0:0:0:
224,344,87532,2,0,B|224:224|224:224|200:208,1,125,2|8,0:0|0:0,0:0:0:0:
148,188,88295,1,0,0:0:0:0:
80,148,88549,6,0,P|109:119|213:142,1,125,2|8,0:0|0:0,0:0:0:0:
348,160,89566,2,0,L|512:204,1,125,2|8,0:0|0:0,0:0:0:0:
264,136,90583,5,6,0:0:0:0:
140,76,98719,6,0,B|192:24|255:65|255:65|320:20|388:96,2,250,6|2|2,0:0|0:0|0:0,0:0:0:0:
256,328,101769,1,2,0:0:0:0:
380,240,102278,1,2,0:0:0:0:
444,104,102786,2,0,P|304:112|240:228,2,250,2|2|2,0:0|0:0|0:0,0:0:0:0:
380,240,105329,5,2,0:0:0:0:
256,324,105837,1,2,0:0:0:0:
132,240,106346,1,2,0:0:0:0:
96,96,106854,6,0,B|168:80|224:120|224:120|304:172|372:84,2,250,6|2|2,0:0|0:0|0:0,0:0:0:0:
140,224,109397,1,0,0:0:0:0:
240,316,109905,2,0,P|292:344|392:348,1,112.499996566773,2|2,0:0|0:0,0:0:0:0:
480,344,110922,6,0,B|464:300|464:300|488:220|420:172|420:172|400:104,2,224.999993133545,2|2|2,0:0|0:0|0:0,0:0:0:0:
376,260,113464,1,10,0:0:0:0:
264,184,113973,2,0,L|136:240,1,112.499996566773,10|10,0:0|0:0,0:0:0:0:
108,104,114990,6,0,B|224:56|224:56|280:36|324:56|348:84,2,224.999993133545,2|10|2,0:0|0:0|0:0,0:0:0:0:
140,236,117532,1,8,0:0:0:0:
255,308,118041,2,0,P|274:255|272:200,1,112.499996566773,10|10,0:0|0:0,0:0:0:0:
260,64,119058,6,0,P|320:72|392:136,2,112.499996566773,2|8|10,0:0|0:0|0:0,0:0:0:0:
272,200,120583,1,8,0:0:0:0:
284,336,121092,2,0,P|224:328|152:264,1,112.499996566773,10|10,0:0|0:0,0:0:0:0:
68,228,122108,5,10,0:0:0:0:
148,104,122617,1,10,0:0:0:0:
280,40,123125,6,0,P|296:120|272:188,1,112.499996566773,6|8,0:0|0:0,0:0:0:0:
439,147,124142,2,0,P|426:202|400:252,1,112.499996566773,2|8,0:0|0:0,0:0:0:0:
352,316,124905,1,0,0:0:0:0:
308,248,125159,6,0,P|281:198|268:143,1,112.499996566773,2|8,0:0|0:0,0:0:0:0:
154,37,126176,2,0,P|124:84|116:140,1,112.499996566773,2|8,0:0|0:0,0:0:0:0:
56,192,126939,1,0,0:0:0:0:
113,245,127193,2,0,P|122:300|152:348,1,112.499996566773,2|8,0:0|0:0,0:0:0:0:
268,240,128210,6,0,L|424:192,1,112.499996566773,2|8,0:0|0:0,0:0:0:0:
440,160,128973,1,0,0:0:0:0:
452,236,129227,2,0,B|440:264|408:280|408:280|336:304,1,112.499996566773,2|8,0:0|0:0,0:0:0:0:
204,292,130244,2,0,B|157:276|157:276|125:260|113:232,1,112.499996566773,2|8,0:0|0:0,0:0:0:0:
64,96,131261,5,6,0:0:0:0:
196,184,131769,1,8,0:0:0:0:
332,100,132278,1,2,0:0:0:0:
464,184,132786,1,8,0:0:0:0:
404,236,133041,1,0,0:0:0:0:
340,284,133295,6,0,P|292:308|208:288,1,112.499996566773,2|8,0:0|0:0,0:0:0:0:
260,160,134312,2,0,P|210:140|168:64,1,112.499996566773,2|8,0:0|0:0,0:0:0:0:
120,36,135075,1,0,0:0:0:0:
40,28,135329,6,8,B|34:75|72:103|72:103|71:184,1,112.499996566773,2|8,0:0|0:0,0:0:0:0:
68,288,136346,2,0,P|128:276|200:208,1,112.499996566773,2|8,0:0|0:0,0:0:0:0:
228,196,137108,1,0,0:0:0:0:
284,140,137363,6,0,P|331:110|386:100,2,112.499996566773,2|10|2,0:0|0:0|0:0,0:0:0:0:
132,96,138888,1,10,0:0:0:0:
96,164,139142,1,2,0:0:0:0:
84,244,139397,6,0,P|88:304|128:376,2,112.499996566773,6|8|2,0:0|0:0|0:0,0:0:0:0:
132,96,140922,1,8,0:0:0:0:
200,48,141176,1,0,0:0:0:0:
280,32,141431,6,0,P|340:28|424:60,1,125,2|8,0:0|0:0,0:0:0:0:
324,188,142447,2,0,P|264:192|180:160,1,125,2|8,0:0|0:0,0:0:0:0:
124,148,143210,1,0,0:0:0:0:
52,108,143464,6,0,B|32:144|52:192|52:192|52:256,1,125,6|8,0:0|0:0,0:0:0:0:
168,344,144481,2,0,B|204:340|204:292|204:292|204:224,1,125,2|8,0:0|0:0,0:0:0:0:
256,176,145244,1,0,0:0:0:0:
304,112,145498,6,0,B|272:84|228:96|208:109|208:109|159:109,2,125,2|8|2,0:0|0:0|0:0,0:0:0:0:
456,172,147024,1,10,0:0:0:0:
484,248,147278,1,2,0:0:0:0:
464,328,147532,6,0,B|428:320|408:284|408:284|336:284,1,125,6|8,0:0|0:0,0:0:0:0:
195,278,148549,2,0,P|211:218|248:168,1,125,2|8,0:0|0:0,0:0:0:0:
320,128,149312,1,0,0:0:0:0:
388,172,149566,2,0,P|424:222|440:282,2,125,2|8|2,0:0|0:0|0:0,0:0:0:0:
252,80,151092,5,10,0:0:0:0:
176,52,151346,1,2,0:0:0:0:
100,76,151600,1,6,0:0:0:0:
44,132,151854,1,2,0:0:0:0:
16,208,152108,2,0,P|8:252|8:292,2,62.5,10|2|2,0:0|0:0|0:0,0:0:0:0:
100,76,153125,5,10,0:0:0:0:
176,44,153380,1,2,0:0:0:0:
256,36,153634,2,0,L|412:48,1,125,2|8,0:0|0:0,0:0:0:0:
476,180,154651,2,0,P|420:208|353:206,1,125,2|8,0:0|0:0,0:0:0:0:
380,45,155668,5,6,0:0:0:0:
176,180,163803,6,0,B|172:216|172:216|137:250|136:296,2,112.499996566773,6|8|2,0:0|0:0|0:0,0:0:0:0:
256,304,165329,1,8,0:0:0:0:
336,180,165837,2,0,B|340:216|340:216|374:250|376:296,2,112.499996566773,2|8|2,0:0|0:0|0:0,0:0:0:0:
256,56,167363,1,8,0:0:0:0:
256,136,167617,1,0,0:0:0:0:
256,216,167871,5,2,0:0:0:0:
120,132,168380,1,8,0:0:0:0:
200,268,168888,1,2,0:0:0:0:
344,336,169397,1,8,0:0:0:0:
412,296,169651,1,0,0:0:0:0:
472,244,169905,6,0,P|494:183|484:100,1,112.499996566773,2|8,0:0|0:0,0:0:0:0:
336,156,170922,2,0,L|212:140,1,112.499996566773,2|8,0:0|0:0,0:0:0:0:
68,120,171939,5,6,0:0:0:0:
124,268,172447,1,8,0:0:0:0:
224,148,172956,2,0,P|264:200|280:296,1,112.499996566773,2|8,0:0|0:0,0:0:0:0:
340,296,173719,1,0,0:0:0:0:
400,244,173973,2,0,P|419:191|454:148,1,112.499996566773,2|8,0:0|0:0,0:0:0:0:
340,36,174990,5,2,0:0:0:0:
224,148,175498,1,8,0:0:0:0:
240,224,175753,1,0,0:0:0:0:
276,296,176007,6,0,P|304:328|392:368,1,112.499996566773,2|8,0:0|0:0,0:0:0:0:
408,212,177024,2,0,B|432:188|432:188|480:144|468:68,1,112.499996566773,2|8,0:0|0:0,0:0:0:0:
312,76,178041,5,12,0:0:0:0:
256,192,178168,12,0,180075,0:0:0:0:
176,196,197871,5,10,0:0:0:0:
236,248,198125,1,2,0:0:0:0:
300,292,198380,6,0,P|346:315|444:340,2,112.499996566773,6|8|2,0:0|0:0|0:0,0:0:0:0:
176,196,199905,1,8,0:0:0:0:
120,136,200159,1,0,0:0:0:0:
92,60,200414,6,0,B|116:48|152:60|152:60|248:48,1,125,2|8,0:0|0:0,0:0:0:0:
292,28,201176,1,0,0:0:0:0:
368,56,201431,2,0,B|430:63|430:63|466:51|490:63,1,125,2|8,0:0|0:0,0:0:0:0:
468,140,202193,1,0,0:0:0:0:
444,216,202447,6,0,L|396:360,1,125,6|8,0:0|0:0,0:0:0:0:
304,204,203464,2,0,B|316:160|316:160|352:120|343:85,1,125,2|8,0:0|0:0,0:0:0:0:
256,92,204227,1,0,0:0:0:0:
167,88,204481,2,0,B|160:120|196:160|196:160|208:204,1,125,2|8,0:0|0:0,0:0:0:0:
256,344,205498,5,2,0:0:0:0:
180,200,206007,1,10,0:0:0:0:
256,168,206261,1,2,0:0:0:0:
332,192,206515,6,0,P|380:224|412:316,2,125,6|8|2,0:0|0:0|0:0,0:0:0:0:
192,108,208041,1,8,0:0:0:0:
120,144,208295,1,0,0:0:0:0:
60,200,208549,6,0,P|56:268|88:324,1,125,2|8,0:0|0:0,0:0:0:0:
213,225,209566,2,0,P|218:163|192:108,1,125,2|8,0:0|0:0,0:0:0:0:
256,56,210329,1,0,0:0:0:0:
320,108,210583,2,0,P|293:163|298:225,2,125,6|8|2,0:0|0:0|0:0,0:0:0:0:
456,196,212108,1,0,0:0:0:0:
299,224,212617,6,0,P|252:266|192:281,1,125,2|8,0:0|0:0,0:0:0:0:
86,225,213634,2,0,P|133:266|193:282,1,125,2|8,0:0|0:0,0:0:0:0:
196,120,214651,5,4,0:0:0:0:
156,148,222786,6,0,B|120:176|120:228|120:228|100:256|100:288,1,125,6|8,0:0|0:0,0:0:0:0:
176,300,223549,1,0,0:0:0:0:
260,320,223803,2,0,P|257:274|160:212,2,125,2|8|2,0:0|0:0|0:0,0:0:0:0:
340,180,225329,1,0,0:0:0:0:
416,324,225837,2,0,P|419:278|516:216,1,125,2|8,0:0|0:0,0:0:0:0:
464,140,226600,1,0,0:0:0:0:
476,60,226854,6,0,B|432:48|396:92|396:92|336:96,1,125,2|8,0:0|0:0,0:0:0:0:
280,96,227617,1,0,0:0:0:0:
200,96,227871,2,0,B|166:93|166:93|136:48|64:64,1,125,2|8,0:0|0:0,0:0:0:0:
100,144,228634,1,0,0:0:0:0:
116,224,228888,5,2,0:0:0:0:
256,304,229397,1,10,0:0:0:0:
396,224,229905,2,0,B|396:144|396:144|440:80,1,125,2|8,0:0|0:0,0:0:0:0:
352,64,230668,1,0,0:0:0:0:
284,108,230922,2,0,B|309:145|309:145|309:225,2,125,6|8|2,0:0|0:0|0:0,0:0:0:0:
124,72,232447,5,8,0:0:0:0:
56,116,232702,1,0,0:0:0:0:
16,188,232956,2,0,P|58:231|72:344,1,125,2|8,0:0|0:0,0:0:0:0:
240,292,233973,2,0,P|258:232|302:188,1,125,2|8,0:0|0:0,0:0:0:0:
356,128,234736,1,0,0:0:0:0:
300,68,234990,6,0,B|280:88|276:116|276:116|236:136|200:176,1,125,2|8,0:0|0:0,0:0:0:0:
356,128,236007,2,0,B|388:161|388:161|440:176|452:252,1,112.499996566773,2|8,0:0|0:0,0:0:0:0:
367,238,236769,1,0,0:0:0:0:
288,256,237024,6,0,P|232:292|192:344,1,112.499996566773,2|8,0:0|0:0,0:0:0:0:
100,204,238041,2,0,P|156:168|196:116,1,112.499996566773,2|8,0:0|0:0,0:0:0:0:
264,104,238803,1,0,0:0:0:0:
340,140,239058,6,0,B|312:192|248:188|248:188|220:233|152:280,2,224.999993133545,6|2|2,0:0|0:0|0:0,0:0:0:0:
468,36,241600,2,0,B|448:75|448:75|472:116|460:200,1,125,10|2,0:0|0:0,0:0:0:0:
468,316,242617,1,8,0:0:0:0:
388,300,242871,1,0,0:0:0:0:
324,252,243125,6,0,L|248:96,1,125,2|8,0:0|0:0,0:0:0:0:
116,192,244142,2,0,L|32:92,1,125,2|8,0:0|0:0,0:0:0:0:
96,44,244905,1,0,0:0:0:0:
176,32,245159,5,2,0:0:0:0:
320,112,245668,2,0,P|356:176|356:240,2,125,10|2|10,0:0|0:0|0:0,0:0:0:0:
188,216,247193,5,14,0:0:0:0:
