osu file format v14

[General]
AudioFilename: kurikaeshi hitotsubu.mp3
AudioLeadIn: 3000
PreviewTime: 73769
Countdown: 0
SampleSet: Normal
StackLeniency: 0.5
Mode: 1
LetterboxInBreaks: 0
WidescreenStoryboard: 0

[Editor]
Bookmarks: 39066,40973,58022,247174,247193
DistanceSpacing: 1.4
BeatDivisor: 4
GridSize: 32
TimelineZoom: 1

[Metadata]
Title:One of Repetition
TitleUnicode:繰り返し一粒
Artist:Yueporu
ArtistUnicode:ゆえぽる
Creator:[-mii-chan-]
Version:Oni
Source:ねこむしP
Tags:vocaloid nico kurikaeshi hitotsubu mii-chan gideon5504 m1223961117 sheela901 tksalt kuo kyoka lzenxl pagno setsurei
BeatmapID:322769
BeatmapSetID:101819

[Difficulty]
HPDrainRate:6
CircleSize:4
OverallDifficulty:5
ApproachRate:5
SliderMultiplier:1.4
SliderTickRate:1

[Events]
//Background and Video events
0,0,"BG_TK's Inner.jpg",0,0
//Break Periods
//Storyboard Layer 0 (Background)
//Storyboard Layer 1 (Fail)
//Storyboard Layer 2 (Pass)
//Storyboard Layer 3 (Foreground)
//Storyboard Sound Samples

[TimingPoints]
1093,508.474576271186,4,1,0,70,1,0
4143,-83.3333333333333,4,1,0,70,0,0
74312,-76.9230769230769,4,1,0,80,0,1
89566,-76.9230769230769,4,1,0,70,0,0
90583,-83.3333333333333,4,1,0,70,0,0
139398,-76.9230769230769,4,1,0,80,0,1
154651,-76.9230769230769,4,1,0,70,0,0
155670,-83.3333333333333,4,1,0,70,0,0
178042,-100,4,1,0,50,0,0
197871,-76.9230769230769,4,1,0,50,0,0
198381,-76.9230769230769,4,1,0,90,0,1
213634,-76.9230769230769,4,1,0,80,0,0
214653,-83.3333333333333,4,1,0,80,0,0
230923,-83.3333333333333,4,1,0,70,0,0

[Colours]
Combo1 : 106,207,255
Combo2 : 255,128,128

[HitObjects]
256,192,8211,5,4,0:0:0:0:
256,192,8974,1,0,0:0:0:0:
256,192,9228,1,4,0:0:0:0:
256,192,9482,1,0,0:0:0:0:
256,192,9609,1,0,0:0:0:0:
256,192,9737,1,8,0:0:0:0:
256,192,9991,1,0,0:0:0:0:
256,192,10118,1,0,0:0:0:0:
256,192,10245,1,8,0:0:0:0:
256,192,10372,1,0,0:0:0:0:
256,192,10499,1,0,0:0:0:0:
256,192,10754,1,8,0:0:0:0:
256,192,11008,1,0,0:0:0:0:
256,192,11262,1,0,0:0:0:0:
256,192,11389,1,0,0:0:0:0:
256,192,11516,1,0,0:0:0:0:
256,192,11643,1,0,0:0:0:0:
256,192,11770,1,8,0:0:0:0:
256,192,12025,1,0,0:0:0:0:
256,192,12152,1,0,0:0:0:0:
256,192,12279,1,8,0:0:0:0:
256,192,12533,1,0,0:0:0:0:
256,192,12660,1,0,0:0:0:0:
256,192,12787,1,8,0:0:0:0:
256,192,13042,1,8,0:0:0:0:
256,192,13169,1,8,0:0:0:0:
256,192,13296,1,0,0:0:0:0:
256,192,13423,1,0,0:0:0:0:
256,192,13550,1,8,0:0:0:0:
256,192,13804,1,8,0:0:0:0:
256,192,13931,1,0,0:0:0:0:
256,192,14059,1,0,0:0:0:0:
256,192,14186,1,0,0:0:0:0:
256,192,14313,1,0,0:0:0:0:
256,192,14567,1,0,0:0:0:0:
256,192,14694,1,0,0:0:0:0:
256,192,14821,1,8,0:0:0:0:
256,192,15076,1,0,0:0:0:0:
256,192,15330,1,0,0:0:0:0:
256,192,15584,1,0,0:0:0:0:
256,192,15711,1,0,0:0:0:0:
256,192,15838,1,8,0:0:0:0:
256,192,15965,1,0,0:0:0:0:
256,192,16092,1,0,0:0:0:0:
256,192,16347,1,12,0:0:0:0:
256,192,16601,1,0,0:0:0:0:
256,192,16728,1,0,0:0:0:0:
256,192,16855,1,8,0:0:0:0:
256,192,17109,1,0,0:0:0:0:
256,192,17364,1,12,0:0:0:0:
256,192,17618,1,0,0:0:0:0:
256,192,17745,1,0,0:0:0:0:
256,192,17872,1,8,0:0:0:0:
256,192,18126,1,8,0:0:0:0:
256,192,18254,1,0,0:0:0:0:
256,192,18381,1,8,0:0:0:0:
256,192,18508,1,8,0:0:0:0:
256,192,18635,1,0,0:0:0:0:
256,192,18762,1,0,0:0:0:0:
256,192,18889,1,8,0:0:0:0:
256,192,19143,1,8,0:0:0:0:
256,192,19270,1,8,0:0:0:0:
256,192,19398,1,0,0:0:0:0:
256,192,19652,1,8,0:0:0:0:
256,192,19779,1,0,0:0:0:0:
256,192,19906,1,8,0:0:0:0:
256,192,20033,1,0,0:0:0:0:
256,192,20160,1,8,0:0:0:0:
256,192,20287,1,8,0:0:0:0:
256,192,20415,1,0,0:0:0:0:
256,192,20542,1,8,0:0:0:0:
256,192,20669,1,0,0:0:0:0:
256,192,20796,1,0,0:0:0:0:
256,192,20923,1,8,0:0:0:0:
256,192,21177,1,0,0:0:0:0:
256,192,21431,1,8,0:0:0:0:
256,192,21559,1,0,0:0:0:0:
256,192,21686,1,0,0:0:0:0:
256,192,21813,1,0,0:0:0:0:
256,192,21940,1,8,0:0:0:0:
256,192,22067,1,0,0:0:0:0:
256,192,22194,1,8,0:0:0:0:
256,192,22448,1,8,0:0:0:0:
256,192,22576,1,8,0:0:0:0:
256,192,22703,1,0,0:0:0:0:
256,192,22830,1,0,0:0:0:0:
256,192,22957,1,8,0:0:0:0:
256,192,23211,1,0,0:0:0:0:
256,192,23465,1,0,0:0:0:0:
256,192,23974,1,8,0:0:0:0:
256,192,24737,1,0,0:0:0:0:
256,192,24991,1,12,0:0:0:0:
256,192,25245,1,0,0:0:0:0:
256,192,25499,1,4,0:0:0:0:
256,192,25754,1,0,0:0:0:0:
256,192,26008,1,0,0:0:0:0:
256,192,26262,1,8,0:0:0:0:
256,192,26770,1,0,0:0:0:0:
256,192,27025,1,0,0:0:0:0:
256,192,27279,1,8,0:0:0:0:
256,192,27533,1,0,0:0:0:0:
256,192,27787,1,0,0:0:0:0:
256,192,28042,1,0,0:0:0:0:
256,192,28296,1,0,0:0:0:0:
256,192,28423,1,8,0:0:0:0:
256,192,28804,1,8,0:0:0:0:
256,192,29059,1,0,0:0:0:0:
256,192,29313,1,8,0:0:0:0:
256,192,29567,1,0,0:0:0:0:
256,192,29821,1,0,0:0:0:0:
256,192,30076,1,0,0:0:0:0:
256,192,30330,1,8,0:0:0:0:
256,192,30838,1,0,0:0:0:0:
256,192,31092,1,0,0:0:0:0:
256,192,31347,1,8,0:0:0:0:
256,192,31601,1,0,0:0:0:0:
256,192,31855,1,0,0:0:0:0:
256,192,32109,1,0,0:0:0:0:
256,192,32364,1,0,0:0:0:0:
256,192,32491,1,8,0:0:0:0:
256,192,32872,1,8,0:0:0:0:
256,192,32999,1,8,0:0:0:0:
256,192,33126,1,0,0:0:0:0:
256,192,33254,1,0,0:0:0:0:
256,192,33381,1,8,0:0:0:0:
256,192,33635,1,4,0:0:0:0:
256,192,33890,1,0,0:0:0:0:
256,192,34144,1,0,0:0:0:0:
256,192,34398,1,8,0:0:0:0:
256,192,34906,1,0,0:0:0:0:
256,192,35161,1,0,0:0:0:0:
256,192,35415,1,8,0:0:0:0:
256,192,35669,1,0,0:0:0:0:
256,192,35923,1,0,0:0:0:0:
256,192,36178,1,0,0:0:0:0:
256,192,36432,1,0,0:0:0:0:
256,192,36559,1,8,0:0:0:0:
256,192,36940,1,8,0:0:0:0:
256,192,37195,1,0,0:0:0:0:
256,192,37449,1,8,0:0:0:0:
256,192,37703,1,0,0:0:0:0:
256,192,37957,1,0,0:0:0:0:
256,192,38212,1,0,0:0:0:0:
256,192,38466,1,8,0:0:0:0:
256,192,38974,1,0,0:0:0:0:
256,192,39228,1,0,0:0:0:0:
256,192,39483,1,8,0:0:0:0:
256,192,39737,1,0,0:0:0:0:
256,192,39991,1,0,0:0:0:0:
256,192,40245,1,0,0:0:0:0:
256,192,40372,1,0,0:0:0:0:
256,192,40627,1,8,0:0:0:0:
256,192,40754,1,8,0:0:0:0:
256,192,41008,1,0,0:0:0:0:
256,192,41262,1,12,0:0:0:0:
256,192,41516,1,0,0:0:0:0:
256,192,41770,1,4,0:0:0:0:
256,192,42024,1,0,0:0:0:0:
256,192,42151,1,0,0:0:0:0:
256,192,42278,1,8,0:0:0:0:
256,192,42532,1,8,0:0:0:0:
256,192,42786,1,0,0:0:0:0:
256,192,42914,1,0,0:0:0:0:
256,192,43041,1,8,0:0:0:0:
256,192,43168,1,0,0:0:0:0:
256,192,43295,1,8,0:0:0:0:
256,192,43549,1,8,0:0:0:0:
256,192,43803,1,0,0:0:0:0:
256,192,44058,1,8,0:0:0:0:
256,192,44312,1,0,0:0:0:0:
256,192,44439,1,0,0:0:0:0:
256,192,44566,1,0,0:0:0:0:
256,192,44693,1,8,0:0:0:0:
256,192,44947,1,0,0:0:0:0:
256,192,45075,1,8,0:0:0:0:
256,192,45329,1,8,0:0:0:0:
256,192,45456,1,8,0:0:0:0:
256,192,45583,1,0,0:0:0:0:
256,192,45837,1,0,0:0:0:0:
256,192,46092,1,0,0:0:0:0:
256,192,46219,1,0,0:0:0:0:
256,192,46346,1,8,0:0:0:0:
256,192,46600,1,8,0:0:0:0:
256,192,46854,1,0,0:0:0:0:
256,192,46981,1,0,0:0:0:0:
256,192,47108,1,8,0:0:0:0:
256,192,47236,1,0,0:0:0:0:
256,192,47363,1,8,0:0:0:0:
256,192,47617,1,8,0:0:0:0:
256,192,47871,1,0,0:0:0:0:
256,192,48125,1,8,0:0:0:0:
256,192,48380,1,0,0:0:0:0:
256,192,48634,1,0,0:0:0:0:
256,192,48761,1,0,0:0:0:0:
256,192,48888,1,8,0:0:0:0:
256,192,49015,1,0,0:0:0:0:
256,192,49269,1,8,0:0:0:0:
256,192,49397,1,0,0:0:0:0:
256,192,49524,1,0,0:0:0:0:
256,192,49651,1,8,0:0:0:0:
256,192,49905,1,4,0:0:0:0:
256,192,50159,1,0,0:0:0:0:
256,192,50286,1,0,0:0:0:0:
256,192,50413,1,8,0:0:0:0:
256,192,50541,1,0,0:0:0:0:
256,192,50667,1,8,0:0:0:0:
256,192,50921,1,0,0:0:0:0:
256,192,51176,1,8,0:0:0:0:
256,192,51303,1,0,0:0:0:0:
256,192,51430,1,8,0:0:0:0:
256,192,51558,1,0,0:0:0:0:
256,192,51684,1,8,0:0:0:0:
256,192,51938,1,0,0:0:0:0:
256,192,52193,1,8,0:0:0:0:
256,192,52447,1,0,0:0:0:0:
256,192,52574,1,0,0:0:0:0:
256,192,52701,1,0,0:0:0:0:
256,192,52828,1,8,0:0:0:0:
256,192,53082,1,0,0:0:0:0:
256,192,53210,1,8,0:0:0:0:
256,192,53464,1,8,0:0:0:0:
256,192,53591,1,8,0:0:0:0:
256,192,53718,1,0,0:0:0:0:
256,192,53972,1,0,0:0:0:0:
256,192,54227,1,0,0:0:0:0:
256,192,54354,1,0,0:0:0:0:
256,192,54481,1,8,0:0:0:0:
256,192,54608,1,0,0:0:0:0:
256,192,54735,1,8,0:0:0:0:
256,192,54989,1,0,0:0:0:0:
256,192,55243,1,8,0:0:0:0:
256,192,55371,1,0,0:0:0:0:
256,192,55498,1,8,0:0:0:0:
256,192,55625,1,0,0:0:0:0:
256,192,55752,1,8,0:0:0:0:
256,192,56006,1,0,0:0:0:0:
256,192,56260,1,8,0:0:0:0:
256,192,56515,1,0,0:0:0:0:
256,192,56642,1,0,0:0:0:0:
256,192,56897,1,8,0:0:0:0:
256,192,57024,1,0,0:0:0:0:
256,192,57278,1,0,0:0:0:0:
256,192,57405,1,0,0:0:0:0:
256,192,57532,1,8,0:0:0:0:
256,192,57786,1,0,0:0:0:0:
256,192,58041,1,12,0:0:0:0:
256,192,58295,1,8,0:0:0:0:
256,192,58422,1,0,0:0:0:0:
256,192,58549,1,8,0:0:0:0:
256,192,58676,1,8,0:0:0:0:
256,192,58803,1,8,0:0:0:0:
256,192,59058,1,0,0:0:0:0:
256,192,59312,1,0,0:0:0:0:
256,192,59439,1,0,0:0:0:0:
256,192,59566,1,8,0:0:0:0:
256,192,59820,1,0,0:0:0:0:
256,192,60075,1,0,0:0:0:0:
256,192,60329,1,8,0:0:0:0:
256,192,60456,1,8,0:0:0:0:
256,192,60583,1,0,0:0:0:0:
256,192,60710,1,0,0:0:0:0:
256,192,60837,1,8,0:0:0:0:
256,192,61092,1,0,0:0:0:0:
256,192,61346,1,0,0:0:0:0:
256,192,61473,1,0,0:0:0:0:
256,192,61600,1,8,0:0:0:0:
256,192,61854,1,0,0:0:0:0:
256,192,62108,1,0,0:0:0:0:
256,192,62363,1,8,0:0:0:0:
256,192,62490,1,8,0:0:0:0:
256,192,62617,1,0,0:0:0:0:
256,192,62744,1,0,0:0:0:0:
256,192,62871,1,0,0:0:0:0:
256,192,62998,1,8,0:0:0:0:
256,192,63125,1,0,0:0:0:0:
256,192,63380,1,0,0:0:0:0:
256,192,63507,1,0,0:0:0:0:
256,192,63634,1,8,0:0:0:0:
256,192,63888,1,0,0:0:0:0:
256,192,64142,1,8,0:0:0:0:
256,192,64397,1,0,0:0:0:0:
256,192,64524,1,0,0:0:0:0:
256,192,64651,1,8,0:0:0:0:
256,192,64778,1,0,0:0:0:0:
256,192,65032,1,0,0:0:0:0:
256,192,65159,1,8,0:0:0:0:
256,192,65414,1,0,0:0:0:0:
256,192,65541,1,8,0:0:0:0:
256,192,65668,1,0,0:0:0:0:
256,192,65795,1,0,0:0:0:0:
256,192,65922,1,8,0:0:0:0:
256,192,66176,1,12,0:0:0:0:
256,192,66431,1,8,0:0:0:0:
256,192,66558,1,0,0:0:0:0:
256,192,66685,1,0,0:0:0:0:
256,192,66812,1,8,0:0:0:0:
256,192,66939,1,8,0:0:0:0:
256,192,67066,1,8,0:0:0:0:
256,192,67193,1,0,0:0:0:0:
256,192,67447,1,0,0:0:0:0:
256,192,67575,1,0,0:0:0:0:
256,192,67702,1,8,0:0:0:0:
256,192,67956,1,0,0:0:0:0:
256,192,68210,1,0,0:0:0:0:
256,192,68464,1,8,0:0:0:0:
256,192,68592,1,8,0:0:0:0:
256,192,68719,1,0,0:0:0:0:
256,192,68846,1,0,0:0:0:0:
256,192,68973,1,8,0:0:0:0:
256,192,69100,1,8,0:0:0:0:
256,192,69227,1,0,0:0:0:0:
256,192,69481,1,0,0:0:0:0:
256,192,69608,1,0,0:0:0:0:
256,192,69736,1,8,0:0:0:0:
256,192,69990,1,0,0:0:0:0:
256,192,70244,1,0,0:0:0:0:
256,192,70498,1,8,0:0:0:0:
256,192,70625,1,0,0:0:0:0:
256,192,70753,1,0,0:0:0:0:
256,192,70880,1,8,0:0:0:0:
256,192,71134,1,0,0:0:0:0:
256,192,71261,1,8,0:0:0:0:
256,192,71515,1,8,0:0:0:0:
256,192,71642,1,0,0:0:0:0:
256,192,71769,1,0,0:0:0:0:
256,192,71897,1,0,0:0:0:0:
256,192,72024,1,8,0:0:0:0:
256,192,72278,1,4,0:0:0:0:
256,192,72532,1,0,0:0:0:0:
256,192,72786,1,12,0:0:0:0:
256,192,73041,1,8,0:0:0:0:
256,192,73125,1,8,0:0:0:0:
256,192,73210,1,0,0:0:0:0:
256,192,73295,1,8,0:0:0:0:
256,192,73803,1,8,0:0:0:0:
256,192,73888,1,8,0:0:0:0:
256,192,73973,1,8,0:0:0:0:
256,192,74058,1,0,0:0:0:0:
256,192,74312,1,4,0:0:0:0:
256,192,74566,1,0,0:0:0:0:
256,192,74693,1,0,0:0:0:0:
256,192,74820,1,8,0:0:0:0:
256,192,75075,1,0,0:0:0:0:
256,192,75202,1,0,0:0:0:0:
256,192,75329,1,8,0:0:0:0:
256,192,75456,1,0,0:0:0:0:
256,192,75583,1,0,0:0:0:0:
256,192,75710,1,8,0:0:0:0:
256,192,75964,1,0,0:0:0:0:
256,192,76092,1,8,0:0:0:0:
256,192,76346,1,0,0:0:0:0:
256,192,76600,1,8,0:0:0:0:
256,192,76727,1,8,0:0:0:0:
256,192,76854,1,0,0:0:0:0:
256,192,76981,1,0,0:0:0:0:
256,192,77108,1,8,0:0:0:0:
256,192,77236,1,0,0:0:0:0:
256,192,77363,1,8,0:0:0:0:
256,192,77617,1,0,0:0:0:0:
256,192,77744,1,0,0:0:0:0:
256,192,77871,1,8,0:0:0:0:
256,192,78125,1,0,0:0:0:0:
256,192,78380,1,12,0:0:0:0:
256,192,78634,1,0,0:0:0:0:
256,192,78761,1,0,0:0:0:0:
256,192,78888,1,8,0:0:0:0:
256,192,79015,1,0,0:0:0:0:
256,192,79269,1,0,0:0:0:0:
256,192,79397,1,8,0:0:0:0:
256,192,79524,1,0,0:0:0:0:
256,192,79651,1,0,0:0:0:0:
256,192,79778,1,8,0:0:0:0:
256,192,80032,1,0,0:0:0:0:
256,192,80159,1,8,0:0:0:0:
256,192,80414,1,0,0:0:0:0:
256,192,80668,1,0,0:0:0:0:
256,192,80795,1,0,0:0:0:0:
256,192,80922,1,8,0:0:0:0:
256,192,81176,1,8,0:0:0:0:
256,192,81431,1,0,0:0:0:0:
256,192,81685,1,8,0:0:0:0:
256,192,81769,1,8,0:0:0:0:
256,192,81854,1,8,0:0:0:0:
256,192,81939,1,0,0:0:0:0:
256,192,82066,1,0,0:0:0:0:
256,192,82193,1,8,0:0:0:0:
256,192,82447,1,4,0:0:0:0:
256,192,82701,1,0,0:0:0:0:
256,192,82828,1,0,0:0:0:0:
256,192,82955,1,8,0:0:0:0:
256,192,83210,1,0,0:0:0:0:
256,192,83337,1,0,0:0:0:0:
256,192,83464,1,8,0:0:0:0:
256,192,83591,1,0,0:0:0:0:
256,192,83718,1,0,0:0:0:0:
256,192,83845,1,8,0:0:0:0:
256,192,84099,1,0,0:0:0:0:
256,192,84227,1,8,0:0:0:0:
256,192,84481,1,0,0:0:0:0:
256,192,84735,1,8,0:0:0:0:
256,192,84862,1,8,0:0:0:0:
256,192,84989,1,0,0:0:0:0:
256,192,85116,1,0,0:0:0:0:
256,192,85243,1,8,0:0:0:0:
256,192,85371,1,0,0:0:0:0:
256,192,85498,1,8,0:0:0:0:
256,192,85752,1,0,0:0:0:0:
256,192,85879,1,0,0:0:0:0:
256,192,86006,1,8,0:0:0:0:
256,192,86260,1,0,0:0:0:0:
256,192,86515,1,12,0:0:0:0:
256,192,86769,1,0,0:0:0:0:
256,192,86896,1,0,0:0:0:0:
256,192,87023,1,8,0:0:0:0:
256,192,87150,1,0,0:0:0:0:
256,192,87404,1,0,0:0:0:0:
256,192,87532,1,8,0:0:0:0:
256,192,87659,1,0,0:0:0:0:
256,192,87786,1,0,0:0:0:0:
256,192,87913,1,8,0:0:0:0:
256,192,88167,1,0,0:0:0:0:
256,192,88294,1,8,0:0:0:0:
256,192,88549,1,0,0:0:0:0:
256,192,88803,1,0,0:0:0:0:
256,192,88930,1,0,0:0:0:0:
256,192,89057,1,8,0:0:0:0:
256,192,89311,1,8,0:0:0:0:
256,192,89566,1,8,0:0:0:0:
256,192,89651,1,8,0:0:0:0:
256,192,89736,1,0,0:0:0:0:
256,192,89820,1,0,0:0:0:0:
256,192,89905,1,0,0:0:0:0:
256,192,89990,1,0,0:0:0:0:
256,192,90075,1,8,0:0:0:0:
256,192,90202,1,0,0:0:0:0:
256,192,90329,1,0,0:0:0:0:
256,192,90583,1,12,0:0:0:0:
256,192,90837,1,0,0:0:0:0:
256,192,90964,1,0,0:0:0:0:
256,192,91092,1,8,0:0:0:0:
256,192,91346,1,0,0:0:0:0:
256,192,91473,1,0,0:0:0:0:
256,192,91600,1,8,0:0:0:0:
256,192,91727,1,0,0:0:0:0:
256,192,91854,1,0,0:0:0:0:
256,192,92109,1,8,0:0:0:0:
256,192,92363,1,0,0:0:0:0:
256,192,92617,1,0,0:0:0:0:
256,192,92744,1,0,0:0:0:0:
256,192,92871,1,0,0:0:0:0:
256,192,92998,1,0,0:0:0:0:
256,192,93125,1,8,0:0:0:0:
256,192,93380,1,0,0:0:0:0:
256,192,93507,1,0,0:0:0:0:
256,192,93634,1,8,0:0:0:0:
256,192,93888,1,0,0:0:0:0:
256,192,94015,1,0,0:0:0:0:
256,192,94142,1,8,0:0:0:0:
256,192,94397,1,8,0:0:0:0:
256,192,94524,1,8,0:0:0:0:
256,192,94651,1,0,0:0:0:0:
256,192,94778,1,0,0:0:0:0:
256,192,94905,1,8,0:0:0:0:
256,192,95159,1,8,0:0:0:0:
256,192,95286,1,0,0:0:0:0:
256,192,95414,1,0,0:0:0:0:
256,192,95541,1,0,0:0:0:0:
256,192,95668,1,0,0:0:0:0:
256,192,95922,1,0,0:0:0:0:
256,192,96049,1,0,0:0:0:0:
256,192,96176,1,8,0:0:0:0:
256,192,96431,1,0,0:0:0:0:
256,192,96685,1,0,0:0:0:0:
256,192,96939,1,0,0:0:0:0:
256,192,97066,1,0,0:0:0:0:
256,192,97193,1,8,0:0:0:0:
256,192,97320,1,0,0:0:0:0:
256,192,97447,1,0,0:0:0:0:
256,192,97702,1,12,0:0:0:0:
256,192,97956,1,0,0:0:0:0:
256,192,98083,1,0,0:0:0:0:
256,192,98210,1,8,0:0:0:0:
256,192,98464,1,0,0:0:0:0:
256,192,98719,1,12,0:0:0:0:
256,192,98973,1,0,0:0:0:0:
256,192,99100,1,0,0:0:0:0:
256,192,99227,1,8,0:0:0:0:
256,192,99481,1,8,0:0:0:0:
256,192,99609,1,0,0:0:0:0:
256,192,99736,1,8,0:0:0:0:
256,192,99863,1,8,0:0:0:0:
256,192,99990,1,0,0:0:0:0:
256,192,100117,1,0,0:0:0:0:
256,192,100244,1,8,0:0:0:0:
256,192,100498,1,8,0:0:0:0:
256,192,100625,1,8,0:0:0:0:
256,192,100753,1,0,0:0:0:0:
256,192,101007,1,8,0:0:0:0:
256,192,101134,1,0,0:0:0:0:
256,192,101261,1,8,0:0:0:0:
256,192,101388,1,0,0:0:0:0:
256,192,101515,1,8,0:0:0:0:
256,192,101642,1,8,0:0:0:0:
256,192,101770,1,0,0:0:0:0:
256,192,101897,1,8,0:0:0:0:
256,192,102024,1,0,0:0:0:0:
256,192,102151,1,0,0:0:0:0:
256,192,102278,1,8,0:0:0:0:
256,192,102532,1,0,0:0:0:0:
256,192,102786,1,8,0:0:0:0:
256,192,102914,1,0,0:0:0:0:
256,192,103041,1,0,0:0:0:0:
256,192,103168,1,0,0:0:0:0:
256,192,103295,1,8,0:0:0:0:
256,192,103422,1,0,0:0:0:0:
256,192,103549,1,8,0:0:0:0:
256,192,103803,1,8,0:0:0:0:
256,192,103931,1,8,0:0:0:0:
256,192,104058,1,0,0:0:0:0:
256,192,104185,1,0,0:0:0:0:
256,192,104312,1,8,0:0:0:0:
256,192,104566,1,0,0:0:0:0:
256,192,104820,1,0,0:0:0:0:
256,192,105329,1,8,0:0:0:0:
256,192,106092,1,0,0:0:0:0:
256,192,106176,1,0,0:0:0:0:
256,192,106261,1,0,0:0:0:0:
256,192,106346,1,8,0:0:0:0:
256,192,106473,1,8,0:0:0:0:
256,192,106600,1,0,0:0:0:0:
256,192,106854,1,4,0:0:0:0:
256,192,107109,1,0,0:0:0:0:
256,192,107363,1,0,0:0:0:0:
256,192,107617,1,8,0:0:0:0:
256,192,108125,1,0,0:0:0:0:
256,192,108380,1,0,0:0:0:0:
256,192,108634,1,8,0:0:0:0:
256,192,109142,1,0,0:0:0:0:
256,192,109397,1,0,0:0:0:0:
256,192,109651,1,0,0:0:0:0:
256,192,109778,1,8,0:0:0:0:
256,192,110159,1,8,0:0:0:0:
256,192,110414,1,0,0:0:0:0:
256,192,110668,1,8,0:0:0:0:
256,192,111176,1,0,0:0:0:0:
256,192,111431,1,0,0:0:0:0:
256,192,111685,1,8,0:0:0:0:
256,192,112193,1,0,0:0:0:0:
256,192,112447,1,0,0:0:0:0:
256,192,112702,1,8,0:0:0:0:
256,192,113210,1,0,0:0:0:0:
256,192,113464,1,0,0:0:0:0:
256,192,113719,1,0,0:0:0:0:
256,192,113846,1,8,0:0:0:0:
256,192,114227,1,8,0:0:0:0:
256,192,114481,1,0,0:0:0:0:
256,192,114736,1,8,0:0:0:0:
256,192,115245,1,0,0:0:0:0:
256,192,115499,1,0,0:0:0:0:
256,192,115753,1,8,0:0:0:0:
256,192,116261,1,0,0:0:0:0:
256,192,116516,1,0,0:0:0:0:
256,192,116770,1,8,0:0:0:0:
256,192,117278,1,0,0:0:0:0:
256,192,117533,1,0,0:0:0:0:
256,192,117787,1,0,0:0:0:0:
256,192,117914,1,8,0:0:0:0:
256,192,118295,1,8,0:0:0:0:
256,192,118550,1,0,0:0:0:0:
256,192,118804,1,8,0:0:0:0:
256,192,119312,1,0,0:0:0:0:
256,192,119567,1,0,0:0:0:0:
256,192,119821,1,8,0:0:0:0:
256,192,120329,1,0,0:0:0:0:
256,192,120583,1,0,0:0:0:0:
256,192,120838,1,8,0:0:0:0:
256,192,121092,1,0,0:0:0:0:
256,192,121346,1,0,0:0:0:0:
256,192,121600,1,8,0:0:0:0:
256,192,122109,1,12,0:0:0:0:
256,192,122363,1,0,0:0:0:0:
256,192,122490,1,0,0:0:0:0:
256,192,122617,1,8,0:0:0:0:
256,192,122871,1,0,0:0:0:0:
256,192,123125,1,4,0:0:0:0:
256,192,123379,1,0,0:0:0:0:
256,192,123506,1,0,0:0:0:0:
256,192,123633,1,8,0:0:0:0:
256,192,123887,1,8,0:0:0:0:
256,192,124141,1,0,0:0:0:0:
256,192,124269,1,0,0:0:0:0:
256,192,124396,1,8,0:0:0:0:
256,192,124523,1,0,0:0:0:0:
256,192,124650,1,8,0:0:0:0:
256,192,124904,1,8,0:0:0:0:
256,192,125158,1,0,0:0:0:0:
256,192,125413,1,8,0:0:0:0:
256,192,125667,1,0,0:0:0:0:
256,192,125794,1,0,0:0:0:0:
256,192,125921,1,8,0:0:0:0:
256,192,126048,1,8,0:0:0:0:
256,192,126176,1,0,0:0:0:0:
256,192,126430,1,8,0:0:0:0:
256,192,126684,1,8,0:0:0:0:
256,192,126811,1,8,0:0:0:0:
256,192,126938,1,0,0:0:0:0:
256,192,127192,1,0,0:0:0:0:
256,192,127447,1,0,0:0:0:0:
256,192,127574,1,0,0:0:0:0:
256,192,127701,1,8,0:0:0:0:
256,192,127955,1,8,0:0:0:0:
256,192,128209,1,0,0:0:0:0:
256,192,128336,1,0,0:0:0:0:
256,192,128463,1,8,0:0:0:0:
256,192,128591,1,0,0:0:0:0:
256,192,128718,1,8,0:0:0:0:
256,192,128972,1,8,0:0:0:0:
256,192,129226,1,0,0:0:0:0:
256,192,129480,1,8,0:0:0:0:
256,192,129735,1,0,0:0:0:0:
256,192,129989,1,0,0:0:0:0:
256,192,130116,1,0,0:0:0:0:
256,192,130243,1,8,0:0:0:0:
256,192,130370,1,0,0:0:0:0:
256,192,130624,1,8,0:0:0:0:
256,192,130752,1,0,0:0:0:0:
256,192,130879,1,0,0:0:0:0:
256,192,131006,1,8,0:0:0:0:
256,192,131260,1,4,0:0:0:0:
256,192,131514,1,0,0:0:0:0:
256,192,131641,1,0,0:0:0:0:
256,192,131768,1,8,0:0:0:0:
256,192,131896,1,0,0:0:0:0:
256,192,132022,1,8,0:0:0:0:
256,192,132276,1,0,0:0:0:0:
256,192,132531,1,8,0:0:0:0:
256,192,132658,1,0,0:0:0:0:
256,192,132785,1,8,0:0:0:0:
256,192,132913,1,0,0:0:0:0:
256,192,133039,1,8,0:0:0:0:
256,192,133293,1,0,0:0:0:0:
256,192,133548,1,8,0:0:0:0:
256,192,133802,1,0,0:0:0:0:
256,192,133929,1,0,0:0:0:0:
256,192,134056,1,0,0:0:0:0:
256,192,134183,1,8,0:0:0:0:
256,192,134437,1,0,0:0:0:0:
256,192,134565,1,8,0:0:0:0:
256,192,134819,1,8,0:0:0:0:
256,192,134946,1,8,0:0:0:0:
256,192,135073,1,0,0:0:0:0:
256,192,135327,1,0,0:0:0:0:
256,192,135582,1,0,0:0:0:0:
256,192,135709,1,0,0:0:0:0:
256,192,135836,1,8,0:0:0:0:
256,192,135963,1,0,0:0:0:0:
256,192,136090,1,8,0:0:0:0:
256,192,136344,1,0,0:0:0:0:
256,192,136515,1,0,0:0:0:0:
256,192,136685,1,8,0:0:0:0:
256,192,136853,1,0,0:0:0:0:
256,192,137024,1,8,0:0:0:0:
256,192,137193,1,8,0:0:0:0:
256,192,137361,1,0,0:0:0:0:
256,192,137617,1,0,0:0:0:0:
256,192,137871,1,12,0:0:0:0:
256,192,138126,1,8,0:0:0:0:
256,192,138210,1,8,0:0:0:0:
256,192,138295,1,0,0:0:0:0:
256,192,138380,1,8,0:0:0:0:
256,192,138888,1,8,0:0:0:0:
256,192,138973,1,8,0:0:0:0:
256,192,139058,1,8,0:0:0:0:
256,192,139143,1,0,0:0:0:0:
256,192,139397,1,4,0:0:0:0:
256,192,139651,1,0,0:0:0:0:
256,192,139778,1,0,0:0:0:0:
256,192,139905,1,8,0:0:0:0:
256,192,140160,1,0,0:0:0:0:
256,192,140287,1,0,0:0:0:0:
256,192,140414,1,8,0:0:0:0:
256,192,140541,1,0,0:0:0:0:
256,192,140668,1,0,0:0:0:0:
256,192,140795,1,8,0:0:0:0:
256,192,141049,1,0,0:0:0:0:
256,192,141177,1,8,0:0:0:0:
256,192,141431,1,0,0:0:0:0:
256,192,141685,1,8,0:0:0:0:
256,192,141812,1,8,0:0:0:0:
256,192,141939,1,0,0:0:0:0:
256,192,142066,1,0,0:0:0:0:
256,192,142193,1,8,0:0:0:0:
256,192,142321,1,0,0:0:0:0:
256,192,142448,1,8,0:0:0:0:
256,192,142702,1,0,0:0:0:0:
256,192,142829,1,0,0:0:0:0:
256,192,142956,1,8,0:0:0:0:
256,192,143210,1,0,0:0:0:0:
256,192,143465,1,12,0:0:0:0:
256,192,143719,1,0,0:0:0:0:
256,192,143846,1,0,0:0:0:0:
256,192,143973,1,8,0:0:0:0:
256,192,144100,1,0,0:0:0:0:
256,192,144354,1,0,0:0:0:0:
256,192,144482,1,8,0:0:0:0:
256,192,144609,1,0,0:0:0:0:
256,192,144736,1,0,0:0:0:0:
256,192,144863,1,8,0:0:0:0:
256,192,145117,1,0,0:0:0:0:
256,192,145244,1,8,0:0:0:0:
256,192,145499,1,0,0:0:0:0:
256,192,145753,1,0,0:0:0:0:
256,192,145880,1,0,0:0:0:0:
256,192,146007,1,8,0:0:0:0:
256,192,146261,1,8,0:0:0:0:
256,192,146516,1,0,0:0:0:0:
256,192,146770,1,8,0:0:0:0:
256,192,146854,1,8,0:0:0:0:
256,192,146939,1,8,0:0:0:0:
256,192,147024,1,0,0:0:0:0:
256,192,147151,1,0,0:0:0:0:
256,192,147278,1,8,0:0:0:0:
256,192,147532,1,4,0:0:0:0:
256,192,147786,1,0,0:0:0:0:
256,192,147913,1,0,0:0:0:0:
256,192,148040,1,8,0:0:0:0:
256,192,148295,1,0,0:0:0:0:
256,192,148422,1,0,0:0:0:0:
256,192,148549,1,8,0:0:0:0:
256,192,148676,1,0,0:0:0:0:
256,192,148803,1,0,0:0:0:0:
256,192,148930,1,8,0:0:0:0:
256,192,149184,1,0,0:0:0:0:
256,192,149312,1,8,0:0:0:0:
256,192,149566,1,0,0:0:0:0:
256,192,149820,1,8,0:0:0:0:
256,192,149947,1,8,0:0:0:0:
256,192,150074,1,0,0:0:0:0:
256,192,150201,1,0,0:0:0:0:
256,192,150328,1,8,0:0:0:0:
256,192,150456,1,0,0:0:0:0:
256,192,150583,1,8,0:0:0:0:
256,192,150837,1,0,0:0:0:0:
256,192,150964,1,0,0:0:0:0:
256,192,151091,1,8,0:0:0:0:
256,192,151345,1,0,0:0:0:0:
256,192,151600,1,12,0:0:0:0:
256,192,151854,1,0,0:0:0:0:
256,192,151981,1,0,0:0:0:0:
256,192,152108,1,8,0:0:0:0:
256,192,152235,1,0,0:0:0:0:
256,192,152489,1,0,0:0:0:0:
256,192,152617,1,8,0:0:0:0:
256,192,152744,1,0,0:0:0:0:
256,192,152871,1,0,0:0:0:0:
256,192,152998,1,8,0:0:0:0:
256,192,153252,1,0,0:0:0:0:
256,192,153379,1,8,0:0:0:0:
256,192,153634,1,0,0:0:0:0:
256,192,153888,1,0,0:0:0:0:
256,192,154015,1,0,0:0:0:0:
256,192,154142,1,8,0:0:0:0:
256,192,154396,1,8,0:0:0:0:
256,192,154651,1,8,0:0:0:0:
256,192,154736,1,8,0:0:0:0:
256,192,154821,1,0,0:0:0:0:
256,192,154905,1,0,0:0:0:0:
256,192,154990,1,0,0:0:0:0:
256,192,155075,1,0,0:0:0:0:
256,192,155160,1,8,0:0:0:0:
256,192,155286,1,0,0:0:0:0:
256,192,155414,1,0,0:0:0:0:
256,192,155668,1,12,0:0:0:0:
256,192,155922,1,0,0:0:0:0:
256,192,156431,1,8,0:0:0:0:
256,192,156939,1,8,0:0:0:0:
256,192,157193,1,0,0:0:0:0:
256,192,157702,1,8,0:0:0:0:
256,192,158210,1,0,0:0:0:0:
256,192,158464,1,8,0:0:0:0:
256,192,158719,1,0,0:0:0:0:
256,192,158973,1,0,0:0:0:0:
256,192,159100,1,0,0:0:0:0:
256,192,159227,1,8,0:0:0:0:
256,192,159354,1,0,0:0:0:0:
256,192,159481,1,8,0:0:0:0:
256,192,159736,1,0,0:0:0:0:
256,192,160244,1,8,0:0:0:0:
256,192,160498,1,0,0:0:0:0:
256,192,160753,1,0,0:0:0:0:
256,192,161261,1,8,0:0:0:0:
256,192,161769,1,4,0:0:0:0:
256,192,162024,1,8,0:0:0:0:
256,192,162278,1,0,0:0:0:0:
256,192,162786,1,8,0:0:0:0:
256,192,163041,1,0,0:0:0:0:
256,192,163295,1,12,0:0:0:0:
256,192,163549,1,0,0:0:0:0:
256,192,163803,1,4,0:0:0:0:
256,192,164058,1,8,0:0:0:0:
256,192,164185,1,8,0:0:0:0:
256,192,164312,1,0,0:0:0:0:
256,192,164566,1,8,0:0:0:0:
256,192,164820,1,0,0:0:0:0:
256,192,164947,1,0,0:0:0:0:
256,192,165075,1,8,0:0:0:0:
256,192,165202,1,8,0:0:0:0:
256,192,165329,1,0,0:0:0:0:
256,192,165583,1,8,0:0:0:0:
256,192,165837,1,0,0:0:0:0:
256,192,166092,1,8,0:0:0:0:
256,192,166219,1,0,0:0:0:0:
256,192,166346,1,8,0:0:0:0:
256,192,166473,1,8,0:0:0:0:
256,192,166600,1,0,0:0:0:0:
256,192,166727,1,0,0:0:0:0:
256,192,166854,1,8,0:0:0:0:
256,192,167108,1,0,0:0:0:0:
256,192,167236,1,0,0:0:0:0:
256,192,167363,1,8,0:0:0:0:
256,192,167490,1,0,0:0:0:0:
256,192,167617,1,8,0:0:0:0:
256,192,167871,1,0,0:0:0:0:
256,192,168125,1,8,0:0:0:0:
256,192,168253,1,8,0:0:0:0:
256,192,168380,1,0,0:0:0:0:
256,192,168634,1,8,0:0:0:0:
256,192,168888,1,0,0:0:0:0:
256,192,169015,1,0,0:0:0:0:
256,192,169142,1,8,0:0:0:0:
256,192,169269,1,8,0:0:0:0:
256,192,169397,1,0,0:0:0:0:
256,192,169651,1,8,0:0:0:0:
256,192,169905,1,0,0:0:0:0:
256,192,170159,1,8,0:0:0:0:
256,192,170286,1,0,0:0:0:0:
256,192,170414,1,8,0:0:0:0:
256,192,170541,1,0,0:0:0:0:
256,192,170668,1,0,0:0:0:0:
256,192,170795,1,0,0:0:0:0:
256,192,170922,1,8,0:0:0:0:
256,192,171176,1,8,0:0:0:0:
256,192,171303,1,0,0:0:0:0:
256,192,171431,1,8,0:0:0:0:
256,192,171685,1,0,0:0:0:0:
256,192,171939,1,12,0:0:0:0:
256,192,172193,1,0,0:0:0:0:
256,192,172320,1,0,0:0:0:0:
256,192,172447,1,8,0:0:0:0:
256,192,172702,1,0,0:0:0:0:
256,192,172829,1,8,0:0:0:0:
256,192,172956,1,0,0:0:0:0:
256,192,173210,1,0,0:0:0:0:
256,192,173337,1,0,0:0:0:0:
256,192,173464,1,8,0:0:0:0:
256,192,173719,1,0,0:0:0:0:
256,192,173973,1,0,0:0:0:0:
256,192,174100,1,0,0:0:0:0:
256,192,174227,1,0,0:0:0:0:
256,192,174354,1,0,0:0:0:0:
256,192,174481,1,8,0:0:0:0:
256,192,174736,1,0,0:0:0:0:
256,192,174863,1,8,0:0:0:0:
256,192,174990,1,0,0:0:0:0:
256,192,175244,1,0,0:0:0:0:
256,192,175371,1,0,0:0:0:0:
256,192,175498,1,8,0:0:0:0:
256,192,175753,1,0,0:0:0:0:
256,192,176007,1,0,0:0:0:0:
256,192,176261,1,0,0:0:0:0:
256,192,176388,1,0,0:0:0:0:
256,192,176515,1,8,0:0:0:0:
256,192,176642,1,0,0:0:0:0:
256,192,176769,1,8,0:0:0:0:
256,192,176897,1,0,0:0:0:0:
256,192,177024,1,8,0:0:0:0:
256,192,177151,1,8,0:0:0:0:
256,192,177278,1,0,0:0:0:0:
256,192,177405,1,0,0:0:0:0:
256,192,177532,1,8,0:0:0:0:
256,192,177786,1,0,0:0:0:0:
256,192,178041,1,12,0:0:0:0:
256,192,182108,1,0,0:0:0:0:
256,192,182617,1,8,0:0:0:0:
256,192,183125,1,0,0:0:0:0:
256,192,183634,1,8,0:0:0:0:
256,192,184142,1,0,0:0:0:0:
256,192,184397,1,0,0:0:0:0:
256,192,184524,1,8,0:0:0:0:
256,192,184905,1,8,0:0:0:0:
256,192,185159,1,0,0:0:0:0:
256,192,185668,1,8,0:0:0:0:
256,192,185922,1,8,0:0:0:0:
256,192,186176,1,0,0:0:0:0:
256,192,186685,1,8,0:0:0:0:
256,192,187193,1,0,0:0:0:0:
256,192,187702,1,8,0:0:0:0:
256,192,188210,1,0,0:0:0:0:
256,192,188464,1,0,0:0:0:0:
256,192,188592,1,8,0:0:0:0:
256,192,188973,1,8,0:0:0:0:
256,192,189227,1,0,0:0:0:0:
256,192,190244,1,0,0:0:0:0:
256,192,190753,1,8,0:0:0:0:
256,192,191261,1,0,0:0:0:0:
256,192,191770,1,8,0:0:0:0:
256,192,192278,1,0,0:0:0:0:
256,192,192533,1,0,0:0:0:0:
256,192,192660,1,8,0:0:0:0:
256,192,193041,1,8,0:0:0:0:
256,192,193295,1,0,0:0:0:0:
256,192,193804,1,8,0:0:0:0:
256,192,194058,1,8,0:0:0:0:
256,192,194312,1,0,0:0:0:0:
256,192,194566,1,0,0:0:0:0:
256,192,194821,1,8,0:0:0:0:
256,192,195075,1,0,0:0:0:0:
256,192,195329,1,8,0:0:0:0:
256,192,195583,1,0,0:0:0:0:
256,192,195710,1,8,0:0:0:0:
256,192,196092,1,0,0:0:0:0:
256,192,196346,1,12,0:0:0:0:
256,192,197871,1,0,0:0:0:0:
256,192,198125,1,0,0:0:0:0:
256,192,198380,1,4,0:0:0:0:
256,192,198634,1,0,0:0:0:0:
256,192,198761,1,0,0:0:0:0:
256,192,198888,1,8,0:0:0:0:
256,192,199143,1,0,0:0:0:0:
256,192,199270,1,0,0:0:0:0:
256,192,199397,1,8,0:0:0:0:
256,192,199524,1,0,0:0:0:0:
256,192,199651,1,0,0:0:0:0:
256,192,199778,1,8,0:0:0:0:
256,192,200032,1,0,0:0:0:0:
256,192,200160,1,8,0:0:0:0:
256,192,200287,1,0,0:0:0:0:
256,192,200414,1,0,0:0:0:0:
256,192,200668,1,8,0:0:0:0:
256,192,200795,1,8,0:0:0:0:
256,192,200922,1,0,0:0:0:0:
256,192,201049,1,0,0:0:0:0:
256,192,201176,1,8,0:0:0:0:
256,192,201304,1,0,0:0:0:0:
256,192,201431,1,8,0:0:0:0:
256,192,201685,1,0,0:0:0:0:
256,192,201812,1,0,0:0:0:0:
256,192,201939,1,8,0:0:0:0:
256,192,202067,1,0,0:0:0:0:
256,192,202193,1,0,0:0:0:0:
256,192,202448,1,12,0:0:0:0:
256,192,202702,1,0,0:0:0:0:
256,192,202829,1,0,0:0:0:0:
256,192,202956,1,8,0:0:0:0:
256,192,203083,1,0,0:0:0:0:
256,192,203337,1,0,0:0:0:0:
256,192,203465,1,8,0:0:0:0:
256,192,203592,1,0,0:0:0:0:
256,192,203719,1,0,0:0:0:0:
256,192,203846,1,8,0:0:0:0:
256,192,204100,1,0,0:0:0:0:
256,192,204227,1,8,0:0:0:0:
256,192,204355,1,0,0:0:0:0:
256,192,204482,1,0,0:0:0:0:
256,192,204736,1,0,0:0:0:0:
256,192,204863,1,0,0:0:0:0:
256,192,204990,1,8,0:0:0:0:
256,192,205118,1,0,0:0:0:0:
256,192,205244,1,8,0:0:0:0:
256,192,205372,1,8,0:0:0:0:
256,192,205499,1,0,0:0:0:0:
256,192,205753,1,8,0:0:0:0:
256,192,205837,1,8,0:0:0:0:
256,192,205922,1,8,0:0:0:0:
256,192,206007,1,0,0:0:0:0:
256,192,206134,1,0,0:0:0:0:
256,192,206261,1,8,0:0:0:0:
256,192,206515,1,4,0:0:0:0:
256,192,206769,1,0,0:0:0:0:
256,192,206896,1,0,0:0:0:0:
256,192,207023,1,8,0:0:0:0:
256,192,207278,1,0,0:0:0:0:
256,192,207405,1,0,0:0:0:0:
256,192,207532,1,8,0:0:0:0:
256,192,207659,1,0,0:0:0:0:
256,192,207786,1,0,0:0:0:0:
256,192,207913,1,8,0:0:0:0:
256,192,208167,1,0,0:0:0:0:
256,192,208295,1,8,0:0:0:0:
256,192,208423,1,0,0:0:0:0:
256,192,208549,1,0,0:0:0:0:
256,192,208803,1,8,0:0:0:0:
256,192,208930,1,8,0:0:0:0:
256,192,209057,1,0,0:0:0:0:
256,192,209184,1,0,0:0:0:0:
256,192,209311,1,8,0:0:0:0:
256,192,209439,1,0,0:0:0:0:
256,192,209566,1,8,0:0:0:0:
256,192,209820,1,0,0:0:0:0:
256,192,209947,1,0,0:0:0:0:
256,192,210074,1,8,0:0:0:0:
256,192,210328,1,0,0:0:0:0:
256,192,210583,1,12,0:0:0:0:
256,192,210837,1,0,0:0:0:0:
256,192,210964,1,0,0:0:0:0:
256,192,211091,1,8,0:0:0:0:
256,192,211218,1,0,0:0:0:0:
256,192,211472,1,0,0:0:0:0:
256,192,211600,1,8,0:0:0:0:
256,192,211727,1,0,0:0:0:0:
256,192,211854,1,0,0:0:0:0:
256,192,211981,1,8,0:0:0:0:
256,192,212235,1,0,0:0:0:0:
256,192,212362,1,8,0:0:0:0:
256,192,212491,1,0,0:0:0:0:
256,192,212617,1,0,0:0:0:0:
256,192,212871,1,0,0:0:0:0:
256,192,212998,1,0,0:0:0:0:
256,192,213125,1,8,0:0:0:0:
256,192,213254,1,0,0:0:0:0:
256,192,213379,1,8,0:0:0:0:
256,192,213634,1,8,0:0:0:0:
256,192,213719,1,8,0:0:0:0:
256,192,213804,1,0,0:0:0:0:
256,192,213888,1,0,0:0:0:0:
256,192,213973,1,0,0:0:0:0:
256,192,214058,1,0,0:0:0:0:
256,192,214143,1,8,0:0:0:0:
256,192,214269,1,0,0:0:0:0:
256,192,214397,1,0,0:0:0:0:
256,192,214651,1,12,0:0:0:0:
256,192,214905,1,0,0:0:0:0:
256,192,215032,1,0,0:0:0:0:
256,192,215159,1,8,0:0:0:0:
256,192,215414,1,0,0:0:0:0:
256,192,215541,1,0,0:0:0:0:
256,192,215668,1,8,0:0:0:0:
256,192,215795,1,0,0:0:0:0:
256,192,215922,1,0,0:0:0:0:
256,192,216177,1,8,0:0:0:0:
256,192,216431,1,0,0:0:0:0:
256,192,216685,1,0,0:0:0:0:
256,192,216812,1,0,0:0:0:0:
256,192,216939,1,0,0:0:0:0:
256,192,217066,1,0,0:0:0:0:
256,192,217193,1,8,0:0:0:0:
256,192,217448,1,0,0:0:0:0:
256,192,217575,1,0,0:0:0:0:
256,192,217702,1,8,0:0:0:0:
256,192,217956,1,0,0:0:0:0:
256,192,218083,1,0,0:0:0:0:
256,192,218210,1,8,0:0:0:0:
256,192,218465,1,8,0:0:0:0:
256,192,218592,1,8,0:0:0:0:
256,192,218719,1,0,0:0:0:0:
256,192,218846,1,0,0:0:0:0:
256,192,218973,1,8,0:0:0:0:
256,192,219227,1,8,0:0:0:0:
256,192,219354,1,0,0:0:0:0:
256,192,219482,1,0,0:0:0:0:
256,192,219609,1,0,0:0:0:0:
256,192,219736,1,0,0:0:0:0:
256,192,219990,1,0,0:0:0:0:
256,192,220117,1,0,0:0:0:0:
256,192,220244,1,8,0:0:0:0:
256,192,220499,1,0,0:0:0:0:
256,192,220753,1,0,0:0:0:0:
256,192,221007,1,0,0:0:0:0:
256,192,221134,1,0,0:0:0:0:
256,192,221261,1,8,0:0:0:0:
256,192,221388,1,0,0:0:0:0:
256,192,221515,1,0,0:0:0:0:
256,192,221770,1,12,0:0:0:0:
256,192,222024,1,0,0:0:0:0:
256,192,222151,1,0,0:0:0:0:
256,192,222278,1,8,0:0:0:0:
256,192,222532,1,0,0:0:0:0:
256,192,222787,1,12,0:0:0:0:
256,192,223041,1,0,0:0:0:0:
256,192,223168,1,0,0:0:0:0:
256,192,223295,1,8,0:0:0:0:
256,192,223549,1,8,0:0:0:0:
256,192,223804,1,8,0:0:0:0:
256,192,223931,1,8,0:0:0:0:
256,192,224058,1,0,0:0:0:0:
256,192,224185,1,0,0:0:0:0:
256,192,224312,1,8,0:0:0:0:
256,192,224439,1,0,0:0:0:0:
256,192,224566,1,8,0:0:0:0:
256,192,224693,1,8,0:0:0:0:
256,192,224821,1,0,0:0:0:0:
256,192,225075,1,8,0:0:0:0:
256,192,225202,1,0,0:0:0:0:
256,192,225329,1,8,0:0:0:0:
256,192,225456,1,0,0:0:0:0:
256,192,225583,1,8,0:0:0:0:
256,192,225710,1,8,0:0:0:0:
256,192,225838,1,0,0:0:0:0:
256,192,225965,1,8,0:0:0:0:
256,192,226092,1,0,0:0:0:0:
256,192,226219,1,0,0:0:0:0:
256,192,226346,1,8,0:0:0:0:
256,192,226600,1,0,0:0:0:0:
256,192,226854,1,8,0:0:0:0:
256,192,226982,1,0,0:0:0:0:
256,192,227109,1,0,0:0:0:0:
256,192,227236,1,0,0:0:0:0:
256,192,227363,1,8,0:0:0:0:
256,192,227490,1,0,0:0:0:0:
256,192,227617,1,8,0:0:0:0:
256,192,227871,1,8,0:0:0:0:
256,192,227999,1,8,0:0:0:0:
256,192,228126,1,0,0:0:0:0:
256,192,228253,1,0,0:0:0:0:
256,192,228380,1,8,0:0:0:0:
256,192,228634,1,0,0:0:0:0:
256,192,228888,1,0,0:0:0:0:
256,192,229397,1,8,0:0:0:0:
256,192,229905,1,0,0:0:0:0:
256,192,230032,1,0,0:0:0:0:
256,192,230160,1,0,0:0:0:0:
256,192,230414,1,12,0:0:0:0:
256,192,230668,1,0,0:0:0:0:
256,192,230922,1,12,0:0:0:0:
256,192,231176,1,0,0:0:0:0:
256,192,231431,1,8,0:0:0:0:
256,192,231685,1,0,0:0:0:0:
256,192,231812,1,0,0:0:0:0:
256,192,231939,1,8,0:0:0:0:
256,192,232193,1,0,0:0:0:0:
256,192,232448,1,8,0:0:0:0:
256,192,232702,1,0,0:0:0:0:
256,192,232956,1,0,0:0:0:0:
256,192,233210,1,0,0:0:0:0:
256,192,233337,1,0,0:0:0:0:
256,192,233464,1,8,0:0:0:0:
256,192,233719,1,0,0:0:0:0:
256,192,233846,1,0,0:0:0:0:
256,192,233973,1,8,0:0:0:0:
256,192,234227,1,0,0:0:0:0:
256,192,234481,1,8,0:0:0:0:
256,192,234736,1,8,0:0:0:0:
256,192,234863,1,8,0:0:0:0:
256,192,234990,1,0,0:0:0:0:
256,192,235244,1,8,0:0:0:0:
256,192,235498,1,8,0:0:0:0:
256,192,235625,1,0,0:0:0:0:
256,192,235753,1,0,0:0:0:0:
256,192,236007,1,0,0:0:0:0:
256,192,236261,1,0,0:0:0:0:
256,192,236388,1,0,0:0:0:0:
256,192,236515,1,8,0:0:0:0:
256,192,236770,1,0,0:0:0:0:
256,192,237024,1,0,0:0:0:0:
256,192,237278,1,0,0:0:0:0:
256,192,237405,1,0,0:0:0:0:
256,192,237532,1,8,0:0:0:0:
256,192,237786,1,0,0:0:0:0:
256,192,238041,1,12,0:0:0:0:
256,192,238295,1,0,0:0:0:0:
256,192,238422,1,0,0:0:0:0:
256,192,238549,1,8,0:0:0:0:
256,192,238803,1,0,0:0:0:0:
256,192,239058,1,12,0:0:0:0:
256,192,239312,1,0,0:0:0:0:
256,192,239439,1,0,0:0:0:0:
256,192,239566,1,8,0:0:0:0:
256,192,239820,1,8,0:0:0:0:
256,192,239948,1,0,0:0:0:0:
256,192,240075,1,8,0:0:0:0:
256,192,240202,1,8,0:0:0:0:
256,192,240329,1,0,0:0:0:0:
256,192,240583,1,8,0:0:0:0:
256,192,240837,1,8,0:0:0:0:
256,192,240964,1,8,0:0:0:0:
256,192,241092,1,0,0:0:0:0:
256,192,241346,1,8,0:0:0:0:
256,192,241473,1,0,0:0:0:0:
256,192,241600,1,8,0:0:0:0:
256,192,241727,1,0,0:0:0:0:
256,192,241854,1,8,0:0:0:0:
256,192,242109,1,0,0:0:0:0:
256,192,242236,1,8,0:0:0:0:
256,192,242363,1,0,0:0:0:0:
256,192,242490,1,0,0:0:0:0:
256,192,242617,1,8,0:0:0:0:
256,192,242871,1,0,0:0:0:0:
256,192,243125,1,8,0:0:0:0:
256,192,243253,1,0,0:0:0:0:
256,192,243380,1,0,0:0:0:0:
256,192,243507,1,0,0:0:0:0:
256,192,243634,1,8,0:0:0:0:
256,192,243888,1,8,0:0:0:0:
256,192,244142,1,8,0:0:0:0:
256,192,244270,1,8,0:0:0:0:
256,192,244397,1,0,0:0:0:0:
256,192,244651,1,8,0:0:0:0:
256,192,244905,1,0,0:0:0:0:
256,192,245159,1,0,0:0:0:0:
256,192,245668,1,8,0:0:0:0:
256,192,245837,1,0,0:0:0:0:
256,192,246007,1,0,0:0:0:0:
256,192,246176,1,8,0:0:0:0:
256,192,246431,1,8,0:0:0:0:
256,192,246515,1,8,0:0:0:0:
256,192,246600,1,0,0:0:0:0:
256,192,246685,1,8,0:0:0:0:
256,192,247193,1,4,0:0:0:0:
