osu file format v14

[General]
AudioFilename: kurikaeshi hitotsubu.mp3
AudioLeadIn: 3000
PreviewTime: 73769
Countdown: 0
SampleSet: Normal
StackLeniency: 0.5
Mode: 1
LetterboxInBreaks: 0
WidescreenStoryboard: 1

[Editor]
Bookmarks: 39066,40973,58022,247174,247193
DistanceSpacing: 1.4
BeatDivisor: 4
GridSize: 32
TimelineZoom: 1

[Metadata]
Title:One of Repetition
TitleUnicode:繰り返し一粒
Artist:Yueporu
ArtistUnicode:ゆえぽる
Creator:[-mii-chan-]
Version:Futsuu
Source:ねこむしP
Tags:vocaloid nico kurikaeshi hitotsubu mii-chan gideon5504 m1223961117 sheela901 tksalt kuo kyoka lzenxl pagno setsurei
BeatmapID:346284
BeatmapSetID:101819

[Difficulty]
HPDrainRate:6
CircleSize:4
OverallDifficulty:5
ApproachRate:5
SliderMultiplier:1.4
SliderTickRate:1

[Events]
//Background and Video events
0,0,"BG_Oni Collab.jpg",0,0
//Break Periods
//Storyboard Layer 0 (Background)
//Storyboard Layer 1 (Fail)
//Storyboard Layer 2 (Pass)
//Storyboard Layer 3 (Foreground)
//Storyboard Sound Samples

[TimingPoints]
1093,508.474576271186,4,1,0,70,1,0
4143,-83.3333333333333,4,1,0,70,0,0
74312,-76.9230769230769,4,1,0,80,0,1
89566,-76.9230769230769,4,1,0,70,0,0
90583,-83.3333333333333,4,1,0,70,0,0
139398,-76.9230769230769,4,1,0,80,0,1
154651,-76.9230769230769,4,1,0,70,0,0
155670,-83.3333333333333,4,1,0,70,0,0
178042,-100,4,1,0,50,0,0
197871,-76.9230769230769,4,1,0,50,0,0
198381,-76.9230769230769,4,1,0,90,0,1
213634,-76.9230769230769,4,1,0,80,0,0
214653,-83.3333333333333,4,1,0,80,0,0
230923,-83.3333333333333,4,1,0,70,0,0

[Colours]
Combo1 : 106,207,255
Combo2 : 255,128,128

[HitObjects]
256,192,8211,5,4,0:0:0:0:
256,192,8974,1,0,0:0:0:0:
256,192,9228,1,0,0:0:0:0:
256,192,9482,1,0,0:0:0:0:
256,192,9609,1,0,0:0:0:0:
256,192,9737,1,0,0:0:0:0:
256,192,9991,1,0,0:0:0:0:
256,192,10118,1,0,0:0:0:0:
256,192,10245,1,0,0:0:0:0:
256,192,10372,1,0,0:0:0:0:
256,192,10499,1,0,0:0:0:0:
256,192,10754,1,0,0:0:0:0:
256,192,11008,1,0,0:0:0:0:
256,192,11262,1,0,0:0:0:0:
256,192,11389,1,0,0:0:0:0:
256,192,11516,1,0,0:0:0:0:
256,192,11643,1,0,0:0:0:0:
256,192,11770,1,0,0:0:0:0:
256,192,12025,1,0,0:0:0:0:
256,192,12152,1,0,0:0:0:0:
256,192,12279,1,0,0:0:0:0:
256,192,12406,1,0,0:0:0:0:
256,192,12533,1,0,0:0:0:0:
256,192,12660,1,0,0:0:0:0:
256,192,12787,1,0,0:0:0:0:
256,192,13042,1,0,0:0:0:0:
256,192,13169,1,0,0:0:0:0:
256,192,13296,1,0,0:0:0:0:
256,192,13423,1,0,0:0:0:0:
256,192,13550,1,0,0:0:0:0:
256,192,13677,1,0,0:0:0:0:
256,192,13804,1,0,0:0:0:0:
256,192,13931,1,0,0:0:0:0:
256,192,14059,1,0,0:0:0:0:
256,192,14186,1,0,0:0:0:0:
256,192,14313,1,0,0:0:0:0:
256,192,14440,1,0,0:0:0:0:
256,192,14567,1,0,0:0:0:0:
256,192,14694,1,0,0:0:0:0:
256,192,14821,1,0,0:0:0:0:
256,192,15076,1,0,0:0:0:0:
256,192,15330,1,0,0:0:0:0:
256,192,15711,1,0,0:0:0:0:
256,192,15838,1,0,0:0:0:0:
256,192,16092,1,0,0:0:0:0:
256,192,16220,1,0,0:0:0:0:
256,192,16347,1,0,0:0:0:0:
256,192,16601,1,0,0:0:0:0:
256,192,16728,1,0,0:0:0:0:
256,192,16855,1,0,0:0:0:0:
256,192,17364,1,0,0:0:0:0:
