osu file format v14

[General]
AudioFilename: kurikaeshi hitotsubu.mp3
AudioLeadIn: 3000
PreviewTime: 73769
Countdown: 0
SampleSet: Soft
StackLeniency: 0.5
Mode: 0
LetterboxInBreaks: 1
WidescreenStoryboard: 1

[Editor]
Bookmarks: 106854
DistanceSpacing: 1.2
BeatDivisor: 4
GridSize: 4
TimelineZoom: 1

[Metadata]
Title:One of Repetition
TitleUnicode:繰り返し一粒
Artist:Yueporu
ArtistUnicode:ゆえぽる
Creator:[-mii-chan-]
Version:Cries
Source:ねこむしP
Tags:vocaloid nico kurikaeshi hitotsubu mii-chan gideon5504 m1223961117 sheela901 tksalt kuo kyoka lzenxl pagno setsurei
BeatmapID:322767
BeatmapSetID:101819

[Difficulty]
HPDrainRate:7
CircleSize:4
OverallDifficulty:7
ApproachRate:8
SliderMultiplier:1.6
SliderTickRate:2

[Events]
//Background and Video events
0,0,"BG_m117's Cries.jpg",0,0
//Break Periods
2,107054,121613
2,155868,162291
2,182108,189494
//Storyboard Layer 0 (Background)
//Storyboard Layer 1 (Fail)
//Storyboard Layer 2 (Pass)
//Storyboard Layer 3 (Foreground)
//Storyboard Sound Samples

[TimingPoints]
1093,508.474576271186,4,2,1,5,1,0
4143,-100,4,2,1,10,0,0
5160,-100,4,2,1,20,0,0
6177,-100,4,2,1,30,0,0
7194,-100,4,2,1,40,0,0
8211,-100,4,2,1,60,0,0
17364,-100,4,2,1,65,0,0
24991,-100,4,2,0,65,0,0
25245,-100,4,2,1,65,0,0
25499,-100,4,2,1,50,0,0
41008,508.474576271186,4,2,1,30,1,0
41008,-100,4,2,1,30,0,0
41516,-100,4,2,1,50,0,0
41770,508.474576271186,4,2,1,60,1,0
41770,-100,4,2,1,60,0,0
52193,-100,4,2,1,60,0,0
73803,-100,4,2,1,60,0,0
74312,-100,4,2,2,70,0,1
74693,-100,4,2,2,5,0,1
75075,-100,4,2,2,40,0,1
89566,-100,4,2,2,70,0,0
90585,-100,4,2,1,60,0,0
98720,-100,4,2,1,65,0,0
106855,-100,4,2,3,50,0,0
123126,-100,4,2,1,60,0,0
139398,-100,4,2,2,70,0,1
154651,-100,4,2,2,70,0,0
155670,-100,4,2,1,60,0,0
178042,-100,4,2,1,50,0,0
180075,-100,4,2,1,5,0,0
198381,-100,4,2,2,70,0,1
213634,-100,4,2,2,70,0,0
214653,-100,4,2,1,60,0,0
222787,-100,4,2,1,65,0,0
230923,-100,4,2,1,60,0,0
239059,-100,4,2,1,65,0,0

[Colours]
Combo1 : 255,130,202
Combo2 : 255,128,128
Combo3 : 244,11,99
Combo4 : 219,131,252

[HitObjects]
256,192,1093,12,0,8211,0:0:0:0:
143,70,8974,5,0,0:0:0:0:
192,144,9228,2,0,P|135:163|55:81,2,160
264,92,10499,2,0,P|280:156|264:192,2,80
344,56,11262,2,0,P|364:120|352:216,1,160
180,236,12279,6,0,P|236:208|280:216,1,80
244,296,12787,2,0,P|184:324|144:316,1,80
136,224,13296,2,0,P|194:184|314:190,1,160
340,244,14059,1,0,0:0:0:0:
340,244,14313,6,0,P|368:200|360:152,1,80
452,152,14821,2,0,P|432:112|371:83,1,80
288,144,15330,2,0,P|228:116|216:8,1,160
292,56,16092,1,0,0:0:0:0:
288,144,16347,5,0,0:0:0:0:
204,244,16728,2,0,L|148:260,1,40
108,320,17109,2,0,L|220:288,1,80
304,336,17618,2,0,L|416:304,1,80
444,252,18126,1,0,0:0:0:0:
380,192,18381,6,0,P|360:104|420:44,1,160
444,132,19143,1,0,0:0:0:0:
444,132,19398,2,0,L|272:96,1,160
180,164,20160,1,0,0:0:0:0:
180,164,20415,6,0,P|240:156|272:132,1,79.9999999999999
196,80,20923,2,0,P|132:96|100:196,2,160
364,136,22448,2,0,L|272:172,1,79.9999999999999
240,280,22957,2,0,L|348:236,1,79.9999999999999
400,268,23465,5,0,0:0:0:0:
448,100,23974,1,0,0:0:0:0:
280,48,24482,1,0,0:0:0:0:
224,116,24737,2,0,L|140:144,1,79.9999999999999
96,212,25245,1,0,0:0:0:0:
96,212,25499,5,0,0:0:0:0:
428,324,26516,1,0,0:0:0:0:
208,48,27533,1,0,0:0:0:0:
256,120,27787,2,0,P|295:143|356:144,1,79.9999999999999
416,136,28296,2,0,P|392:216|304:232,1,160
244,208,29059,2,0,P|201:222|157:250,1,79.9999999999999
136,320,29567,5,0,0:0:0:0:
324,24,30584,1,0,0:0:0:0:
476,340,31601,1,0,0:0:0:0:
416,276,31855,2,0,P|392:228|392:184,1,79.9999999999999
452,140,32364,2,0,P|404:116|312:156,1,160
288,268,33126,2,0,P|220:328|144:304,1,160
408,68,34652,5,0,0:0:0:0:
80,196,35669,2,0,L|-8:228,2,79.9999999999999
156,236,36431,2,0,P|220:172|304:172,1,160
296,256,37194,2,0,P|340:240|378:190,1,79.9999999999999
412,144,37703,1,0,0:0:0:0:
344,88,37957,6,0,L|296:0,2,79.9999999999999
296,256,38974,2,0,L|344:360,2,79.9999999999999
328,172,39737,2,0,P|256:176|208:260,1,160
192,328,40499,2,0,L|164:248,1,79.9999999999999
128,144,41008,5,0,0:0:0:0:
128,144,41262,1,0,0:0:0:0:
212,172,41516,6,0,P|276:164|308:144,1,79.9999999999999
348,92,42024,1,0,0:0:0:0:
400,204,42278,2,0,P|312:204|256:244,1,160
300,320,43041,2,0,P|344:305|388:264,1,80
400,204,43549,2,0,P|384:140|392:96,1,80
416,44,44058,5,0,0:0:0:0:
312,80,44312,1,0,0:0:0:0:
224,12,44566,2,0,P|184:96|196:176,1,160
268,248,45329,2,0,P|279:311|264:352,2,80
180,240,46092,5,0,0:0:0:0:
288,184,46346,2,0,L|448:112,1,160
368,64,47108,1,0,0:0:0:0:
364,188,47363,2,0,P|385:252|415:286,1,80
448,328,47871,2,0,B|372:308|372:308|260:304,1,160
208,340,48634,1,0,0:0:0:0:
136,236,48888,5,0,0:0:0:0:
168,108,49269,2,0,L|208:84,1,40
252,160,49651,2,0,L|356:144,1,80
324,236,50159,6,0,L|516:272,1,160
452,92,51176,2,0,B|372:80|372:80|284:96,1,160
236,160,51939,1,0,0:0:0:0:
188,88,52193,2,0,P|148:52|112:37,1,80
16,116,52702,2,0,B|64:136|112:124|112:124|132:160|180:168,1,160
248,164,53464,1,0,0:0:0:0:
312,104,53719,1,0,0:0:0:0:
332,188,53973,1,0,0:0:0:0:
268,248,54227,6,0,L|192:308,2,80
404,136,55244,2,0,P|432:108|492:92,1,80
472,208,55753,2,0,P|420:220|368:208,1,80
324,164,56261,6,0,L|292:84,1,80
192,4,56897,2,0,L|216:68,1,40
184,128,57278,2,0,L|240:168,2,40
216,240,57786,2,0,L|264:244,2,40
128,236,58295,6,0,P|144:308|224:364,1,160
292,328,59058,2,0,L|320:232,1,80
400,224,59566,2,0,P|440:168|444:120,1,80
448,72,60075,1,0,0:0:0:0:
320,132,60329,6,0,P|258:117|235:91,1,80
186,41,60837,1,0,0:0:0:0:
80,112,61092,2,0,L|180:124,1,80
204,196,61600,2,0,L|316:208,1,80
360,160,62108,1,0,0:0:0:0:
412,88,62363,6,0,P|452:168|432:248,1,160
352,328,63125,2,0,P|312:235|332:155,1,160
304,92,63888,2,0,L|348:0,2,80
244,156,64651,2,0,P|172:172|88:100,1,160
196,36,65541,6,0,L|184:88,1,40
124,164,65922,2,0,L|104:256,1,80
40,328,66431,6,0,P|108:372|192:356,1,160
232,288,67193,2,0,P|284:304|320:336,1,80
368,256,67702,2,0,P|390:305|389:353,2,80
288,220,68464,6,0,P|268:160|328:76,1,160
400,60,69227,1,0,0:0:0:0:
376,144,69481,2,0,L|412:236,1,80
344,324,69990,2,0,L|308:236,1,80
276,172,70498,5,0,0:0:0:0:
304,88,70753,2,0,P|304:52|272:-4,1,80
180,80,71261,2,0,P|188:136|224:176,1,80
256,264,71769,2,0,L|340:288,1,80
416,312,72278,5,0,0:0:0:0:
461,201,72532,1,0,0:0:0:0:
340,217,72786,1,0,0:0:0:0:
416,312,73041,1,0,0:0:0:0:
461,201,73295,1,0,0:0:0:0:
461,201,73803,5,0,0:0:0:0:
416,124,74058,1,0,0:0:0:0:
348,176,74312,2,0,P|284:168|216:128,1,120
224,116,74820,2,0,P|224:56|208:8,1,80
112,48,75329,2,0,P|120:140|168:220,1,160
212,264,76092,5,0,0:0:0:0:
292,228,76346,2,0,B|372:240|372:240|444:276,1,160
384,340,77108,2,0,L|356:252,1,80
400,92,77871,6,0,L|372:4,1,80
324,88,78380,2,0,P|288:144|248:164,1,80
200,108,78888,2,0,P|116:124|52:64,1,160
140,40,79651,1,0,0:0:0:0:
164,156,79905,2,0,P|156:204|132:244,1,80
132,320,80414,6,0,L|28:368,2,80
220,340,81176,2,0,P|244:304|252:248,1,80
216,120,81812,2,0,L|196:72,1,40
216,0,82193,2,0,L|256:96,1,80
316,236,82956,6,0,P|370:283|461:254,1,160
392,200,83719,1,0,0:0:0:0:
380,112,83973,2,0,P|389:49|409:19,1,80
468,116,84481,2,0,P|456:168|420:204,1,80
448,276,84990,2,0,P|396:300|348:296,1,80
288,280,85498,1,0,0:0:0:0:
256,288,86007,6,0,L|220:252,3,40
224,224,86515,2,0,P|176:200|73:254,1,160
204,368,87532,1,0,0:0:0:0:
156,296,87786,2,0,P|156:235|171:202,1,80
216,148,88295,1,0,0:0:0:0:
304,164,88549,6,0,B|400:172|444:76,1,160
360,48,89312,1,0,0:0:0:0:
272,36,89566,2,0,L|200:68,3,40
192,40,90075,2,0,L|156:100,3,40
128,84,90583,6,0,B|112:160|112:160|128:250,1,160
252,364,91600,2,0,B|268:288|268:288|251:197,1,160
236,120,92363,1,0,0:0:0:0:
152,96,92617,6,0,P|122:44|127:0,1,80
236,76,93125,2,0,L|324:100,1,80
396,124,93634,1,0,0:0:0:0:
264,240,94142,2,0,L|248:156,1,80
196,92,94651,2,0,L|232:284,1,160
184,328,95414,1,0,0:0:0:0:
256,380,95668,6,0,P|280:344|287:296,1,80
364,264,96176,2,0,P|352:204|320:160,1,80
280,128,96685,1,0,0:0:0:0:
280,128,97193,2,0,P|248:144|184:144,1,80
120,120,97702,5,0,0:0:0:0:
224,40,98083,2,0,L|284:60,1,40
348,40,98464,2,0,P|377:78|379:124,1,80
260,236,99227,6,0,P|288:316|364:368,2,160
312,164,100498,1,0,0:0:0:0:
268,88,100753,2,0,P|228:60|180:52,1,80
112,64,101261,1,0,0:0:0:0:
72,140,101515,1,0,0:0:0:0:
92,224,101769,6,0,L|204:236,1,80
256,308,102278,2,0,L|368:320,1,80
428,252,102786,2,0,P|404:196|440:88,1,160
412,16,103549,1,0,0:0:0:0:
348,76,103803,6,0,P|290:106|251:112,1,80
256,196,104312,2,0,L|144:180,1,80
92,168,104820,5,0,0:0:0:0:
148,336,105329,1,0,0:0:0:0:
320,292,105837,1,0,0:0:0:0:
244,244,106092,2,0,P|218:189|218:152,1,80
284,112,106600,2,0,P|268:56|244:24,1,80
256,192,122363,6,0,L|288:272,2,80
172,164,123125,6,0,L|132:68,1,80
108,8,123634,1,0,0:0:0:0:
208,56,123888,2,0,P|264:68|308:60,1,80
372,44,124397,1,0,0:0:0:0:
428,112,124651,2,0,L|476:12,2,80
376,216,125414,5,0,0:0:0:0:
376,216,125668,2,0,P|331:259|228:240,1,160
196,172,126431,1,0,0:0:0:0:
116,212,126685,1,0,0:0:0:0:
48,96,126939,6,0,L|4:16,2,80
44,184,127702,2,0,L|80:244,3,40
52,260,128210,2,0,L|148:304,1,80
212,288,128719,2,0,P|230:336|219:394,2,80
156,220,129481,2,0,P|176:176|231:141,1,80
156,80,129990,2,0,P|204:68|264:89,1,80
352,132,130625,6,0,L|392:180,1,40
396,248,131007,2,0,L|328:172,1,80
264,228,131515,6,0,L|164:188,1,80
128,264,132024,2,0,L|20:276,2,80
232,332,132786,2,0,B|312:324|312:324|408:268,1,160
416,204,133549,1,0,0:0:0:0:
340,160,133803,2,0,P|319:104|320:52,1,80
404,100,134312,5,0,0:0:0:0:
340,160,134566,1,0,0:0:0:0:
220,128,134820,2,0,L|120:104,1,80
56,84,135329,1,0,0:0:0:0:
48,212,135583,6,0,P|60:264|88:300,2,80
132,144,136346,2,0,P|139:102|175:55,1,80
248,144,136854,2,0,P|312:148|348:136,1,80
400,96,137363,5,0,0:0:0:0:
288,60,137617,1,0,0:0:0:0:
312,176,137871,1,0,0:0:0:0:
400,96,138125,1,0,0:0:0:0:
288,60,138380,1,0,0:0:0:0:
288,60,138888,6,0,L|244:92,3,40
248,120,139397,2,0,L|92:216,1,160
276,264,140414,6,0,L|356:212,1,80
412,168,140922,1,0,0:0:0:0:
424,256,141176,1,0,0:0:0:0:
356,316,141431,2,0,B|288:356|288:356|184:368,1,160
124,344,142193,1,0,0:0:0:0:
152,260,142447,2,0,P|132:204|104:168,2,80
68,236,143210,1,0,0:0:0:0:
56,148,143464,6,0,P|60:96|76:60,1,80
172,132,143973,2,0,B|244:164|244:164|352:168,1,160
396,72,144736,2,0,L|312:96,1,80
284,176,145244,2,0,P|232:224|220:264,1,80
248,316,145753,2,0,P|300:268|312:228,1,80
388,284,146261,6,0,P|386:234|350:182,1,80
300,96,146897,2,0,L|264:52,1,40
192,96,147278,2,0,L|84:60,1,80
16,216,148041,6,0,P|84:222|166:162,1,160
208,248,148803,2,0,P|240:208|253:178,1,80
330,223,149312,2,0,P|340:165|335:125,1,80
252,136,149820,2,0,P|256:244|296:296,1,160
352,340,150583,1,0,0:0:0:0:
352,340,151092,6,0,L|380:292,3,40
412,288,151600,2,0,P|396:224|380:200,1,80
300,200,152108,1,0,0:0:0:0:
256,124,152363,1,0,0:0:0:0:
280,40,152617,6,0,P|216:48|168:140,1,160
204,204,153380,1,0,0:0:0:0:
160,280,153634,2,0,P|228:288|288:212,1,160
264,140,154397,1,0,0:0:0:0:
220,64,154651,6,0,L|192:16,2,40
184,176,155159,2,0,L|128:144,2,40
216,284,155668,1,0,0:0:0:0:
395,254,163041,5,0,0:0:0:0:
395,254,163295,1,0,0:0:0:0:
448,184,163549,2,0,P|455:125|443:82,1,80
364,168,164058,6,0,P|320:188|256:188,1,80
200,184,164566,1,0,0:0:0:0:
52,88,165075,5,0,0:0:0:0:
104,160,165329,2,0,P|125:228|120:259,1,80
91,315,165837,1,0,0:0:0:0:
91,315,166092,6,0,L|202:300,1,80
248,232,166600,2,0,L|352:216,1,80
428,260,167108,1,0,0:0:0:0:
388,180,167363,2,0,P|368:132|360:80,1,80
368,16,167871,5,0,0:0:0:0:
440,68,168125,1,0,0:0:0:0:
360,104,168380,2,0,P|288:88|264:76,1,80
116,140,169142,5,0,0:0:0:0:
204,124,169397,2,0,P|275:135|297:153,1,80
416,252,170159,5,0,0:0:0:0:
332,284,170414,2,0,L|228:320,1,80
172,288,170922,5,0,0:0:0:0:
80,196,171303,2,0,L|48:136,1,40
68,72,171685,2,0,L|124:176,1,80
176,196,172193,5,0,0:0:0:0:
256,232,172447,1,0,0:0:0:0:
284,148,172702,2,0,P|312:112|436:108,1,160
464,172,173464,2,0,L|456:268,1,80
408,324,173973,5,0,0:0:0:0:
324,348,174227,1,0,0:0:0:0:
240,328,174481,2,0,B|204:256|204:256|188:168,1,160
72,48,175498,6,0,L|172:72,1,80
208,132,176007,1,0,0:0:0:0:
256,56,176261,2,0,P|284:87|298:159,1,80
296,212,176769,1,0,0:0:0:0:
244,284,177024,2,0,P|288:344|392:356,1,160
452,336,177786,1,0,0:0:0:0:
256,192,178041,12,0,180075,0:0:0:0:
208,80,190244,5,0,0:0:0:0:
136,240,190753,1,0,0:0:0:0:
296,316,191261,1,0,0:0:0:0:
372,156,191769,1,0,0:0:0:0:
150,173,192278,5,0,0:0:0:0:
244,323,192786,1,0,0:0:0:0:
387,220,193295,1,0,0:0:0:0:
289,76,193803,1,0,0:0:0:0:
332,264,194312,6,0,P|368:212|360:92,1,160
180,124,195329,6,0,P|144:176|152:296,1,160
232,300,196092,2,0,P|224:368|204:396,1,80
48,136,197871,5,0,0:0:0:0:
92,52,198125,1,0,0:0:0:0:
140,136,198380,2,0,P|178:186|284:208,1,160
420,92,199397,2,0,L|480:28,2,80
360,164,200159,1,0,0:0:0:0:
360,164,200414,6,0,P|376:240|396:272,1,80
432,320,200922,2,0,B|358:283|358:283|263:270,1,160
88,256,201939,2,0,L|124:296,3,40
116,332,202447,6,0,L|228:352,1,80
288,324,202956,2,0,P|304:256|260:160,1,160
176,168,203719,2,0,P|120:140|96:100,1,80
68,40,204227,1,0,0:0:0:0:
200,80,204481,2,0,B|279:109|279:109|328:124|380:108,1,160
440,72,205244,1,0,0:0:0:0:
360,20,205498,5,0,0:0:0:0:
308,156,205880,2,0,L|300:224,1,40
244,272,206261,2,0,L|232:380,1,80
148,180,207024,6,0,L|172:0,1,160
236,88,207786,1,0,0:0:0:0:
316,140,208041,2,0,P|392:148|420:140,1,80
472,92,208549,1,0,0:0:0:0:
452,220,208803,2,0,P|420:276|320:320,1,160
240,324,209566,1,0,0:0:0:0:
240,324,210075,5,0,0:0:0:0:
216,232,210329,1,0,0:0:0:0:
148,300,210583,1,0,0:0:0:0:
240,324,210837,2,0,P|304:272|296:180,1,160
232,140,211600,5,0,0:0:0:0:
172,216,211854,2,0,B|104:176|104:176|44:96,1,160
152,12,212617,2,0,B|224:56|224:56|288:140,1,160
304,204,213380,1,0,0:0:0:0:
260,288,213634,6,0,L|300:308,3,40
308,352,214142,2,0,L|368:344,3,40
392,368,214651,6,0,B|440:308|440:308|476:216,1,160
392,176,215414,1,0,0:0:0:0:
352,88,215668,2,0,P|348:41|361:-1,1,80
440,60,216176,1,0,0:0:0:0:
440,60,216431,1,0,0:0:0:0:
392,176,216685,6,0,P|328:208|240:176,1,160
188,108,217447,1,0,0:0:0:0:
168,12,217702,2,0,L|136:104,1,80
56,128,218210,1,0,0:0:0:0:
52,224,218464,1,0,0:0:0:0:
116,296,218719,6,0,P|175:320|284:271,1,160
344,348,219481,2,0,P|365:302|365:248,1,80
308,196,219990,1,0,0:0:0:0:
340,104,220244,1,0,0:0:0:0:
436,88,220498,2,0,P|468:72|508:24,2,80
340,104,221261,6,0,L|228:88,1,80
168,112,221769,1,0,0:0:0:0:
72,220,222151,2,0,L|48:284,1,40
64,352,222532,2,0,L|104:252,1,80
216,128,223295,6,0,P|272:80|376:100,1,160
416,160,224058,1,0,0:0:0:0:
352,232,224312,2,0,L|332:320,1,80
244,280,224820,2,0,L|192:352,1,80
124,284,225329,2,0,L|32:328,2,80
252,140,226346,6,0,L|420:52,1,160
288,224,227363,2,0,P|220:224|192:204,1,80
132,164,227871,1,0,0:0:0:0:
320,132,228380,6,0,P|368:152|404:192,1,80
428,256,228888,1,0,0:0:0:0:
252,336,229397,1,0,0:0:0:0:
96,228,229905,1,0,0:0:0:0:
140,40,230414,1,0,0:0:0:0:
332,72,230922,6,0,P|384:112|396:224,1,160
228,288,231939,1,0,0:0:0:0:
96,148,232447,2,0,L|8:96,2,80
288,128,233464,5,0,0:0:0:0:
392,288,233973,1,0,0:0:0:0:
200,296,234481,2,0,L|304:240,2,80
108,128,235498,5,0,0:0:0:0:
300,112,236007,1,0,0:0:0:0:
384,284,236515,2,0,L|432:376,2,80
192,288,237532,5,0,0:0:0:0:
128,108,238041,1,0,0:0:0:0:
240,200,238422,2,0,L|308:224,1,40
348,148,238803,2,0,L|456:156,1,80
256,64,239566,6,0,L|72:44,1,160
232,176,240583,2,0,L|344:188,1,80
276,272,241092,2,0,L|464:288,1,160
252,348,242108,5,0,0:0:0:0:
64,308,242617,2,0,L|40:224,1,80
136,244,243125,2,0,L|140:72,1,160
332,96,244142,2,0,L|328:288,1,160
256,192,245159,12,0,247193,0:0:0:0:
