osu file format v14

[General]
AudioFilename: audio.mp3
AudioLeadIn: 0
PreviewTime: 77844
Countdown: 0
SampleSet: Soft
StackLeniency: 0.7
Mode: 3
LetterboxInBreaks: 0
SpecialStyle: 0
WidescreenStoryboard: 0

[Editor]
DistanceSpacing: 0.8
BeatDivisor: 16
GridSize: 8
TimelineZoom: 2.5

[Metadata]
Title:The Song Of Fifth Ring
TitleUnicode:五环之歌
Artist:YueYunPeng&MC Hotdog
ArtistUnicode:岳云鹏&MC Hotdog
Creator:tangjinxi
Version:Fifth Ring!
Source:A HERO OR NOT
Tags:chinese
BeatmapID:959975
BeatmapSetID:447065

[Difficulty]
HPDrainRate:8
CircleSize:7
OverallDifficulty:5
ApproachRate:5
SliderMultiplier:1.4
SliderTickRate:1

[Events]
//Background and Video events
0,0,"The Song Of Fifth Ring.jpg",0,0
//Break Periods
//Storyboard Layer 0 (Background)
//Storyboard Layer 1 (Fail)
//Storyboard Layer 2 (Pass)
//Storyboard Layer 3 (Foreground)
//Storyboard Sound Samples

[TimingPoints]
603,689.655172413793,4,2,0,5,1,0

[HitObjects]
36,192,603,128,0,947:0:0:0:0:
256,192,603,128,0,947:0:0:0:0:
329,192,603,1,0,0:0:0:0:
402,192,603,1,0,0:0:0:0:
182,192,947,1,0,0:0:0:0:
475,192,947,128,0,1034:0:0:0:0:
256,192,1120,1,0,0:0:0:0:
402,192,1292,1,0,0:0:0:0:
475,192,1292,1,0,0:0:0:0:
329,192,1292,1,0,0:0:0:0:
256,192,1637,1,0,0:0:0:0:
182,192,1637,128,0,1982:0:0:0:0:
475,192,1637,1,0,0:0:0:0:
36,192,1809,128,0,1982:0:0:0:0:
109,192,1809,1,0,0:0:0:0:
402,192,1809,1,0,0:0:0:0:
329,192,1982,128,0,2327:0:0:0:0:
256,192,1982,1,0,0:0:0:0:
475,192,2154,128,0,2327:0:0:0:0:
402,192,2154,1,0,0:0:0:0:
182,192,2154,1,0,0:0:0:0:
36,192,2327,128,0,2671:0:0:0:0:
109,192,2327,1,0,0:0:0:0:
182,192,2499,128,0,2671:0:0:0:0:
256,192,2499,1,0,0:0:0:0:
475,192,2671,128,0,3361:0:0:0:0:
402,192,2671,1,0,0:0:0:0:
109,192,2671,1,0,0:0:0:0:
329,192,3016,128,0,3361:0:0:0:0:
256,192,3016,1,0,0:0:0:0:
182,192,3189,1,0,0:0:0:0:
402,192,3361,1,0,0:0:0:0:
256,192,3361,1,0,0:0:0:0:
36,192,3361,128,0,3706:0:0:0:0:
109,192,3361,128,0,3878:0:0:0:0:
182,192,3706,128,0,3878:0:0:0:0:
256,192,3878,1,0,0:0:0:0:
36,192,3878,1,0,0:0:0:0:
402,192,4051,1,0,0:0:0:0:
475,192,4051,1,0,0:0:0:0:
329,192,4051,1,0,0:0:0:0:
36,192,4137,1,0,0:0:0:0:
475,192,4223,1,0,0:0:0:0:
36,192,4309,1,0,0:0:0:0:
475,192,4396,1,0,0:0:0:0:
402,192,4396,128,0,4740:0:0:0:0:
36,192,4482,1,0,0:0:0:0:
256,192,4568,128,0,4740:0:0:0:0:
475,192,4568,1,0,0:0:0:0:
36,192,4654,1,0,0:0:0:0:
109,192,4740,128,0,5085:0:0:0:0:
475,192,4740,1,0,0:0:0:0:
182,192,4740,1,0,0:0:0:0:
256,192,4913,128,0,5085:0:0:0:0:
329,192,4913,1,0,0:0:0:0:
475,192,5085,128,0,5430:0:0:0:0:
402,192,5085,1,0,0:0:0:0:
329,192,5258,128,0,5430:0:0:0:0:
256,192,5258,1,0,0:0:0:0:
36,192,5430,128,0,6120:0:0:0:0:
109,192,5430,1,0,0:0:0:0:
402,192,5430,1,0,0:0:0:0:
182,192,5430,1,0,0:0:0:0:
182,192,5775,128,0,6120:0:0:0:0:
256,192,5775,1,0,0:0:0:0:
475,192,6120,128,0,6637:0:0:0:0:
109,192,6120,1,0,0:0:0:0:
329,192,6120,1,0,0:0:0:0:
402,192,6292,128,0,6465:0:0:0:0:
329,192,6465,128,0,6809:0:0:0:0:
36,192,6465,128,0,6551:0:0:0:0:
402,192,6637,128,0,6982:0:0:0:0:
475,192,6809,128,0,8016:0:0:0:0:
36,192,6809,1,0,0:0:0:0:
109,192,6809,1,0,0:0:0:0:
256,192,6982,128,0,7327:0:0:0:0:
182,192,6982,1,0,0:0:0:0:
402,192,7154,128,0,7327:0:0:0:0:
329,192,7154,1,0,0:0:0:0:
329,192,7327,128,0,7671:0:0:0:0:
182,192,7327,1,0,0:0:0:0:
182,192,7499,128,0,7671:0:0:0:0:
109,192,7499,1,0,0:0:0:0:
109,192,7671,128,0,8016:0:0:0:0:
256,192,7671,1,0,0:0:0:0:
256,192,7844,128,0,8016:0:0:0:0:
329,192,7844,128,0,8189:0:0:0:0:
402,192,7844,1,0,0:0:0:0:
402,192,8016,128,0,8189:0:0:0:0:
182,192,8016,1,0,0:0:0:0:
475,192,8189,128,0,8878:0:0:0:0:
182,192,8189,128,0,8878:0:0:0:0:
36,192,8189,1,0,0:0:0:0:
256,192,8189,1,0,0:0:0:0:
36,192,8534,128,0,8878:0:0:0:0:
402,192,8534,1,0,0:0:0:0:
329,192,8534,1,0,0:0:0:0:
256,192,8878,128,0,9223:0:0:0:0:
109,192,8878,1,0,0:0:0:0:
329,192,8878,1,0,0:0:0:0:
182,192,9051,128,0,9396:0:0:0:0:
475,192,9051,128,0,9396:0:0:0:0:
402,192,9051,1,0,0:0:0:0:
36,192,9223,128,0,9482:0:0:0:0:
402,192,9223,128,0,9482:0:0:0:0:
329,192,9223,1,0,0:0:0:0:
109,192,9396,128,0,9913:0:0:0:0:
329,192,9396,128,0,9740:0:0:0:0:
256,192,9396,1,0,0:0:0:0:
182,192,9568,128,0,10085:0:0:0:0:
475,192,9568,128,0,9654:0:0:0:0:
36,192,9568,1,0,0:0:0:0:
402,192,9654,128,0,9740:0:0:0:0:
256,192,9654,1,0,0:0:0:0:
36,192,9740,1,0,0:0:0:0:
256,192,9827,1,0,0:0:0:0:
36,192,9913,1,0,0:0:0:0:
256,192,9999,1,0,0:0:0:0:
36,192,10085,1,0,0:0:0:0:
109,192,10085,1,0,0:0:0:0:
329,192,10085,128,0,10258:0:0:0:0:
402,192,10085,1,0,0:0:0:0:
475,192,10258,128,0,11465:0:0:0:0:
402,192,10258,128,0,10344:0:0:0:0:
256,192,10258,1,0,0:0:0:0:
402,192,10430,128,0,11292:0:0:0:0:
329,192,10430,128,0,10516:0:0:0:0:
182,192,10430,1,0,0:0:0:0:
329,192,10602,128,0,11120:0:0:0:0:
256,192,10602,128,0,10689:0:0:0:0:
109,192,10602,1,0,0:0:0:0:
256,192,10775,128,0,10947:0:0:0:0:
36,192,10775,1,0,0:0:0:0:
36,192,10947,128,0,11637:0:0:0:0:
182,192,10947,128,0,11034:0:0:0:0:
256,192,11120,128,0,11206:0:0:0:0:
182,192,11292,128,0,11637:0:0:0:0:
329,192,11292,128,0,11378:0:0:0:0:
402,192,11465,128,0,11551:0:0:0:0:
402,192,11637,1,0,0:0:0:0:
475,192,11637,1,0,0:0:0:0:
329,192,11637,1,0,0:0:0:0:
256,192,11637,1,0,0:0:0:0:
109,192,11637,1,0,0:0:0:0:
36,192,11982,1,0,0:0:0:0:
182,192,12154,1,0,0:0:0:0:
402,192,12327,1,0,0:0:0:0:
475,192,12327,1,0,0:0:0:0:
256,192,12671,128,0,12758:0:0:0:0:
182,192,13016,128,0,13361:0:0:0:0:
36,192,13361,1,0,0:0:0:0:
402,192,13361,128,0,13878:0:0:0:0:
182,192,13534,1,0,0:0:0:0:
329,192,13706,1,0,0:0:0:0:
256,192,13706,1,0,0:0:0:0:
475,192,13706,128,0,14396:0:0:0:0:
402,192,14051,1,0,0:0:0:0:
256,192,14396,1,0,0:0:0:0:
36,192,14396,128,0,14654:0:0:0:0:
109,192,14396,1,0,0:0:0:0:
329,192,14396,1,0,0:0:0:0:
36,192,14740,1,0,0:0:0:0:
182,192,14913,1,0,0:0:0:0:
402,192,15085,1,0,0:0:0:0:
329,192,15085,1,0,0:0:0:0:
182,192,15430,128,0,15516:0:0:0:0:
329,192,15602,1,0,0:0:0:0:
36,192,15775,1,0,0:0:0:0:
402,192,15775,128,0,16292:0:0:0:0:
182,192,16120,1,0,0:0:0:0:
329,192,16292,1,0,0:0:0:0:
182,192,16465,128,0,16723:0:0:0:0:
402,192,16465,128,0,16809:0:0:0:0:
475,192,16465,128,0,16809:0:0:0:0:
256,192,16465,1,0,0:0:0:0:
109,192,16809,128,0,17068:0:0:0:0:
182,192,16809,1,0,0:0:0:0:
109,192,17154,1,0,0:0:0:0:
475,192,17154,1,0,0:0:0:0:
36,192,17154,128,0,17327:0:0:0:0:
36,192,17499,1,0,0:0:0:0:
182,192,17671,1,0,0:0:0:0:
329,192,17844,1,0,0:0:0:0:
402,192,17844,1,0,0:0:0:0:
109,192,18189,128,0,18275:0:0:0:0:
402,192,18361,1,0,0:0:0:0:
475,192,18534,128,0,19051:0:0:0:0:
36,192,18534,128,0,19051:0:0:0:0:
256,192,18878,1,0,0:0:0:0:
256,192,19051,1,0,0:0:0:0:
36,192,19223,1,0,0:0:0:0:
475,192,19223,1,0,0:0:0:0:
329,192,19568,1,0,0:0:0:0:
475,192,19913,128,0,19999:0:0:0:0:
36,192,19913,1,0,0:0:0:0:
182,192,19913,1,0,0:0:0:0:
402,192,20258,1,0,0:0:0:0:
256,192,20430,1,0,0:0:0:0:
109,192,20602,1,0,0:0:0:0:
36,192,20602,1,0,0:0:0:0:
182,192,20947,128,0,21034:0:0:0:0:
402,192,20947,1,0,0:0:0:0:
329,192,21120,1,0,0:0:0:0:
256,192,21292,128,0,21378:0:0:0:0:
109,192,21292,1,0,0:0:0:0:
329,192,21637,128,0,21982:0:0:0:0:
36,192,21637,1,0,0:0:0:0:
182,192,21809,1,0,0:0:0:0:
402,192,21982,1,0,0:0:0:0:
475,192,21982,1,0,0:0:0:0:
109,192,21982,128,0,22154:0:0:0:0:
36,192,21982,128,0,22154:0:0:0:0:
109,192,22327,128,0,22499:0:0:0:0:
182,192,22327,128,0,22499:0:0:0:0:
109,192,22671,1,0,0:0:0:0:
182,192,22671,1,0,0:0:0:0:
475,192,22671,128,0,25258:0:0:0:0:
402,192,23016,1,0,0:0:0:0:
256,192,23189,1,0,0:0:0:0:
109,192,23361,1,0,0:0:0:0:
36,192,23361,1,0,0:0:0:0:
329,192,23706,128,0,23792:0:0:0:0:
182,192,23878,1,0,0:0:0:0:
402,192,24051,128,0,25258:0:0:0:0:
36,192,24051,1,0,0:0:0:0:
329,192,24396,1,0,0:0:0:0:
182,192,24568,1,0,0:0:0:0:
329,192,24740,128,0,25085:0:0:0:0:
109,192,24740,1,0,0:0:0:0:
36,192,24740,1,0,0:0:0:0:
36,192,25085,128,0,25258:0:0:0:0:
109,192,25085,128,0,25258:0:0:0:0:
256,192,25085,1,0,0:0:0:0:
109,192,25430,1,0,0:0:0:0:
402,192,25430,1,0,0:0:0:0:
36,192,25430,128,0,25775:0:0:0:0:
475,192,25430,128,0,25775:0:0:0:0:
109,192,25775,1,0,0:0:0:0:
256,192,25947,1,0,0:0:0:0:
402,192,26120,1,0,0:0:0:0:
475,192,26120,1,0,0:0:0:0:
109,192,26465,128,0,26551:0:0:0:0:
182,192,26637,1,0,0:0:0:0:
36,192,26809,128,0,27844:0:0:0:0:
329,192,26809,128,0,27499:0:0:0:0:
256,192,27154,1,0,0:0:0:0:
256,192,27327,1,0,0:0:0:0:
475,192,27499,1,0,0:0:0:0:
402,192,27499,1,0,0:0:0:0:
109,192,27499,128,0,27844:0:0:0:0:
182,192,27499,128,0,27844:0:0:0:0:
256,192,27844,1,0,0:0:0:0:
329,192,27844,1,0,0:0:0:0:
182,192,28016,1,0,0:0:0:0:
36,192,28189,1,0,0:0:0:0:
109,192,28189,1,0,0:0:0:0:
475,192,28189,128,0,28534:0:0:0:0:
402,192,28534,1,0,0:0:0:0:
256,192,28706,1,0,0:0:0:0:
109,192,28878,1,0,0:0:0:0:
36,192,28878,1,0,0:0:0:0:
402,192,29223,128,0,29309:0:0:0:0:
256,192,29396,1,0,0:0:0:0:
475,192,29568,128,0,30947:0:0:0:0:
182,192,29568,128,0,30258:0:0:0:0:
329,192,29913,1,0,0:0:0:0:
329,192,30085,1,0,0:0:0:0:
36,192,30258,1,0,0:0:0:0:
109,192,30258,1,0,0:0:0:0:
402,192,30258,128,0,30947:0:0:0:0:
182,192,30602,1,0,0:0:0:0:
36,192,30947,1,0,0:0:0:0:
109,192,30947,1,0,0:0:0:0:
329,192,31292,128,0,31551:0:0:0:0:
475,192,31292,128,0,31465:0:0:0:0:
36,192,31292,1,0,0:0:0:0:
256,192,31465,128,0,31551:0:0:0:0:
182,192,31465,1,0,0:0:0:0:
109,192,31465,128,0,31637:0:0:0:0:
36,192,31637,128,0,31896:0:0:0:0:
475,192,31637,128,0,31809:0:0:0:0:
329,192,31637,1,0,0:0:0:0:
402,192,31637,1,0,0:0:0:0:
109,192,31809,128,0,31896:0:0:0:0:
182,192,31809,1,0,0:0:0:0:
402,192,31982,128,0,32154:0:0:0:0:
329,192,31982,128,0,32240:0:0:0:0:
36,192,31982,1,0,0:0:0:0:
475,192,31982,1,0,0:0:0:0:
256,192,32154,128,0,32240:0:0:0:0:
182,192,32154,1,0,0:0:0:0:
109,192,32154,128,0,32327:0:0:0:0:
475,192,32327,128,0,32499:0:0:0:0:
256,192,32327,1,0,0:0:0:0:
36,192,32327,128,0,32499:0:0:0:0:
36,192,32671,128,0,33016:0:0:0:0:
109,192,32671,1,0,0:0:0:0:
256,192,32671,128,0,32844:0:0:0:0:
475,192,32671,128,0,33016:0:0:0:0:
402,192,32671,1,0,0:0:0:0:
182,192,32844,1,0,0:0:0:0:
329,192,32844,1,0,0:0:0:0:
256,192,33016,1,0,0:0:0:0:
109,192,33016,1,0,0:0:0:0:
402,192,33016,1,0,0:0:0:0:
36,192,33361,1,0,0:0:0:0:
182,192,33361,1,0,0:0:0:0:
329,192,33361,1,0,0:0:0:0:
475,192,33361,1,0,0:0:0:0:
109,192,33706,128,0,34051:0:0:0:0:
256,192,33706,128,0,34223:0:0:0:0:
402,192,33706,128,0,34396:0:0:0:0:
36,192,34051,1,0,0:0:0:0:
182,192,34223,1,0,0:0:0:0:
329,192,34396,1,0,0:0:0:0:
475,192,34396,1,0,0:0:0:0:
256,192,34740,128,0,34827:0:0:0:0:
402,192,34913,1,0,0:0:0:0:
475,192,35085,128,0,35947:0:0:0:0:
182,192,35085,128,0,35775:0:0:0:0:
36,192,35085,1,0,0:0:0:0:
329,192,35085,1,0,0:0:0:0:
402,192,35430,1,0,0:0:0:0:
256,192,35603,1,0,0:0:0:0:
36,192,35775,1,0,0:0:0:0:
109,192,35775,1,0,0:0:0:0:
402,192,35775,128,0,36723:0:0:0:0:
475,192,36120,1,0,0:0:0:0:
109,192,36465,1,0,0:0:0:0:
182,192,36465,1,0,0:0:0:0:
36,192,36465,128,0,36723:0:0:0:0:
36,192,36809,1,0,0:0:0:0:
402,192,36809,128,0,36896:0:0:0:0:
182,192,36982,1,0,0:0:0:0:
329,192,37154,1,0,0:0:0:0:
402,192,37154,1,0,0:0:0:0:
475,192,37499,128,0,37585:0:0:0:0:
36,192,37499,128,0,38016:0:0:0:0:
402,192,37844,128,0,37930:0:0:0:0:
182,192,37844,128,0,38361:0:0:0:0:
36,192,38189,1,0,0:0:0:0:
109,192,38189,1,0,0:0:0:0:
36,192,38361,1,0,0:0:0:0:
109,192,38361,1,0,0:0:0:0:
475,192,38534,128,0,38620:0:0:0:0:
256,192,38534,1,0,0:0:0:0:
329,192,38534,1,0,0:0:0:0:
182,192,38878,1,0,0:0:0:0:
256,192,38878,1,0,0:0:0:0:
329,192,39051,1,0,0:0:0:0:
109,192,39223,1,0,0:0:0:0:
36,192,39223,1,0,0:0:0:0:
475,192,39223,128,0,39482:0:0:0:0:
402,192,39223,1,0,0:0:0:0:
475,192,39568,1,0,0:0:0:0:
329,192,39740,1,0,0:0:0:0:
182,192,39913,1,0,0:0:0:0:
109,192,39913,1,0,0:0:0:0:
256,192,40258,128,0,40344:0:0:0:0:
329,192,40430,1,0,0:0:0:0:
109,192,40603,128,0,41292:0:0:0:0:
402,192,40603,128,0,41292:0:0:0:0:
256,192,40947,1,0,0:0:0:0:
256,192,41120,1,0,0:0:0:0:
36,192,41292,1,0,0:0:0:0:
182,192,41292,1,0,0:0:0:0:
329,192,41292,1,0,0:0:0:0:
475,192,41292,1,0,0:0:0:0:
109,192,41637,128,0,41723:0:0:0:0:
256,192,41637,1,0,0:0:0:0:
402,192,41637,128,0,41723:0:0:0:0:
36,192,41982,128,0,42068:0:0:0:0:
475,192,41982,128,0,42068:0:0:0:0:
182,192,41982,1,0,0:0:0:0:
329,192,41982,1,0,0:0:0:0:
256,192,42327,1,0,0:0:0:0:
36,192,42499,128,0,42585:0:0:0:0:
475,192,42499,128,0,42585:0:0:0:0:
182,192,42671,1,0,0:0:0:0:
329,192,42671,1,0,0:0:0:0:
109,192,43016,1,0,0:0:0:0:
256,192,43074,1,0,0:0:0:0:
402,192,43189,1,0,0:0:0:0:
402,192,43361,1,0,0:0:0:0:
402,192,43591,1,0,0:0:0:0:
109,192,43706,128,0,43965:0:0:0:0:
36,192,43706,1,0,0:0:0:0:
256,192,43878,1,0,0:0:0:0:
109,192,44051,1,0,0:0:0:0:
182,192,44051,128,0,44309:0:0:0:0:
402,192,44051,1,0,0:0:0:0:
475,192,44051,1,0,0:0:0:0:
182,192,44396,1,0,0:0:0:0:
256,192,44396,128,0,44654:0:0:0:0:
475,192,44396,1,0,0:0:0:0:
36,192,44396,1,0,0:0:0:0:
256,192,44740,1,0,0:0:0:0:
36,192,44740,1,0,0:0:0:0:
475,192,44740,128,0,44999:0:0:0:0:
475,192,45085,1,0,0:0:0:0:
329,192,45258,1,0,0:0:0:0:
182,192,45430,1,0,0:0:0:0:
109,192,45430,1,0,0:0:0:0:
36,192,45775,128,0,45861:0:0:0:0:
256,192,45947,1,0,0:0:0:0:
475,192,46120,128,0,46809:0:0:0:0:
402,192,46465,1,0,0:0:0:0:
256,192,46637,1,0,0:0:0:0:
36,192,46809,128,0,47413:0:0:0:0:
402,192,46809,128,0,47068:0:0:0:0:
109,192,46809,1,0,0:0:0:0:
329,192,46809,128,0,47240:0:0:0:0:
402,192,47154,1,0,0:0:0:0:
182,192,47154,1,0,0:0:0:0:
329,192,47327,1,0,0:0:0:0:
109,192,47327,1,0,0:0:0:0:
36,192,47499,1,0,0:0:0:0:
256,192,47499,1,0,0:0:0:0:
475,192,47499,1,0,0:0:0:0:
182,192,47844,1,0,0:0:0:0:
475,192,47844,1,0,0:0:0:0:
109,192,48016,1,0,0:0:0:0:
402,192,48016,1,0,0:0:0:0:
36,192,48189,1,0,0:0:0:0:
329,192,48189,1,0,0:0:0:0:
256,192,48189,1,0,0:0:0:0:
475,192,48534,1,0,0:0:0:0:
182,192,48534,1,0,0:0:0:0:
256,192,48534,1,0,0:0:0:0:
402,192,48706,1,0,0:0:0:0:
109,192,48706,1,0,0:0:0:0:
36,192,48878,1,0,0:0:0:0:
329,192,48878,1,0,0:0:0:0:
475,192,48878,1,0,0:0:0:0:
109,192,49223,128,0,49568:0:0:0:0:
402,192,49223,128,0,49568:0:0:0:0:
329,192,49223,1,0,0:0:0:0:
36,192,49396,128,0,49740:0:0:0:0:
329,192,49396,128,0,49740:0:0:0:0:
256,192,49396,1,0,0:0:0:0:
182,192,49568,1,0,0:0:0:0:
475,192,49568,1,0,0:0:0:0:
402,192,49740,1,0,0:0:0:0:
109,192,49740,1,0,0:0:0:0:
36,192,49913,1,0,0:0:0:0:
329,192,49913,1,0,0:0:0:0:
256,192,50085,1,0,0:0:0:0:
109,192,50258,1,0,0:0:0:0:
475,192,50258,128,0,50516:0:0:0:0:
182,192,50258,1,0,0:0:0:0:
475,192,50603,1,0,0:0:0:0:
36,192,50603,128,0,50689:0:0:0:0:
329,192,50775,1,0,0:0:0:0:
109,192,50947,1,0,0:0:0:0:
182,192,50947,1,0,0:0:0:0:
256,192,51292,128,0,51378:0:0:0:0:
402,192,51465,1,0,0:0:0:0:
36,192,51637,128,0,52154:0:0:0:0:
475,192,51637,128,0,52154:0:0:0:0:
182,192,51982,1,0,0:0:0:0:
329,192,51982,1,0,0:0:0:0:
182,192,52154,1,0,0:0:0:0:
329,192,52154,1,0,0:0:0:0:
36,192,52327,1,0,0:0:0:0:
475,192,52327,1,0,0:0:0:0:
182,192,52327,128,0,53016:0:0:0:0:
329,192,52327,128,0,53016:0:0:0:0:
256,192,53016,128,0,55085:0:0:0:0:
475,192,53016,1,0,0:0:0:0:
36,192,53016,1,0,0:0:0:0:
109,192,53361,1,0,0:0:0:0:
36,192,53361,128,0,53534:0:0:0:0:
402,192,53534,1,0,0:0:0:0:
475,192,53534,128,0,53706:0:0:0:0:
109,192,53706,1,0,0:0:0:0:
36,192,53706,128,0,53878:0:0:0:0:
402,192,54051,1,0,0:0:0:0:
475,192,54051,128,0,54223:0:0:0:0:
109,192,54223,1,0,0:0:0:0:
36,192,54223,128,0,54396:0:0:0:0:
402,192,54396,1,0,0:0:0:0:
475,192,54396,128,0,54568:0:0:0:0:
329,192,54396,1,0,0:0:0:0:
182,192,54396,1,0,0:0:0:0:
182,192,54568,1,0,0:0:0:0:
329,192,54568,1,0,0:0:0:0:
182,192,54740,1,0,0:0:0:0:
329,192,54740,1,0,0:0:0:0:
36,192,54740,128,0,55085:0:0:0:0:
475,192,54740,128,0,55085:0:0:0:0:
182,192,54913,1,0,0:0:0:0:
329,192,54913,1,0,0:0:0:0:
182,192,55085,1,0,0:0:0:0:
329,192,55085,1,0,0:0:0:0:
256,192,55258,1,0,0:0:0:0:
36,192,55430,128,0,55775:0:0:0:0:
402,192,55430,128,0,55603:0:0:0:0:
109,192,55430,128,0,55603:0:0:0:0:
475,192,55430,128,0,55775:0:0:0:0:
402,192,55775,1,0,0:0:0:0:
182,192,55775,128,0,56292:0:0:0:0:
109,192,55775,1,0,0:0:0:0:
329,192,55775,1,0,0:0:0:0:
256,192,55861,1,0,0:0:0:0:
109,192,55947,128,0,56120:0:0:0:0:
475,192,55947,1,0,0:0:0:0:
329,192,56034,1,0,0:0:0:0:
36,192,56120,128,0,56637:0:0:0:0:
402,192,56120,1,0,0:0:0:0:
256,192,56292,1,0,0:0:0:0:
109,192,56292,128,0,56637:0:0:0:0:
329,192,56292,128,0,56551:0:0:0:0:
475,192,56465,1,0,0:0:0:0:
182,192,56465,128,0,56809:0:0:0:0:
402,192,56465,128,0,56551:0:0:0:0:
256,192,56637,128,0,56723:0:0:0:0:
36,192,56809,1,0,0:0:0:0:
109,192,56809,1,0,0:0:0:0:
475,192,56809,128,0,57154:0:0:0:0:
402,192,56809,128,0,57154:0:0:0:0:
329,192,56809,1,0,0:0:0:0:
256,192,56896,1,0,0:0:0:0:
182,192,56982,1,0,0:0:0:0:
109,192,57154,1,0,0:0:0:0:
329,192,57327,1,0,0:0:0:0:
182,192,57499,1,0,0:0:0:0:
36,192,57499,128,0,58016:0:0:0:0:
109,192,57671,128,0,58016:0:0:0:0:
182,192,57844,128,0,58189:0:0:0:0:
256,192,57844,1,0,0:0:0:0:
329,192,57887,1,0,0:0:0:0:
402,192,57930,1,0,0:0:0:0:
475,192,57973,1,0,0:0:0:0:
256,192,58016,1,0,0:0:0:0:
36,192,58189,1,0,0:0:0:0:
109,192,58189,1,0,0:0:0:0:
402,192,58189,128,0,58534:0:0:0:0:
475,192,58189,128,0,58534:0:0:0:0:
182,192,58361,1,0,0:0:0:0:
329,192,58534,128,0,58878:0:0:0:0:
36,192,58534,1,0,0:0:0:0:
109,192,58534,1,0,0:0:0:0:
182,192,58706,128,0,59051:0:0:0:0:
256,192,58706,1,0,0:0:0:0:
109,192,58792,1,0,0:0:0:0:
475,192,58878,1,0,0:0:0:0:
402,192,58878,128,0,59137:0:0:0:0:
36,192,58878,128,0,60085:0:0:0:0:
109,192,59051,128,0,59482:0:0:0:0:
256,192,59051,1,0,0:0:0:0:
329,192,59051,128,0,59137:0:0:0:0:
182,192,59223,128,0,59396:0:0:0:0:
402,192,59223,1,0,0:0:0:0:
475,192,59223,128,0,59482:0:0:0:0:
329,192,59309,1,0,0:0:0:0:
256,192,59396,1,0,0:0:0:0:
402,192,59396,128,0,59482:0:0:0:0:
182,192,59482,1,0,0:0:0:0:
109,192,59568,1,0,0:0:0:0:
402,192,59568,128,0,59827:0:0:0:0:
475,192,59568,1,0,0:0:0:0:
329,192,59740,128,0,59827:0:0:0:0:
182,192,59740,1,0,0:0:0:0:
256,192,59740,1,0,0:0:0:0:
329,192,59913,128,0,60258:0:0:0:0:
402,192,59913,1,0,0:0:0:0:
475,192,59913,1,0,0:0:0:0:
256,192,60085,1,0,0:0:0:0:
182,192,60085,1,0,0:0:0:0:
36,192,60258,128,0,60689:0:0:0:0:
109,192,60258,1,0,0:0:0:0:
402,192,60258,1,0,0:0:0:0:
475,192,60258,1,0,0:0:0:0:
182,192,60430,128,0,60818:0:0:0:0:
475,192,60430,128,0,60516:0:0:0:0:
256,192,60430,1,0,0:0:0:0:
329,192,60602,128,0,61292:0:0:0:0:
109,192,60602,128,0,60689:0:0:0:0:
402,192,60602,1,0,0:0:0:0:
475,192,60602,1,0,0:0:0:0:
256,192,60775,128,0,60861:0:0:0:0:
36,192,60775,1,0,0:0:0:0:
109,192,60818,1,0,0:0:0:0:
182,192,60861,1,0,0:0:0:0:
256,192,60904,1,0,0:0:0:0:
475,192,60947,128,0,61292:0:0:0:0:
402,192,60947,1,0,0:0:0:0:
36,192,60947,1,0,0:0:0:0:
109,192,61120,1,0,0:0:0:0:
402,192,61292,1,0,0:0:0:0:
36,192,61292,1,0,0:0:0:0:
256,192,61292,128,0,61637:0:0:0:0:
182,192,61292,1,0,0:0:0:0:
329,192,61465,128,0,61809:0:0:0:0:
109,192,61465,128,0,61723:0:0:0:0:
475,192,61465,1,0,0:0:0:0:
475,192,61637,128,0,61896:0:0:0:0:
182,192,61637,128,0,61723:0:0:0:0:
402,192,61637,1,0,0:0:0:0:
109,192,61809,1,0,0:0:0:0:
182,192,61809,1,0,0:0:0:0:
36,192,61809,128,0,61896:0:0:0:0:
402,192,61809,128,0,62154:0:0:0:0:
256,192,61982,1,0,0:0:0:0:
475,192,61982,1,0,0:0:0:0:
109,192,61982,128,0,62240:0:0:0:0:
36,192,61982,1,0,0:0:0:0:
329,192,61982,128,0,63016:0:0:0:0:
36,192,62154,128,0,62240:0:0:0:0:
475,192,62154,1,0,0:0:0:0:
182,192,62154,1,0,0:0:0:0:
182,192,62327,128,0,62585:0:0:0:0:
109,192,62327,1,0,0:0:0:0:
475,192,62327,1,0,0:0:0:0:
109,192,62499,128,0,62585:0:0:0:0:
36,192,62499,1,0,0:0:0:0:
402,192,62499,1,0,0:0:0:0:
256,192,62671,128,0,62758:0:0:0:0:
475,192,62671,1,0,0:0:0:0:
182,192,62671,1,0,0:0:0:0:
36,192,62844,128,0,63016:0:0:0:0:
475,192,62844,128,0,63016:0:0:0:0:
109,192,63016,1,0,0:0:0:0:
402,192,63016,128,0,63275:0:0:0:0:
329,192,63059,1,0,0:0:0:0:
256,192,63102,1,0,0:0:0:0:
182,192,63146,1,0,0:0:0:0:
109,192,63189,1,0,0:0:0:0:
36,192,63189,128,0,63275:0:0:0:0:
475,192,63189,128,0,63275:0:0:0:0:
256,192,63275,1,0,0:0:0:0:
182,192,63275,1,0,0:0:0:0:
475,192,63361,1,0,0:0:0:0:
402,192,63361,128,0,63965:0:0:0:0:
109,192,63361,1,0,0:0:0:0:
329,192,63361,128,0,63447:0:0:0:0:
182,192,63534,128,0,63620:0:0:0:0:
256,192,63534,1,0,0:0:0:0:
475,192,63706,128,0,63965:0:0:0:0:
36,192,63706,128,0,63965:0:0:0:0:
109,192,63706,1,0,0:0:0:0:
329,192,63706,1,0,0:0:0:0:
182,192,63878,1,0,0:0:0:0:
109,192,64051,1,0,0:0:0:0:
402,192,64051,1,0,0:0:0:0:
475,192,64051,128,0,64482:0:0:0:0:
36,192,64051,128,0,64482:0:0:0:0:
182,192,64137,1,0,0:0:0:0:
329,192,64137,1,0,0:0:0:0:
109,192,64223,128,0,64309:0:0:0:0:
402,192,64223,128,0,64309:0:0:0:0:
256,192,64223,128,0,64309:0:0:0:0:
329,192,64396,128,0,64654:0:0:0:0:
109,192,64396,1,0,0:0:0:0:
402,192,64396,1,0,0:0:0:0:
256,192,64396,1,0,0:0:0:0:
182,192,64396,128,0,64654:0:0:0:0:
109,192,64568,128,0,64740:0:0:0:0:
36,192,64568,1,0,0:0:0:0:
475,192,64568,1,0,0:0:0:0:
256,192,64568,1,0,0:0:0:0:
402,192,64568,128,0,64827:0:0:0:0:
36,192,64740,128,0,64913:0:0:0:0:
475,192,64740,128,0,64999:0:0:0:0:
182,192,64740,128,0,64827:0:0:0:0:
329,192,64740,1,0,0:0:0:0:
109,192,64827,1,0,0:0:0:0:
402,192,64913,1,0,0:0:0:0:
256,192,64913,128,0,64999:0:0:0:0:
36,192,64999,1,0,0:0:0:0:
475,192,65085,1,0,0:0:0:0:
329,192,65085,128,0,65171:0:0:0:0:
182,192,65171,1,0,0:0:0:0:
36,192,65258,1,0,0:0:0:0:
109,192,65258,1,0,0:0:0:0:
402,192,65258,128,0,65516:0:0:0:0:
329,192,65258,1,0,0:0:0:0:
329,192,65430,128,0,65516:0:0:0:0:
109,192,65430,1,0,0:0:0:0:
182,192,65430,1,0,0:0:0:0:
256,192,65516,1,0,0:0:0:0:
402,192,65602,1,0,0:0:0:0:
329,192,65602,1,0,0:0:0:0:
475,192,65602,128,0,65689:0:0:0:0:
36,192,65775,128,0,66206:0:0:0:0:
402,192,65775,128,0,66034:0:0:0:0:
182,192,65775,1,0,0:0:0:0:
182,192,65947,128,0,66292:0:0:0:0:
475,192,65947,128,0,66034:0:0:0:0:
329,192,65947,1,0,0:0:0:0:
329,192,66120,128,0,66809:0:0:0:0:
109,192,66120,128,0,66206:0:0:0:0:
256,192,66120,1,0,0:0:0:0:
402,192,66163,1,0,0:0:0:0:
475,192,66206,1,0,0:0:0:0:
36,192,66249,1,0,0:0:0:0:
256,192,66292,128,0,66335:0:0:0:0:
109,192,66292,1,0,0:0:0:0:
182,192,66335,1,0,0:0:0:0:
256,192,66378,1,0,0:0:0:0:
36,192,66421,1,0,0:0:0:0:
402,192,66465,1,0,0:0:0:0:
182,192,66465,1,0,0:0:0:0:
109,192,66465,128,0,66637:0:0:0:0:
475,192,66465,128,0,66809:0:0:0:0:
256,192,66637,1,0,0:0:0:0:
182,192,66809,128,0,67154:0:0:0:0:
109,192,66809,1,0,0:0:0:0:
402,192,66809,1,0,0:0:0:0:
256,192,66896,1,0,0:0:0:0:
109,192,66982,128,0,67154:0:0:0:0:
475,192,66982,128,0,67413:0:0:0:0:
36,192,66982,1,0,0:0:0:0:
402,192,66982,1,0,0:0:0:0:
329,192,67068,1,0,0:0:0:0:
402,192,67154,128,0,67413:0:0:0:0:
256,192,67154,1,0,0:0:0:0:
36,192,67154,128,0,67413:0:0:0:0:
109,192,67327,128,0,67499:0:0:0:0:
182,192,67327,1,0,0:0:0:0:
329,192,67327,128,0,67758:0:0:0:0:
256,192,67413,1,0,0:0:0:0:
36,192,67499,1,0,0:0:0:0:
402,192,67499,128,0,67844:0:0:0:0:
475,192,67499,128,0,67930:0:0:0:0:
182,192,67499,128,0,67671:0:0:0:0:
256,192,67671,1,0,0:0:0:0:
109,192,67671,1,0,0:0:0:0:
329,192,67844,1,0,0:0:0:0:
109,192,67844,128,0,68102:0:0:0:0:
402,192,67930,1,0,0:0:0:0:
182,192,67930,128,0,68102:0:0:0:0:
475,192,68016,1,0,0:0:0:0:
36,192,68016,128,0,68275:0:0:0:0:
256,192,68016,128,0,68189:0:0:0:0:
182,192,68189,1,0,0:0:0:0:
329,192,68189,1,0,0:0:0:0:
402,192,68189,128,0,68275:0:0:0:0:
475,192,68189,128,0,68447:0:0:0:0:
109,192,68189,128,0,68361:0:0:0:0:
36,192,68361,1,0,0:0:0:0:
256,192,68361,128,0,68620:0:0:0:0:
402,192,68361,1,0,0:0:0:0:
36,192,68534,128,0,68792:0:0:0:0:
109,192,68534,1,0,0:0:0:0:
182,192,68534,128,0,68620:0:0:0:0:
475,192,68534,128,0,68706:0:0:0:0:
109,192,68706,128,0,68792:0:0:0:0:
256,192,68706,128,0,68792:0:0:0:0:
402,192,68706,1,0,0:0:0:0:
329,192,68706,128,0,68878:0:0:0:0:
36,192,68878,1,0,0:0:0:0:
109,192,68878,1,0,0:0:0:0:
475,192,68878,1,0,0:0:0:0:
182,192,68878,128,0,69482:0:0:0:0:
402,192,68921,1,0,0:0:0:0:
329,192,68965,1,0,0:0:0:0:
256,192,69008,1,0,0:0:0:0:
109,192,69051,1,0,0:0:0:0:
36,192,69051,1,0,0:0:0:0:
475,192,69223,128,0,69568:0:0:0:0:
402,192,69223,128,0,69309:0:0:0:0:
329,192,69223,1,0,0:0:0:0:
109,192,69396,128,0,69482:0:0:0:0:
36,192,69396,1,0,0:0:0:0:
182,192,69568,1,0,0:0:0:0:
109,192,69568,128,0,69740:0:0:0:0:
256,192,69568,1,0,0:0:0:0:
36,192,69568,128,0,69827:0:0:0:0:
402,192,69568,128,0,69913:0:0:0:0:
329,192,69568,1,0,0:0:0:0:
182,192,69740,1,0,0:0:0:0:
475,192,69740,128,0,70085:0:0:0:0:
109,192,69827,1,0,0:0:0:0:
36,192,69913,1,0,0:0:0:0:
182,192,69913,128,0,70171:0:0:0:0:
329,192,69913,128,0,70344:0:0:0:0:
402,192,70085,128,0,70258:0:0:0:0:
109,192,70085,128,0,70171:0:0:0:0:
256,192,70085,1,0,0:0:0:0:
475,192,70258,128,0,71206:0:0:0:0:
182,192,70258,1,0,0:0:0:0:
109,192,70258,1,0,0:0:0:0:
256,192,70258,128,0,70430:0:0:0:0:
36,192,70344,1,0,0:0:0:0:
402,192,70344,1,0,0:0:0:0:
182,192,70430,128,0,70516:0:0:0:0:
329,192,70430,1,0,0:0:0:0:
256,192,70516,1,0,0:0:0:0:
182,192,70602,1,0,0:0:0:0:
109,192,70602,128,0,70861:0:0:0:0:
36,192,70602,1,0,0:0:0:0:
402,192,70775,1,0,0:0:0:0:
329,192,70775,1,0,0:0:0:0:
36,192,70775,128,0,70861:0:0:0:0:
182,192,70947,128,0,71206:0:0:0:0:
109,192,70947,1,0,0:0:0:0:
36,192,70947,1,0,0:0:0:0:
109,192,71120,128,0,71206:0:0:0:0:
256,192,71120,1,0,0:0:0:0:
329,192,71120,1,0,0:0:0:0:
256,192,71292,128,0,71551:0:0:0:0:
36,192,71292,128,0,71551:0:0:0:0:
109,192,71292,1,0,0:0:0:0:
182,192,71292,1,0,0:0:0:0:
402,192,71292,1,0,0:0:0:0:
475,192,71292,1,0,0:0:0:0:
109,192,71465,128,0,71551:0:0:0:0:
475,192,71465,1,0,0:0:0:0:
329,192,71465,128,0,71809:0:0:0:0:
402,192,71637,128,0,71896:0:0:0:0:
475,192,71637,1,0,0:0:0:0:
256,192,71637,1,0,0:0:0:0:
109,192,71637,128,0,71723:0:0:0:0:
36,192,71637,128,0,71723:0:0:0:0:
182,192,71637,1,0,0:0:0:0:
256,192,71809,1,0,0:0:0:0:
182,192,71852,1,0,0:0:0:0:
109,192,71896,1,0,0:0:0:0:
256,192,71896,128,0,71982:0:0:0:0:
329,192,71896,128,0,71982:0:0:0:0:
36,192,71939,1,0,0:0:0:0:
475,192,71982,128,0,72327:0:0:0:0:
402,192,71982,1,0,0:0:0:0:
182,192,72154,128,0,72240:0:0:0:0:
256,192,72154,128,0,72240:0:0:0:0:
329,192,72327,128,0,72671:0:0:0:0:
36,192,72327,1,0,0:0:0:0:
182,192,72327,1,0,0:0:0:0:
402,192,72327,1,0,0:0:0:0:
182,192,72499,128,0,72758:0:0:0:0:
109,192,72499,1,0,0:0:0:0:
256,192,72499,1,0,0:0:0:0:
36,192,72671,128,0,73016:0:0:0:0:
475,192,72671,128,0,72930:0:0:0:0:
402,192,72671,1,0,0:0:0:0:
109,192,72844,128,0,73189:0:0:0:0:
402,192,72844,128,0,72930:0:0:0:0:
256,192,72844,1,0,0:0:0:0:
402,192,73016,128,0,73275:0:0:0:0:
182,192,73016,128,0,73620:0:0:0:0:
329,192,73016,1,0,0:0:0:0:
475,192,73016,1,0,0:0:0:0:
329,192,73189,128,0,73275:0:0:0:0:
256,192,73189,1,0,0:0:0:0:
36,192,73189,1,0,0:0:0:0:
329,192,73361,128,0,73620:0:0:0:0:
402,192,73361,1,0,0:0:0:0:
475,192,73361,1,0,0:0:0:0:
109,192,73361,1,0,0:0:0:0:
256,192,73534,128,0,73620:0:0:0:0:
36,192,73534,1,0,0:0:0:0:
109,192,73706,1,0,0:0:0:0:
182,192,73706,1,0,0:0:0:0:
329,192,73706,128,0,73792:0:0:0:0:
475,192,73706,128,0,73965:0:0:0:0:
402,192,73878,128,0,73965:0:0:0:0:
182,192,73878,1,0,0:0:0:0:
256,192,73878,1,0,0:0:0:0:
182,192,74051,1,0,0:0:0:0:
475,192,74051,1,0,0:0:0:0:
36,192,74051,128,0,74309:0:0:0:0:
402,192,74094,1,0,0:0:0:0:
329,192,74137,1,0,0:0:0:0:
256,192,74180,1,0,0:0:0:0:
182,192,74223,128,0,74396:0:0:0:0:
475,192,74223,1,0,0:0:0:0:
109,192,74223,1,0,0:0:0:0:
402,192,74309,1,0,0:0:0:0:
256,192,74396,1,0,0:0:0:0:
36,192,74396,1,0,0:0:0:0:
109,192,74396,128,0,74482:0:0:0:0:
329,192,74396,128,0,74827:0:0:0:0:
475,192,74396,1,0,0:0:0:0:
109,192,74568,1,0,0:0:0:0:
182,192,74568,128,0,74654:0:0:0:0:
475,192,74740,128,0,75085:0:0:0:0:
182,192,74740,1,0,0:0:0:0:
256,192,74740,128,0,74827:0:0:0:0:
402,192,74740,1,0,0:0:0:0:
36,192,74740,128,0,75085:0:0:0:0:
256,192,74913,1,0,0:0:0:0:
329,192,74913,128,0,74999:0:0:0:0:
329,192,75085,1,0,0:0:0:0:
109,192,75085,128,0,75344:0:0:0:0:
402,192,75128,1,0,0:0:0:0:
475,192,75171,1,0,0:0:0:0:
182,192,75215,1,0,0:0:0:0:
256,192,75258,1,0,0:0:0:0:
36,192,75258,128,0,75344:0:0:0:0:
329,192,75301,1,0,0:0:0:0:
402,192,75344,1,0,0:0:0:0:
475,192,75387,1,0,0:0:0:0:
109,192,75430,1,0,0:0:0:0:
36,192,75430,128,0,75689:0:0:0:0:
256,192,75430,1,0,0:0:0:0:
182,192,75602,1,0,0:0:0:0:
109,192,75602,128,0,75775:0:0:0:0:
329,192,75602,1,0,0:0:0:0:
36,192,75775,1,0,0:0:0:0:
256,192,75775,128,0,76292:0:0:0:0:
402,192,75775,1,0,0:0:0:0:
475,192,75861,1,0,0:0:0:0:
36,192,75947,1,0,0:0:0:0:
402,192,75947,128,0,76465:0:0:0:0:
182,192,75947,1,0,0:0:0:0:
475,192,76034,1,0,0:0:0:0:
36,192,76120,1,0,0:0:0:0:
109,192,76120,128,0,77111:0:0:0:0:
329,192,76120,1,0,0:0:0:0:
475,192,76206,1,0,0:0:0:0:
36,192,76292,1,0,0:0:0:0:
329,192,76292,128,0,76378:0:0:0:0:
182,192,76292,1,0,0:0:0:0:
475,192,76378,1,0,0:0:0:0:
329,192,76465,1,0,0:0:0:0:
475,192,76465,1,0,0:0:0:0:
36,192,76465,128,0,76594:0:0:0:0:
182,192,76465,128,0,76594:0:0:0:0:
256,192,76465,128,0,77111:0:0:0:0:
36,192,76637,1,0,0:0:0:0:
182,192,76637,128,0,76766:0:0:0:0:
475,192,76637,1,0,0:0:0:0:
329,192,76637,128,0,76766:0:0:0:0:
475,192,76809,128,0,76939:0:0:0:0:
329,192,76809,128,0,76939:0:0:0:0:
182,192,76809,1,0,0:0:0:0:
36,192,76809,1,0,0:0:0:0:
402,192,76809,128,0,77111:0:0:0:0:
475,192,76982,128,0,77111:0:0:0:0:
36,192,76982,128,0,77111:0:0:0:0:
182,192,76982,1,0,0:0:0:0:
329,192,76982,1,0,0:0:0:0:
36,192,77154,1,0,0:0:0:0:
109,192,77154,1,0,0:0:0:0:
256,192,77154,1,0,0:0:0:0:
402,192,77154,1,0,0:0:0:0:
475,192,77154,1,0,0:0:0:0:
402,192,77844,1,0,0:0:0:0:
475,192,77844,1,0,0:0:0:0:
329,192,77844,1,0,0:0:0:0:
109,192,77844,128,0,78361:0:0:0:0:
36,192,77844,128,0,78361:0:0:0:0:
182,192,77844,128,0,78706:0:0:0:0:
475,192,78189,128,0,78878:0:0:0:0:
402,192,78189,1,0,0:0:0:0:
329,192,78361,128,0,78878:0:0:0:0:
256,192,78361,1,0,0:0:0:0:
109,192,78534,128,0,78878:0:0:0:0:
36,192,78534,128,0,78878:0:0:0:0:
256,192,78878,128,0,78965:0:0:0:0:
402,192,78878,128,0,79137:0:0:0:0:
182,192,78878,128,0,79568:0:0:0:0:
109,192,79051,128,0,79396:0:0:0:0:
329,192,79223,128,0,79568:0:0:0:0:
36,192,79223,128,0,79740:0:0:0:0:
402,192,79223,1,0,0:0:0:0:
475,192,79223,128,0,79309:0:0:0:0:
256,192,79223,128,0,79740:0:0:0:0:
109,192,79568,128,0,80085:0:0:0:0:
475,192,79568,128,0,80258:0:0:0:0:
402,192,79568,1,0,0:0:0:0:
329,192,79740,1,0,0:0:0:0:
402,192,79740,128,0,80430:0:0:0:0:
36,192,79913,128,0,81809:0:0:0:0:
256,192,79913,1,0,0:0:0:0:
182,192,79913,1,0,0:0:0:0:
329,192,79913,128,0,80602:0:0:0:0:
109,192,80258,1,0,0:0:0:0:
256,192,80258,128,0,80430:0:0:0:0:
182,192,80602,1,0,0:0:0:0:
109,192,80602,128,0,81120:0:0:0:0:
475,192,80602,128,0,80775:0:0:0:0:
402,192,80602,1,0,0:0:0:0:
256,192,80602,128,0,80947:0:0:0:0:
475,192,80947,128,0,81465:0:0:0:0:
402,192,80947,1,0,0:0:0:0:
182,192,80947,128,0,81120:0:0:0:0:
329,192,81120,128,0,81465:0:0:0:0:
256,192,81120,1,0,0:0:0:0:
109,192,81292,128,0,81809:0:0:0:0:
182,192,81292,128,0,81637:0:0:0:0:
402,192,81292,1,0,0:0:0:0:
329,192,81637,128,0,81723:0:0:0:0:
475,192,81637,1,0,0:0:0:0:
256,192,81637,128,0,81982:0:0:0:0:
182,192,81809,1,0,0:0:0:0:
109,192,81982,128,0,82499:0:0:0:0:
36,192,81982,1,0,0:0:0:0:
475,192,81982,128,0,82671:0:0:0:0:
402,192,81982,128,0,82327:0:0:0:0:
329,192,81982,128,0,82154:0:0:0:0:
329,192,82327,1,0,0:0:0:0:
36,192,82327,128,0,82499:0:0:0:0:
256,192,82327,128,0,82499:0:0:0:0:
182,192,82499,128,0,82671:0:0:0:0:
402,192,82499,1,0,0:0:0:0:
36,192,82671,128,0,83189:0:0:0:0:
256,192,82671,1,0,0:0:0:0:
329,192,82671,128,0,82930:0:0:0:0:
109,192,82671,128,0,82844:0:0:0:0:
329,192,83016,1,0,0:0:0:0:
402,192,83016,128,0,83275:0:0:0:0:
182,192,83016,128,0,83878:0:0:0:0:
109,192,83016,128,0,83189:0:0:0:0:
256,192,83189,1,0,0:0:0:0:
475,192,83361,128,0,83534:0:0:0:0:
402,192,83361,1,0,0:0:0:0:
109,192,83361,128,0,83706:0:0:0:0:
36,192,83361,128,0,83534:0:0:0:0:
329,192,83361,128,0,83706:0:0:0:0:
475,192,83706,1,0,0:0:0:0:
402,192,83706,128,0,84051:0:0:0:0:
36,192,83706,1,0,0:0:0:0:
329,192,83878,1,0,0:0:0:0:
256,192,83878,128,0,84223:0:0:0:0:
109,192,83878,1,0,0:0:0:0:
182,192,84051,1,0,0:0:0:0:
36,192,84051,128,0,84396:0:0:0:0:
475,192,84051,128,0,84482:0:0:0:0:
329,192,84223,128,0,84740:0:0:0:0:
402,192,84396,128,0,84482:0:0:0:0:
256,192,84396,1,0,0:0:0:0:
182,192,84396,128,0,84568:0:0:0:0:
36,192,84568,1,0,0:0:0:0:
109,192,84568,128,0,84740:0:0:0:0:
475,192,84740,128,0,85258:0:0:0:0:
36,192,84740,128,0,85258:0:0:0:0:
182,192,84740,1,0,0:0:0:0:
329,192,84913,128,0,85258:0:0:0:0:
256,192,84913,1,0,0:0:0:0:
182,192,85085,128,0,85258:0:0:0:0:
109,192,85085,1,0,0:0:0:0:
36,192,85430,1,0,0:0:0:0:
475,192,85430,1,0,0:0:0:0:
182,192,85430,1,0,0:0:0:0:
329,192,85430,1,0,0:0:0:0:
182,192,85775,1,0,0:0:0:0:
36,192,85775,128,0,86465:0:0:0:0:
256,192,85947,1,0,0:0:0:0:
109,192,85947,128,0,86206:0:0:0:0:
475,192,86120,128,0,86637:0:0:0:0:
402,192,86120,128,0,86465:0:0:0:0:
182,192,86120,128,0,86206:0:0:0:0:
329,192,86120,1,0,0:0:0:0:
109,192,86465,1,0,0:0:0:0:
182,192,86465,128,0,86982:0:0:0:0:
256,192,86637,1,0,0:0:0:0:
329,192,86637,128,0,86809:0:0:0:0:
36,192,86809,128,0,87154:0:0:0:0:
402,192,86809,128,0,87240:0:0:0:0:
475,192,86809,128,0,86982:0:0:0:0:
109,192,86809,128,0,86982:0:0:0:0:
329,192,87154,128,0,87240:0:0:0:0:
109,192,87154,128,0,87327:0:0:0:0:
256,192,87154,1,0,0:0:0:0:
182,192,87327,1,0,0:0:0:0:
475,192,87327,128,0,87499:0:0:0:0:
36,192,87327,128,0,87585:0:0:0:0:
402,192,87499,1,0,0:0:0:0:
256,192,87499,128,0,87585:0:0:0:0:
109,192,87499,128,0,87585:0:0:0:0:
329,192,87671,1,0,0:0:0:0:
182,192,87844,128,0,88189:0:0:0:0:
109,192,87844,128,0,88016:0:0:0:0:
36,192,87844,128,0,88016:0:0:0:0:
475,192,87844,128,0,88016:0:0:0:0:
402,192,87844,1,0,0:0:0:0:
256,192,88016,1,0,0:0:0:0:
329,192,88016,128,0,88361:0:0:0:0:
475,192,88189,128,0,88361:0:0:0:0:
109,192,88189,1,0,0:0:0:0:
36,192,88189,1,0,0:0:0:0:
402,192,88189,128,0,88361:0:0:0:0:
256,192,88361,128,0,88706:0:0:0:0:
182,192,88361,1,0,0:0:0:0:
329,192,88534,128,0,88706:0:0:0:0:
402,192,88534,128,0,88706:0:0:0:0:
36,192,88878,128,0,91465:0:0:0:0:
402,192,88878,128,0,89396:0:0:0:0:
475,192,88878,128,0,89396:0:0:0:0:
109,192,88878,1,0,0:0:0:0:
182,192,88878,1,0,0:0:0:0:
329,192,88878,128,0,89223:0:0:0:0:
182,192,89223,1,0,0:0:0:0:
109,192,89223,128,0,89999:0:0:0:0:
329,192,89396,1,0,0:0:0:0:
256,192,89396,128,0,89568:0:0:0:0:
402,192,89568,128,0,89999:0:0:0:0:
182,192,89568,1,0,0:0:0:0:
475,192,89568,128,0,89740:0:0:0:0:
182,192,89913,128,0,89999:0:0:0:0:
256,192,89913,128,0,90258:0:0:0:0:
475,192,89913,1,0,0:0:0:0:
329,192,90085,1,0,0:0:0:0:
109,192,90085,1,0,0:0:0:0:
109,192,90258,128,0,91465:0:0:0:0:
182,192,90258,128,0,90430:0:0:0:0:
475,192,90258,128,0,90775:0:0:0:0:
402,192,90258,128,0,90602:0:0:0:0:
329,192,90430,128,0,90602:0:0:0:0:
182,192,90602,1,0,0:0:0:0:
256,192,90602,128,0,90947:0:0:0:0:
329,192,90775,1,0,0:0:0:0:
402,192,90775,128,0,90947:0:0:0:0:
182,192,90947,128,0,91292:0:0:0:0:
475,192,90947,1,0,0:0:0:0:
256,192,91292,1,0,0:0:0:0:
475,192,91292,128,0,91465:0:0:0:0:
402,192,91292,128,0,91465:0:0:0:0:
329,192,91465,128,0,91637:0:0:0:0:
182,192,91465,1,0,0:0:0:0:
402,192,91637,1,0,0:0:0:0:
256,192,91637,128,0,91982:0:0:0:0:
475,192,91637,128,0,92154:0:0:0:0:
36,192,91637,128,0,92154:0:0:0:0:
109,192,91637,128,0,92154:0:0:0:0:
402,192,91982,1,0,0:0:0:0:
329,192,91982,128,0,92327:0:0:0:0:
256,192,92154,1,0,0:0:0:0:
182,192,92154,128,0,92499:0:0:0:0:
109,192,92327,1,0,0:0:0:0:
36,192,92327,128,0,92844:0:0:0:0:
475,192,92327,128,0,92758:0:0:0:0:
402,192,92327,1,0,0:0:0:0:
402,192,92671,128,0,92758:0:0:0:0:
182,192,92671,1,0,0:0:0:0:
256,192,92671,128,0,93189:0:0:0:0:
329,192,92844,1,0,0:0:0:0:
109,192,92844,128,0,93189:0:0:0:0:
182,192,93016,128,0,93706:0:0:0:0:
475,192,93016,128,0,94051:0:0:0:0:
36,192,93016,128,0,93361:0:0:0:0:
329,192,93189,128,0,93361:0:0:0:0:
402,192,93189,1,0,0:0:0:0:
256,192,93361,1,0,0:0:0:0:
402,192,93361,128,0,93534:0:0:0:0:
109,192,93361,128,0,93447:0:0:0:0:
256,192,93534,1,0,0:0:0:0:
36,192,93534,128,0,93620:0:0:0:0:
402,192,93706,128,0,94051:0:0:0:0:
329,192,93706,128,0,94051:0:0:0:0:
36,192,93706,1,0,0:0:0:0:
109,192,93706,1,0,0:0:0:0:
182,192,94051,1,0,0:0:0:0:
256,192,94051,1,0,0:0:0:0:
329,192,94223,1,0,0:0:0:0:
402,192,94396,128,0,94913:0:0:0:0:
475,192,94396,128,0,94913:0:0:0:0:
329,192,94396,128,0,94740:0:0:0:0:
109,192,94396,1,0,0:0:0:0:
182,192,94396,1,0,0:0:0:0:
36,192,94396,128,0,94913:0:0:0:0:
182,192,94740,128,0,95085:0:0:0:0:
109,192,94740,128,0,94913:0:0:0:0:
256,192,94913,1,0,0:0:0:0:
329,192,94913,128,0,95258:0:0:0:0:
402,192,95085,1,0,0:0:0:0:
475,192,95085,128,0,95430:0:0:0:0:
109,192,95085,1,0,0:0:0:0:
36,192,95085,128,0,95516:0:0:0:0:
109,192,95430,128,0,95516:0:0:0:0:
402,192,95430,128,0,95947:0:0:0:0:
329,192,95430,1,0,0:0:0:0:
256,192,95602,1,0,0:0:0:0:
182,192,95602,128,0,95775:0:0:0:0:
36,192,95602,1,0,0:0:0:0:
475,192,95602,128,0,96120:0:0:0:0:
329,192,95775,128,0,96465:0:0:0:0:
36,192,95775,128,0,97154:0:0:0:0:
109,192,95775,128,0,96120:0:0:0:0:
256,192,95947,1,0,0:0:0:0:
182,192,95947,1,0,0:0:0:0:
256,192,96120,128,0,96292:0:0:0:0:
182,192,96120,128,0,96292:0:0:0:0:
402,192,96120,1,0,0:0:0:0:
109,192,96292,1,0,0:0:0:0:
109,192,96465,128,0,97154:0:0:0:0:
256,192,96465,1,0,0:0:0:0:
402,192,96465,128,0,96809:0:0:0:0:
475,192,96465,128,0,96982:0:0:0:0:
329,192,96809,1,0,0:0:0:0:
182,192,96809,128,0,97154:0:0:0:0:
475,192,97154,1,0,0:0:0:0:
256,192,97154,128,0,97499:0:0:0:0:
329,192,97154,128,0,97327:0:0:0:0:
402,192,97154,1,0,0:0:0:0:
475,192,97499,1,0,0:0:0:0:
36,192,97499,128,0,97671:0:0:0:0:
182,192,97499,128,0,97758:0:0:0:0:
109,192,97499,128,0,97585:0:0:0:0:
402,192,97671,128,0,97844:0:0:0:0:
256,192,97671,128,0,97758:0:0:0:0:
329,192,97671,1,0,0:0:0:0:
182,192,97844,1,0,0:0:0:0:
475,192,97844,128,0,98102:0:0:0:0:
36,192,97844,128,0,97930:0:0:0:0:
329,192,98016,1,0,0:0:0:0:
402,192,98016,128,0,98102:0:0:0:0:
256,192,98016,128,0,98189:0:0:0:0:
475,192,98189,1,0,0:0:0:0:
109,192,98189,128,0,98361:0:0:0:0:
182,192,98189,128,0,98447:0:0:0:0:
36,192,98189,1,0,0:0:0:0:
402,192,98361,128,0,98534:0:0:0:0:
329,192,98361,1,0,0:0:0:0:
256,192,98361,128,0,98447:0:0:0:0:
475,192,98534,128,0,98706:0:0:0:0:
256,192,98534,1,0,0:0:0:0:
36,192,98534,128,0,98706:0:0:0:0:
36,192,98878,128,0,99223:0:0:0:0:
109,192,98878,1,0,0:0:0:0:
256,192,98878,128,0,99051:0:0:0:0:
475,192,98878,128,0,99223:0:0:0:0:
402,192,98878,1,0,0:0:0:0:
182,192,99051,1,0,0:0:0:0:
329,192,99051,1,0,0:0:0:0:
109,192,99223,1,0,0:0:0:0:
402,192,99223,1,0,0:0:0:0:
256,192,99223,1,0,0:0:0:0:
182,192,99568,1,0,0:0:0:0:
36,192,99568,1,0,0:0:0:0:
475,192,99568,1,0,0:0:0:0:
329,192,99568,1,0,0:0:0:0:
109,192,99913,128,0,100602:0:0:0:0:
256,192,99913,128,0,100430:0:0:0:0:
402,192,99913,128,0,100258:0:0:0:0:
329,192,100258,1,0,0:0:0:0:
475,192,100258,128,0,100602:0:0:0:0:
329,192,100430,128,0,101034:0:0:0:0:
182,192,100430,1,0,0:0:0:0:
36,192,100602,1,0,0:0:0:0:
402,192,100602,128,0,101292:0:0:0:0:
182,192,100602,128,0,100947:0:0:0:0:
256,192,100947,128,0,101034:0:0:0:0:
109,192,100947,128,0,101292:0:0:0:0:
475,192,100947,128,0,101292:0:0:0:0:
329,192,101120,1,0,0:0:0:0:
36,192,101120,1,0,0:0:0:0:
182,192,101292,1,0,0:0:0:0:
36,192,101292,128,0,102154:0:0:0:0:
329,192,101292,128,0,101982:0:0:0:0:
256,192,101465,128,0,101637:0:0:0:0:
109,192,101465,1,0,0:0:0:0:
475,192,101465,128,0,101809:0:0:0:0:
109,192,101637,128,0,101809:0:0:0:0:
402,192,101637,128,0,101809:0:0:0:0:
182,192,101637,1,0,0:0:0:0:
256,192,101809,1,0,0:0:0:0:
109,192,101982,128,0,102930:0:0:0:0:
402,192,101982,1,0,0:0:0:0:
475,192,101982,128,0,102327:0:0:0:0:
182,192,101982,128,0,102671:0:0:0:0:
36,192,102327,1,0,0:0:0:0:
256,192,102327,128,0,102671:0:0:0:0:
329,192,102327,1,0,0:0:0:0:
475,192,102671,128,0,102930:0:0:0:0:
329,192,102671,1,0,0:0:0:0:
36,192,102671,128,0,103102:0:0:0:0:
402,192,102671,1,0,0:0:0:0:
109,192,103016,128,0,103102:0:0:0:0:
475,192,103016,1,0,0:0:0:0:
402,192,103016,128,0,103361:0:0:0:0:
329,192,103189,1,0,0:0:0:0:
36,192,103189,1,0,0:0:0:0:
256,192,103189,128,0,103534:0:0:0:0:
182,192,103361,1,0,0:0:0:0:
109,192,103361,128,0,103706:0:0:0:0:
475,192,103361,128,0,103534:0:0:0:0:
475,192,103706,128,0,104223:0:0:0:0:
36,192,103706,128,0,103792:0:0:0:0:
402,192,103706,128,0,104051:0:0:0:0:
256,192,103706,1,0,0:0:0:0:
329,192,103878,1,0,0:0:0:0:
182,192,103878,128,0,104137:0:0:0:0:
329,192,104051,128,0,104568:0:0:0:0:
109,192,104051,128,0,104137:0:0:0:0:
256,192,104051,128,0,104396:0:0:0:0:
36,192,104051,1,0,0:0:0:0:
182,192,104223,1,0,0:0:0:0:
402,192,104396,1,0,0:0:0:0:
475,192,104396,1,0,0:0:0:0:
182,192,104396,128,0,104913:0:0:0:0:
402,192,104568,1,0,0:0:0:0:
475,192,104568,1,0,0:0:0:0:
109,192,104568,128,0,105258:0:0:0:0:
36,192,104740,128,0,104827:0:0:0:0:
329,192,104740,1,0,0:0:0:0:
475,192,104740,128,0,105258:0:0:0:0:
402,192,104740,128,0,104913:0:0:0:0:
256,192,104740,1,0,0:0:0:0:
256,192,105085,128,0,105258:0:0:0:0:
329,192,105085,1,0,0:0:0:0:
402,192,105085,1,0,0:0:0:0:
182,192,105085,128,0,105775:0:0:0:0:
36,192,105258,1,0,0:0:0:0:
36,192,105430,128,0,105689:0:0:0:0:
109,192,105430,1,0,0:0:0:0:
475,192,105430,128,0,105947:0:0:0:0:
402,192,105430,128,0,105775:0:0:0:0:
329,192,105430,128,0,105602:0:0:0:0:
256,192,105430,1,0,0:0:0:0:
36,192,105775,1,0,0:0:0:0:
109,192,105775,128,0,106120:0:0:0:0:
256,192,105775,1,0,0:0:0:0:
182,192,105947,1,0,0:0:0:0:
256,192,105947,128,0,106292:0:0:0:0:
402,192,105947,1,0,0:0:0:0:
329,192,106120,1,0,0:0:0:0:
36,192,106120,128,0,106551:0:0:0:0:
475,192,106120,128,0,106637:0:0:0:0:
402,192,106120,128,0,106292:0:0:0:0:
109,192,106465,128,0,106551:0:0:0:0:
256,192,106465,1,0,0:0:0:0:
402,192,106465,128,0,106637:0:0:0:0:
182,192,106637,1,0,0:0:0:0:
256,192,106637,128,0,106982:0:0:0:0:
109,192,106809,128,0,107499:0:0:0:0:
402,192,106809,128,0,107499:0:0:0:0:
329,192,106809,128,0,106982:0:0:0:0:
475,192,106982,1,0,0:0:0:0:
36,192,106982,1,0,0:0:0:0:
256,192,107154,1,0,0:0:0:0:
36,192,107154,128,0,107327:0:0:0:0:
475,192,107154,128,0,107327:0:0:0:0:
256,192,107327,1,0,0:0:0:0:
182,192,107499,1,0,0:0:0:0:
36,192,107499,1,0,0:0:0:0:
475,192,107499,1,0,0:0:0:0:
329,192,107499,1,0,0:0:0:0:
109,192,107844,128,0,107930:0:0:0:0:
256,192,107844,1,0,0:0:0:0:
402,192,107844,128,0,107930:0:0:0:0:
329,192,108189,1,0,0:0:0:0:
182,192,108189,1,0,0:0:0:0:
475,192,108189,128,0,108275:0:0:0:0:
36,192,108189,128,0,108275:0:0:0:0:
256,192,108534,1,0,0:0:0:0:
36,192,108706,128,0,108792:0:0:0:0:
475,192,108706,128,0,108792:0:0:0:0:
182,192,108878,1,0,0:0:0:0:
329,192,108878,1,0,0:0:0:0:
109,192,109223,1,0,0:0:0:0:
256,192,109281,1,0,0:0:0:0:
402,192,109396,1,0,0:0:0:0:
402,192,109568,1,0,0:0:0:0:
402,192,109798,1,0,0:0:0:0:
36,192,109913,1,0,0:0:0:0:
109,192,109913,128,0,110171:0:0:0:0:
256,192,110085,1,0,0:0:0:0:
402,192,110258,1,0,0:0:0:0:
475,192,110258,1,0,0:0:0:0:
109,192,110258,1,0,0:0:0:0:
182,192,110258,128,0,110516:0:0:0:0:
475,192,110602,1,0,0:0:0:0:
36,192,110602,1,0,0:0:0:0:
182,192,110602,1,0,0:0:0:0:
256,192,110602,128,0,110861:0:0:0:0:
36,192,110947,128,0,111206:0:0:0:0:
402,192,110947,128,0,111465:0:0:0:0:
109,192,110947,1,0,0:0:0:0:
182,192,110947,1,0,0:0:0:0:
475,192,110947,128,0,111809:0:0:0:0:
329,192,110947,128,0,111465:0:0:0:0:
36,192,111292,1,0,0:0:0:0:
109,192,111292,128,0,111809:0:0:0:0:
182,192,111465,1,0,0:0:0:0:
256,192,111465,128,0,111982:0:0:0:0:
329,192,111637,1,0,0:0:0:0:
402,192,111637,128,0,112068:0:0:0:0:
36,192,111637,128,0,112154:0:0:0:0:
475,192,111982,128,0,112068:0:0:0:0:
109,192,111982,128,0,112154:0:0:0:0:
182,192,111982,128,0,112327:0:0:0:0:
329,192,111982,1,0,0:0:0:0:
256,192,112154,1,0,0:0:0:0:
36,192,112327,128,0,113620:0:0:0:0:
109,192,112327,1,0,0:0:0:0:
475,192,112327,128,0,112844:0:0:0:0:
402,192,112327,128,0,112671:0:0:0:0:
329,192,112327,128,0,112499:0:0:0:0:
182,192,112499,1,0,0:0:0:0:
256,192,112499,128,0,112844:0:0:0:0:
182,192,112671,128,0,112844:0:0:0:0:
329,192,112671,1,0,0:0:0:0:
109,192,112844,128,0,113016:0:0:0:0:
475,192,113016,128,0,113620:0:0:0:0:
402,192,113016,128,0,113275:0:0:0:0:
256,192,113016,1,0,0:0:0:0:
329,192,113016,128,0,113447:0:0:0:0:
182,192,113361,1,0,0:0:0:0:
402,192,113361,1,0,0:0:0:0:
329,192,113534,1,0,0:0:0:0:
109,192,113534,1,0,0:0:0:0:
36,192,113706,1,0,0:0:0:0:
475,192,113706,1,0,0:0:0:0:
256,192,113706,1,0,0:0:0:0:
475,192,114051,1,0,0:0:0:0:
182,192,114051,1,0,0:0:0:0:
402,192,114223,1,0,0:0:0:0:
109,192,114223,1,0,0:0:0:0:
256,192,114396,1,0,0:0:0:0:
329,192,114396,1,0,0:0:0:0:
36,192,114396,1,0,0:0:0:0:
256,192,114740,1,0,0:0:0:0:
182,192,114740,1,0,0:0:0:0:
475,192,114740,1,0,0:0:0:0:
109,192,114913,1,0,0:0:0:0:
402,192,114913,1,0,0:0:0:0:
475,192,115085,1,0,0:0:0:0:
329,192,115085,1,0,0:0:0:0:
36,192,115085,1,0,0:0:0:0:
329,192,115430,1,0,0:0:0:0:
402,192,115430,128,0,115775:0:0:0:0:
109,192,115430,128,0,115775:0:0:0:0:
256,192,115602,1,0,0:0:0:0:
329,192,115602,128,0,115947:0:0:0:0:
36,192,115602,128,0,115947:0:0:0:0:
475,192,115775,1,0,0:0:0:0:
182,192,115775,1,0,0:0:0:0:
109,192,115947,1,0,0:0:0:0:
402,192,115947,1,0,0:0:0:0:
329,192,116120,1,0,0:0:0:0:
36,192,116120,1,0,0:0:0:0:
256,192,116292,1,0,0:0:0:0:
36,192,116465,128,0,116723:0:0:0:0:
109,192,116465,1,0,0:0:0:0:
182,192,116465,1,0,0:0:0:0:
402,192,116465,128,0,116809:0:0:0:0:
329,192,116465,128,0,116982:0:0:0:0:
475,192,116465,128,0,116637:0:0:0:0:
109,192,116809,128,0,117327:0:0:0:0:
36,192,116809,128,0,116896:0:0:0:0:
256,192,116809,1,0,0:0:0:0:
475,192,116809,1,0,0:0:0:0:
182,192,116982,1,0,0:0:0:0:
256,192,116982,128,0,117327:0:0:0:0:
402,192,116982,1,0,0:0:0:0:
329,192,117154,1,0,0:0:0:0:
36,192,117154,128,0,117499:0:0:0:0:
475,192,117154,128,0,117327:0:0:0:0:
402,192,117154,128,0,117499:0:0:0:0:
256,192,117499,128,0,117585:0:0:0:0:
475,192,117499,1,0,0:0:0:0:
182,192,117499,128,0,117844:0:0:0:0:
109,192,117499,1,0,0:0:0:0:
402,192,117671,1,0,0:0:0:0:
109,192,117671,128,0,117844:0:0:0:0:
36,192,117671,1,0,0:0:0:0:
36,192,117844,128,0,118361:0:0:0:0:
475,192,117844,128,0,118361:0:0:0:0:
329,192,117844,1,0,0:0:0:0:
256,192,118016,1,0,0:0:0:0:
182,192,118189,1,0,0:0:0:0:
329,192,118189,1,0,0:0:0:0:
256,192,118189,128,0,118534:0:0:0:0:
109,192,118361,1,0,0:0:0:0:
402,192,118361,1,0,0:0:0:0:
329,192,118534,128,0,119223:0:0:0:0:
182,192,118534,128,0,119223:0:0:0:0:
475,192,118534,1,0,0:0:0:0:
36,192,118534,1,0,0:0:0:0:
475,192,119223,1,0,0:0:0:0:
36,192,119223,1,0,0:0:0:0:
256,192,119223,128,0,121292:0:0:0:0:
475,192,119568,128,0,119740:0:0:0:0:
402,192,119568,1,0,0:0:0:0:
36,192,119740,128,0,119913:0:0:0:0:
109,192,119740,1,0,0:0:0:0:
475,192,119913,128,0,120085:0:0:0:0:
402,192,119913,1,0,0:0:0:0:
36,192,120258,128,0,120430:0:0:0:0:
109,192,120258,1,0,0:0:0:0:
475,192,120430,128,0,120602:0:0:0:0:
402,192,120430,1,0,0:0:0:0:
182,192,120602,1,0,0:0:0:0:
329,192,120602,1,0,0:0:0:0:
109,192,120602,1,0,0:0:0:0:
36,192,120602,128,0,120775:0:0:0:0:
182,192,120775,1,0,0:0:0:0:
329,192,120775,1,0,0:0:0:0:
475,192,120947,128,0,121292:0:0:0:0:
36,192,120947,128,0,121292:0:0:0:0:
329,192,120947,1,0,0:0:0:0:
182,192,120947,1,0,0:0:0:0:
182,192,121120,1,0,0:0:0:0:
329,192,121120,1,0,0:0:0:0:
182,192,121292,1,0,0:0:0:0:
329,192,121292,1,0,0:0:0:0:
402,192,121378,1,0,0:0:0:0:
475,192,121378,1,0,0:0:0:0:
36,192,121378,1,0,0:0:0:0:
256,192,121378,1,0,0:0:0:0:
329,192,121465,1,0,0:0:0:0:
109,192,121465,1,0,0:0:0:0:
182,192,121465,1,0,0:0:0:0:
256,192,121551,1,0,0:0:0:0:
402,192,121551,1,0,0:0:0:0:
109,192,121637,1,0,0:0:0:0:
36,192,121637,1,0,0:0:0:0:
329,192,121637,1,0,0:0:0:0:
475,192,121637,1,0,0:0:0:0:
182,192,121982,128,0,122499:0:0:0:0:
475,192,121982,1,0,0:0:0:0:
109,192,121982,1,0,0:0:0:0:
256,192,121982,1,0,0:0:0:0:
402,192,122068,1,0,0:0:0:0:
109,192,122154,128,0,122327:0:0:0:0:
329,192,122154,1,0,0:0:0:0:
36,192,122154,1,0,0:0:0:0:
256,192,122240,1,0,0:0:0:0:
36,192,122327,128,0,122671:0:0:0:0:
475,192,122327,128,0,122585:0:0:0:0:
402,192,122327,1,0,0:0:0:0:
109,192,122499,128,0,123102:0:0:0:0:
329,192,122499,128,0,122758:0:0:0:0:
182,192,122671,128,0,123275:0:0:0:0:
256,192,122671,1,0,0:0:0:0:
402,192,122671,128,0,122930:0:0:0:0:
475,192,122671,1,0,0:0:0:0:
329,192,122844,1,0,0:0:0:0:
36,192,122844,128,0,123016:0:0:0:0:
402,192,123016,1,0,0:0:0:0:
475,192,123016,128,0,123275:0:0:0:0:
256,192,123016,1,0,0:0:0:0:
36,192,123102,1,0,0:0:0:0:
329,192,123189,128,0,123447:0:0:0:0:
109,192,123189,1,0,0:0:0:0:
475,192,123361,128,0,123965:0:0:0:0:
402,192,123361,1,0,0:0:0:0:
256,192,123361,128,0,123620:0:0:0:0:
182,192,123361,1,0,0:0:0:0:
36,192,123361,1,0,0:0:0:0:
329,192,123534,1,0,0:0:0:0:
36,192,123534,128,0,123965:0:0:0:0:
109,192,123534,1,0,0:0:0:0:
256,192,123706,1,0,0:0:0:0:
182,192,123706,1,0,0:0:0:0:
402,192,123878,1,0,0:0:0:0:
182,192,123878,128,0,124051:0:0:0:0:
475,192,124051,1,0,0:0:0:0:
36,192,124051,1,0,0:0:0:0:
109,192,124051,1,0,0:0:0:0:
402,192,124094,1,0,0:0:0:0:
329,192,124137,1,0,0:0:0:0:
256,192,124180,1,0,0:0:0:0:
182,192,124223,1,0,0:0:0:0:
109,192,124266,1,0,0:0:0:0:
402,192,124396,1,0,0:0:0:0:
475,192,124396,1,0,0:0:0:0:
329,192,124396,1,0,0:0:0:0:
36,192,124396,1,0,0:0:0:0:
182,192,124568,1,0,0:0:0:0:
36,192,124740,128,0,125344:0:0:0:0:
109,192,124740,1,0,0:0:0:0:
256,192,124740,128,0,124913:0:0:0:0:
475,192,124740,128,0,125775:0:0:0:0:
329,192,124740,128,0,124999:0:0:0:0:
402,192,124740,128,0,125085:0:0:0:0:
109,192,124913,128,0,125430:0:0:0:0:
182,192,124913,1,0,0:0:0:0:
256,192,124999,1,0,0:0:0:0:
182,192,125085,128,0,125516:0:0:0:0:
329,192,125085,1,0,0:0:0:0:
256,192,125258,128,0,125602:0:0:0:0:
329,192,125258,128,0,125689:0:0:0:0:
402,192,125258,1,0,0:0:0:0:
402,192,125430,128,0,125775:0:0:0:0:
36,192,125430,1,0,0:0:0:0:
109,192,125516,1,0,0:0:0:0:
182,192,125602,1,0,0:0:0:0:
256,192,125689,1,0,0:0:0:0:
329,192,125775,1,0,0:0:0:0:
36,192,125775,128,0,126292:0:0:0:0:
109,192,125775,128,0,126120:0:0:0:0:
182,192,125947,128,0,126120:0:0:0:0:
256,192,125947,128,0,126292:0:0:0:0:
402,192,125947,1,0,0:0:0:0:
329,192,126120,128,0,126292:0:0:0:0:
402,192,126120,128,0,126465:0:0:0:0:
475,192,126120,1,0,0:0:0:0:
475,192,126292,128,0,126465:0:0:0:0:
182,192,126292,128,0,126637:0:0:0:0:
109,192,126292,1,0,0:0:0:0:
36,192,126465,128,0,126637:0:0:0:0:
109,192,126465,128,0,126637:0:0:0:0:
256,192,126465,128,0,126809:0:0:0:0:
329,192,126465,1,0,0:0:0:0:
329,192,126637,128,0,126809:0:0:0:0:
402,192,126637,128,0,126809:0:0:0:0:
475,192,126637,128,0,126809:0:0:0:0:
36,192,126809,1,0,0:0:0:0:
109,192,126809,1,0,0:0:0:0:
182,192,126809,1,0,0:0:0:0:
182,192,126982,1,0,0:0:0:0:
256,192,126982,1,0,0:0:0:0:
329,192,126982,1,0,0:0:0:0:
475,192,126982,1,0,0:0:0:0:
36,192,127154,1,0,0:0:0:0:
109,192,127154,1,0,0:0:0:0:
182,192,127154,1,0,0:0:0:0:
402,192,127154,1,0,0:0:0:0:
329,192,127154,1,0,0:0:0:0:
109,192,127327,1,0,0:0:0:0:
182,192,127327,1,0,0:0:0:0:
256,192,127327,1,0,0:0:0:0:
329,192,127327,1,0,0:0:0:0:
402,192,127327,1,0,0:0:0:0:
475,192,127327,1,0,0:0:0:0:
475,192,127499,128,0,128016:0:0:0:0:
402,192,127499,1,0,0:0:0:0:
256,192,127499,128,0,127671:0:0:0:0:
182,192,127499,128,0,127844:0:0:0:0:
36,192,127499,1,0,0:0:0:0:
402,192,127671,128,0,128016:0:0:0:0:
329,192,127671,1,0,0:0:0:0:
109,192,127671,128,0,128016:0:0:0:0:
256,192,127844,1,0,0:0:0:0:
329,192,127844,128,0,128189:0:0:0:0:
36,192,127844,128,0,128189:0:0:0:0:
182,192,128016,1,0,0:0:0:0:
256,192,128016,128,0,128189:0:0:0:0:
109,192,128189,1,0,0:0:0:0:
182,192,128189,128,0,128534:0:0:0:0:
402,192,128189,1,0,0:0:0:0:
475,192,128189,128,0,128965:0:0:0:0:
36,192,128361,128,0,128534:0:0:0:0:
256,192,128361,1,0,0:0:0:0:
256,192,128534,128,0,128965:0:0:0:0:
109,192,128534,1,0,0:0:0:0:
329,192,128534,1,0,0:0:0:0:
109,192,128706,128,0,128965:0:0:0:0:
182,192,128706,1,0,0:0:0:0:
402,192,128706,1,0,0:0:0:0:
182,192,128878,128,0,128965:0:0:0:0:
329,192,128878,128,0,128965:0:0:0:0:
402,192,128878,128,0,128965:0:0:0:0:
36,192,128878,128,0,128965:0:0:0:0:
36,192,129223,128,0,129568:0:0:0:0:
475,192,129223,128,0,129568:0:0:0:0:
109,192,129223,128,0,129309:0:0:0:0:
402,192,129223,128,0,129309:0:0:0:0:
256,192,129223,1,0,0:0:0:0:
182,192,129396,128,0,129482:0:0:0:0:
329,192,129396,128,0,129482:0:0:0:0:
402,192,129396,128,0,129740:0:0:0:0:
109,192,129396,128,0,129740:0:0:0:0:
182,192,129568,128,0,129913:0:0:0:0:
329,192,129568,128,0,129913:0:0:0:0:
256,192,129568,1,0,0:0:0:0:
256,192,129740,128,0,130085:0:0:0:0:
475,192,129740,1,0,0:0:0:0:
36,192,129740,1,0,0:0:0:0:
36,192,129913,128,0,130344:0:0:0:0:
475,192,129913,128,0,130344:0:0:0:0:
109,192,129913,1,0,0:0:0:0:
402,192,129913,1,0,0:0:0:0:
182,192,130085,128,0,130171:0:0:0:0:
329,192,130085,128,0,130171:0:0:0:0:
109,192,130085,128,0,130258:0:0:0:0:
402,192,130085,128,0,130258:0:0:0:0:
182,192,130258,1,0,0:0:0:0:
329,192,130258,1,0,0:0:0:0:
256,192,130258,1,0,0:0:0:0:
109,192,130344,1,0,0:0:0:0:
402,192,130344,1,0,0:0:0:0:
475,192,130430,1,0,0:0:0:0:
36,192,130430,1,0,0:0:0:0:
182,192,130602,1,0,0:0:0:0:
329,192,130775,1,0,0:0:0:0:
109,192,130947,1,0,0:0:0:0:
36,192,130947,1,0,0:0:0:0:
402,192,130947,1,0,0:0:0:0:
475,192,130947,1,0,0:0:0:0:
329,192,131034,1,0,0:0:0:0:
182,192,131034,1,0,0:0:0:0:
256,192,131120,1,0,0:0:0:0:
402,192,131120,1,0,0:0:0:0:
475,192,131120,1,0,0:0:0:0:
109,192,131120,1,0,0:0:0:0:
182,192,131206,1,0,0:0:0:0:
475,192,131292,1,0,0:0:0:0:
36,192,131292,1,0,0:0:0:0:
109,192,131292,1,0,0:0:0:0:
402,192,131292,1,0,0:0:0:0:
329,192,131378,1,0,0:0:0:0:
182,192,131378,1,0,0:0:0:0:
256,192,131465,1,0,0:0:0:0:
109,192,131465,1,0,0:0:0:0:
36,192,131465,1,0,0:0:0:0:
402,192,131465,1,0,0:0:0:0:
182,192,131551,1,0,0:0:0:0:
329,192,131551,1,0,0:0:0:0:
109,192,131637,128,0,131809:0:0:0:0:
475,192,131637,1,0,0:0:0:0:
402,192,131809,128,0,131982:0:0:0:0:
36,192,131809,1,0,0:0:0:0:
36,192,131982,128,0,132327:0:0:0:0:
109,192,131982,128,0,132370:0:0:0:0:
256,192,131982,1,0,0:0:0:0:
475,192,131982,1,0,0:0:0:0:
182,192,132068,128,0,132413:0:0:0:0:
329,192,132154,1,0,0:0:0:0:
329,192,132327,128,0,132930:0:0:0:0:
402,192,132327,1,0,0:0:0:0:
256,192,132327,128,0,132456:0:0:0:0:
475,192,132370,1,0,0:0:0:0:
36,192,132413,1,0,0:0:0:0:
109,192,132456,1,0,0:0:0:0:
402,192,132499,128,0,132930:0:0:0:0:
182,192,132499,1,0,0:0:0:0:
256,192,132542,1,0,0:0:0:0:
36,192,132585,1,0,0:0:0:0:
109,192,132628,1,0,0:0:0:0:
475,192,132671,128,0,133016:0:0:0:0:
256,192,132671,1,0,0:0:0:0:
182,192,132671,1,0,0:0:0:0:
36,192,132844,1,0,0:0:0:0:
256,192,133016,1,0,0:0:0:0:
329,192,133016,1,0,0:0:0:0:
402,192,133016,1,0,0:0:0:0:
182,192,133016,128,0,133361:0:0:0:0:
109,192,133016,1,0,0:0:0:0:
475,192,133102,1,0,0:0:0:0:
109,192,133189,128,0,133361:0:0:0:0:
402,192,133189,1,0,0:0:0:0:
36,192,133189,1,0,0:0:0:0:
329,192,133275,1,0,0:0:0:0:
36,192,133361,128,0,133620:0:0:0:0:
256,192,133361,1,0,0:0:0:0:
475,192,133361,1,0,0:0:0:0:
402,192,133361,1,0,0:0:0:0:
109,192,133534,128,0,133620:0:0:0:0:
182,192,133534,1,0,0:0:0:0:
329,192,133534,1,0,0:0:0:0:
182,192,133706,128,0,133878:0:0:0:0:
36,192,133706,1,0,0:0:0:0:
109,192,133706,1,0,0:0:0:0:
475,192,133706,128,0,134396:0:0:0:0:
402,192,133706,1,0,0:0:0:0:
36,192,133878,128,0,134051:0:0:0:0:
256,192,133878,1,0,0:0:0:0:
182,192,134051,1,0,0:0:0:0:
402,192,134051,1,0,0:0:0:0:
329,192,134137,1,0,0:0:0:0:
109,192,134137,1,0,0:0:0:0:
36,192,134223,128,0,134827:0:0:0:0:
256,192,134223,1,0,0:0:0:0:
182,192,134223,128,0,134482:0:0:0:0:
256,192,134396,128,0,134482:0:0:0:0:
402,192,134396,1,0,0:0:0:0:
109,192,134396,128,0,134654:0:0:0:0:
329,192,134568,128,0,134654:0:0:0:0:
475,192,134568,1,0,0:0:0:0:
182,192,134568,1,0,0:0:0:0:
402,192,134740,128,0,134827:0:0:0:0:
475,192,134740,128,0,135171:0:0:0:0:
109,192,134740,128,0,135085:0:0:0:0:
256,192,134740,1,0,0:0:0:0:
182,192,134913,128,0,135128:0:0:0:0:
329,192,134913,1,0,0:0:0:0:
36,192,134913,1,0,0:0:0:0:
36,192,135085,1,0,0:0:0:0:
329,192,135085,128,0,135171:0:0:0:0:
256,192,135085,1,0,0:0:0:0:
402,192,135085,128,0,135258:0:0:0:0:
109,192,135128,1,0,0:0:0:0:
182,192,135171,1,0,0:0:0:0:
256,192,135215,1,0,0:0:0:0:
109,192,135258,128,0,135344:0:0:0:0:
475,192,135258,128,0,135344:0:0:0:0:
329,192,135258,1,0,0:0:0:0:
402,192,135301,1,0,0:0:0:0:
36,192,135430,128,0,135689:0:0:0:0:
329,192,135430,128,0,135516:0:0:0:0:
182,192,135430,1,0,0:0:0:0:
475,192,135430,128,0,135689:0:0:0:0:
182,192,135602,128,0,135689:0:0:0:0:
329,192,135602,1,0,0:0:0:0:
329,192,135775,128,0,135861:0:0:0:0:
36,192,135775,1,0,0:0:0:0:
182,192,135775,128,0,135861:0:0:0:0:
475,192,135775,128,0,136292:0:0:0:0:
402,192,135947,128,0,136120:0:0:0:0:
329,192,135947,1,0,0:0:0:0:
182,192,135947,128,0,136034:0:0:0:0:
36,192,135947,128,0,136034:0:0:0:0:
256,192,136034,1,0,0:0:0:0:
329,192,136120,128,0,136378:0:0:0:0:
182,192,136120,1,0,0:0:0:0:
36,192,136120,1,0,0:0:0:0:
402,192,136292,128,0,136378:0:0:0:0:
256,192,136292,128,0,136551:0:0:0:0:
109,192,136292,1,0,0:0:0:0:
475,192,136465,128,0,137154:0:0:0:0:
182,192,136465,128,0,136723:0:0:0:0:
36,192,136465,1,0,0:0:0:0:
329,192,136465,1,0,0:0:0:0:
402,192,136465,1,0,0:0:0:0:
109,192,136551,1,0,0:0:0:0:
256,192,136637,1,0,0:0:0:0:
36,192,136723,1,0,0:0:0:0:
182,192,136809,1,0,0:0:0:0:
402,192,136809,128,0,137068:0:0:0:0:
329,192,136809,1,0,0:0:0:0:
329,192,136982,128,0,137068:0:0:0:0:
256,192,136982,128,0,137240:0:0:0:0:
109,192,136982,1,0,0:0:0:0:
182,192,137154,128,0,137240:0:0:0:0:
402,192,137154,1,0,0:0:0:0:
329,192,137154,1,0,0:0:0:0:
109,192,137154,128,0,137585:0:0:0:0:
182,192,137327,128,0,137499:0:0:0:0:
402,192,137327,128,0,137499:0:0:0:0:
256,192,137327,128,0,137413:0:0:0:0:
329,192,137327,128,0,137413:0:0:0:0:
256,192,137499,1,0,0:0:0:0:
329,192,137499,1,0,0:0:0:0:
36,192,137499,128,0,137585:0:0:0:0:
475,192,137499,128,0,137758:0:0:0:0:
36,192,137671,128,0,137844:0:0:0:0:
256,192,137671,128,0,137844:0:0:0:0:
109,192,137671,128,0,137758:0:0:0:0:
182,192,137671,128,0,137758:0:0:0:0:
402,192,137671,128,0,137844:0:0:0:0:
109,192,137844,1,0,0:0:0:0:
182,192,137844,1,0,0:0:0:0:
329,192,137844,128,0,138534:0:0:0:0:
475,192,137844,1,0,0:0:0:0:
36,192,138016,1,0,0:0:0:0:
475,192,138016,128,0,138102:0:0:0:0:
109,192,138059,1,0,0:0:0:0:
182,192,138102,1,0,0:0:0:0:
256,192,138146,1,0,0:0:0:0:
475,192,138189,128,0,138534:0:0:0:0:
402,192,138189,1,0,0:0:0:0:
36,192,138189,128,0,138275:0:0:0:0:
182,192,138361,128,0,138447:0:0:0:0:
109,192,138534,1,0,0:0:0:0:
36,192,138534,1,0,0:0:0:0:
182,192,138534,1,0,0:0:0:0:
402,192,138534,1,0,0:0:0:0:
256,192,138534,128,0,139223:0:0:0:0:
36,192,138706,1,0,0:0:0:0:
109,192,138706,128,0,139051:0:0:0:0:
402,192,138706,1,0,0:0:0:0:
36,192,138878,128,0,139223:0:0:0:0:
182,192,138878,1,0,0:0:0:0:
402,192,138878,128,0,139051:0:0:0:0:
475,192,138878,1,0,0:0:0:0:
182,192,139051,128,0,139223:0:0:0:0:
329,192,139051,1,0,0:0:0:0:
475,192,139051,128,0,139223:0:0:0:0:
329,192,139223,128,0,139482:0:0:0:0:
109,192,139223,128,0,139999:0:0:0:0:
402,192,139223,1,0,0:0:0:0:
402,192,139396,128,0,139482:0:0:0:0:
475,192,139396,1,0,0:0:0:0:
329,192,139568,128,0,139654:0:0:0:0:
402,192,139568,1,0,0:0:0:0:
256,192,139740,128,0,139827:0:0:0:0:
329,192,139740,1,0,0:0:0:0:
182,192,139913,128,0,139999:0:0:0:0:
256,192,139913,1,0,0:0:0:0:
109,192,140085,128,0,140171:0:0:0:0:
182,192,140085,1,0,0:0:0:0:
36,192,140258,128,0,140344:0:0:0:0:
109,192,140258,1,0,0:0:0:0:
402,192,140258,1,0,0:0:0:0:
329,192,140301,1,0,0:0:0:0:
256,192,140344,1,0,0:0:0:0:
182,192,140387,1,0,0:0:0:0:
475,192,140430,128,0,140516:0:0:0:0:
402,192,140430,1,0,0:0:0:0:
109,192,140430,1,0,0:0:0:0:
256,192,140516,1,0,0:0:0:0:
109,192,140602,1,0,0:0:0:0:
402,192,140602,1,0,0:0:0:0:
475,192,140602,1,0,0:0:0:0:
36,192,140602,128,0,141292:0:0:0:0:
182,192,140775,1,0,0:0:0:0:
329,192,140775,1,0,0:0:0:0:
109,192,140775,128,0,140947:0:0:0:0:
402,192,140775,1,0,0:0:0:0:
475,192,140775,128,0,141120:0:0:0:0:
182,192,140947,128,0,141120:0:0:0:0:
256,192,140947,1,0,0:0:0:0:
402,192,140947,128,0,141120:0:0:0:0:
329,192,141120,1,0,0:0:0:0:
109,192,141120,128,0,141292:0:0:0:0:
256,192,141120,128,0,141292:0:0:0:0:
182,192,141292,1,0,0:0:0:0:
402,192,141292,1,0,0:0:0:0:
475,192,141292,128,0,141809:0:0:0:0:
329,192,141335,1,0,0:0:0:0:
256,192,141378,1,0,0:0:0:0:
182,192,141421,1,0,0:0:0:0:
109,192,141465,1,0,0:0:0:0:
329,192,141465,1,0,0:0:0:0:
402,192,141465,128,0,141637:0:0:0:0:
256,192,141508,1,0,0:0:0:0:
182,192,141551,1,0,0:0:0:0:
109,192,141594,1,0,0:0:0:0:
36,192,141637,1,0,0:0:0:0:
329,192,141637,128,0,141982:0:0:0:0:
402,192,141809,128,0,141982:0:0:0:0:
182,192,141809,1,0,0:0:0:0:
475,192,141982,128,0,142671:0:0:0:0:
109,192,141982,1,0,0:0:0:0:
256,192,141982,1,0,0:0:0:0:
36,192,141982,128,0,142240:0:0:0:0:
182,192,142154,1,0,0:0:0:0:
109,192,142154,128,0,142240:0:0:0:0:
402,192,142327,128,0,142585:0:0:0:0:
329,192,142327,1,0,0:0:0:0:
36,192,142327,1,0,0:0:0:0:
109,192,142370,1,0,0:0:0:0:
182,192,142413,1,0,0:0:0:0:
256,192,142456,1,0,0:0:0:0:
329,192,142499,128,0,142585:0:0:0:0:
36,192,142499,1,0,0:0:0:0:
109,192,142585,1,0,0:0:0:0:
329,192,142671,1,0,0:0:0:0:
402,192,142671,1,0,0:0:0:0:
182,192,142671,128,0,142801:0:0:0:0:
36,192,142671,128,0,142973:0:0:0:0:
329,192,142844,128,0,142973:0:0:0:0:
256,192,142844,1,0,0:0:0:0:
475,192,142844,1,0,0:0:0:0:
182,192,142844,128,0,143146:0:0:0:0:
329,192,143016,128,0,143318:0:0:0:0:
475,192,143016,128,0,143146:0:0:0:0:
109,192,143016,1,0,0:0:0:0:
36,192,143016,128,0,143146:0:0:0:0:
36,192,143189,128,0,143318:0:0:0:0:
475,192,143189,128,0,143318:0:0:0:0:
182,192,143189,128,0,143318:0:0:0:0:
402,192,143189,1,0,0:0:0:0:
109,192,143361,128,0,143490:0:0:0:0:
256,192,143361,128,0,143490:0:0:0:0:
402,192,143361,128,0,143490:0:0:0:0:
36,192,143361,1,0,0:0:0:0:
182,192,143361,1,0,0:0:0:0:
329,192,143361,1,0,0:0:0:0:
475,192,143361,128,0,143663:0:0:0:0:
329,192,143534,128,0,143663:0:0:0:0:
36,192,143534,128,0,143835:0:0:0:0:
182,192,143534,128,0,143663:0:0:0:0:
109,192,143534,1,0,0:0:0:0:
256,192,143534,1,0,0:0:0:0:
402,192,143534,1,0,0:0:0:0:
182,192,143706,1,0,0:0:0:0:
329,192,143706,1,0,0:0:0:0:
475,192,143706,1,0,0:0:0:0:
402,192,143706,128,0,144008:0:0:0:0:
109,192,143706,128,0,143835:0:0:0:0:
256,192,143706,128,0,143835:0:0:0:0:
36,192,143878,1,0,0:0:0:0:
109,192,143878,1,0,0:0:0:0:
182,192,143878,128,0,144008:0:0:0:0:
256,192,143878,1,0,0:0:0:0:
329,192,143878,128,0,144008:0:0:0:0:
475,192,143878,128,0,144008:0:0:0:0:
329,192,144051,1,0,0:0:0:0:
402,192,144051,1,0,0:0:0:0:
475,192,144051,1,0,0:0:0:0:
182,192,144051,1,0,0:0:0:0:
36,192,144051,1,0,0:0:0:0:
109,192,144051,1,0,0:0:0:0:
256,192,144051,1,0,0:0:0:0:
109,192,144396,128,0,144482:0:0:0:0:
182,192,144396,128,0,144482:0:0:0:0:
329,192,144396,128,0,144482:0:0:0:0:
36,192,144396,128,0,144654:0:0:0:0:
402,192,144396,128,0,144482:0:0:0:0:
182,192,144568,128,0,144654:0:0:0:0:
329,192,144568,128,0,144654:0:0:0:0:
475,192,144568,128,0,144654:0:0:0:0:
402,192,144568,128,0,144654:0:0:0:0:
256,192,144568,128,0,144827:0:0:0:0:
109,192,144740,128,0,144827:0:0:0:0:
182,192,144740,128,0,144827:0:0:0:0:
475,192,144740,128,0,144827:0:0:0:0:
402,192,144740,128,0,144999:0:0:0:0:
36,192,144740,128,0,144827:0:0:0:0:
36,192,144913,128,0,144999:0:0:0:0:
182,192,144913,128,0,144999:0:0:0:0:
475,192,144913,128,0,144999:0:0:0:0:
329,192,144913,128,0,144999:0:0:0:0:
109,192,144913,128,0,144999:0:0:0:0:
109,192,145085,128,0,145171:0:0:0:0:
256,192,145085,128,0,145171:0:0:0:0:
329,192,145085,128,0,145171:0:0:0:0:
402,192,145085,128,0,145171:0:0:0:0:
182,192,145258,128,0,145344:0:0:0:0:
329,192,145258,128,0,145344:0:0:0:0:
402,192,145258,128,0,145344:0:0:0:0:
475,192,145258,128,0,145344:0:0:0:0:
36,192,145430,128,0,145732:0:0:0:0:
109,192,145430,128,0,145732:0:0:0:0:
182,192,145430,128,0,145732:0:0:0:0:
329,192,145430,128,0,145732:0:0:0:0:
402,192,145430,128,0,145732:0:0:0:0:
475,192,145430,128,0,145732:0:0:0:0:
36,192,145775,1,0,0:0:0:0:
109,192,145775,1,0,0:0:0:0:
182,192,145775,1,0,0:0:0:0:
329,192,145775,1,0,0:0:0:0:
402,192,145775,1,0,0:0:0:0:
475,192,145775,1,0,0:0:0:0:
256,192,145947,1,0,0:0:0:0:
36,192,146120,1,0,0:0:0:0:
109,192,146120,1,0,0:0:0:0:
475,192,146120,1,0,0:0:0:0:
256,192,146120,1,0,0:0:0:0:
402,192,146163,1,0,0:0:0:0:
182,192,146163,1,0,0:0:0:0:
329,192,146206,1,0,0:0:0:0:
109,192,146206,1,0,0:0:0:0:
256,192,146249,1,0,0:0:0:0:
36,192,146249,1,0,0:0:0:0:
182,192,146292,1,0,0:0:0:0:
475,192,146292,1,0,0:0:0:0:
402,192,146292,1,0,0:0:0:0:
109,192,146465,1,0,0:0:0:0:
329,192,146465,1,0,0:0:0:0:
402,192,146465,1,0,0:0:0:0:
256,192,146637,1,0,0:0:0:0:
36,192,146809,1,0,0:0:0:0:
109,192,146809,1,0,0:0:0:0:
402,192,146809,1,0,0:0:0:0:
475,192,146809,1,0,0:0:0:0:
329,192,147154,128,0,147240:0:0:0:0:
475,192,147154,128,0,147240:0:0:0:0:
256,192,147154,128,0,147240:0:0:0:0:
182,192,147154,128,0,147240:0:0:0:0:
109,192,147154,128,0,147413:0:0:0:0:
36,192,147327,128,0,147413:0:0:0:0:
402,192,147327,128,0,147413:0:0:0:0:
256,192,147327,128,0,147585:0:0:0:0:
329,192,147327,128,0,147413:0:0:0:0:
182,192,147327,128,0,147413:0:0:0:0:
109,192,147499,128,0,147585:0:0:0:0:
475,192,147499,128,0,147585:0:0:0:0:
402,192,147499,128,0,147758:0:0:0:0:
36,192,147499,128,0,147585:0:0:0:0:
329,192,147499,128,0,147585:0:0:0:0:
256,192,147671,128,0,147758:0:0:0:0:
109,192,147671,128,0,147758:0:0:0:0:
475,192,147671,128,0,147758:0:0:0:0:
182,192,147671,128,0,147758:0:0:0:0:
36,192,147671,128,0,147758:0:0:0:0:
109,192,147844,128,0,147930:0:0:0:0:
182,192,147844,128,0,147930:0:0:0:0:
329,192,147844,128,0,147930:0:0:0:0:
402,192,147844,128,0,147930:0:0:0:0:
182,192,148016,128,0,148102:0:0:0:0:
256,192,148016,128,0,148102:0:0:0:0:
402,192,148016,128,0,148102:0:0:0:0:
475,192,148016,128,0,148102:0:0:0:0:
36,192,148189,128,0,148490:0:0:0:0:
109,192,148189,128,0,148490:0:0:0:0:
182,192,148189,128,0,148490:0:0:0:0:
329,192,148189,128,0,148490:0:0:0:0:
402,192,148189,128,0,148490:0:0:0:0:
475,192,148189,128,0,148490:0:0:0:0:
36,192,148534,1,0,0:0:0:0:
109,192,148534,1,0,0:0:0:0:
182,192,148534,1,0,0:0:0:0:
329,192,148534,1,0,0:0:0:0:
402,192,148534,1,0,0:0:0:0:
475,192,148534,1,0,0:0:0:0:
256,192,148706,1,0,0:0:0:0:
36,192,148878,1,0,0:0:0:0:
109,192,148878,1,0,0:0:0:0:
402,192,148878,1,0,0:0:0:0:
475,192,148878,1,0,0:0:0:0:
402,192,149051,1,0,0:0:0:0:
329,192,149094,1,0,0:0:0:0:
256,192,149137,1,0,0:0:0:0:
182,192,149180,1,0,0:0:0:0:
109,192,149223,128,0,149309:0:0:0:0:
402,192,149223,128,0,149309:0:0:0:0:
475,192,149223,128,0,149309:0:0:0:0:
36,192,149223,128,0,149309:0:0:0:0:
256,192,149396,1,0,0:0:0:0:
109,192,149568,1,0,0:0:0:0:
182,192,149568,1,0,0:0:0:0:
329,192,149568,1,0,0:0:0:0:
402,192,149568,1,0,0:0:0:0:
109,192,149740,128,0,149827:0:0:0:0:
402,192,149740,128,0,149827:0:0:0:0:
475,192,149740,128,0,149827:0:0:0:0:
182,192,149740,128,0,149827:0:0:0:0:
36,192,149740,128,0,149999:0:0:0:0:
329,192,149740,128,0,149999:0:0:0:0:
402,192,149913,128,0,149999:0:0:0:0:
475,192,149913,128,0,150171:0:0:0:0:
182,192,149913,128,0,150171:0:0:0:0:
109,192,149913,128,0,149999:0:0:0:0:
256,192,149913,128,0,149999:0:0:0:0:
109,192,150085,128,0,150344:0:0:0:0:
402,192,150085,128,0,150344:0:0:0:0:
36,192,150085,128,0,150171:0:0:0:0:
256,192,150085,128,0,150171:0:0:0:0:
329,192,150085,128,0,150171:0:0:0:0:
256,192,150258,128,0,150516:0:0:0:0:
36,192,150258,128,0,150516:0:0:0:0:
475,192,150258,128,0,150344:0:0:0:0:
329,192,150258,128,0,150344:0:0:0:0:
182,192,150258,128,0,150344:0:0:0:0:
109,192,150430,128,0,150516:0:0:0:0:
402,192,150430,128,0,150516:0:0:0:0:
475,192,150430,128,0,150516:0:0:0:0:
329,192,150430,128,0,150689:0:0:0:0:
182,192,150430,128,0,150689:0:0:0:0:
256,192,150602,128,0,150689:0:0:0:0:
402,192,150602,128,0,150689:0:0:0:0:
36,192,150602,128,0,150689:0:0:0:0:
109,192,150602,128,0,150861:0:0:0:0:
475,192,150602,128,0,150861:0:0:0:0:
329,192,150775,128,0,150861:0:0:0:0:
256,192,150775,128,0,150861:0:0:0:0:
182,192,150775,128,0,150861:0:0:0:0:
36,192,150775,128,0,150861:0:0:0:0:
402,192,150775,128,0,150861:0:0:0:0:
109,192,150947,128,0,151249:0:0:0:0:
182,192,150947,128,0,151249:0:0:0:0:
329,192,150947,128,0,151249:0:0:0:0:
475,192,150947,128,0,151249:0:0:0:0:
36,192,150947,128,0,151249:0:0:0:0:
402,192,150947,128,0,151249:0:0:0:0:
36,192,151292,1,0,0:0:0:0:
182,192,151292,1,0,0:0:0:0:
109,192,151292,1,0,0:0:0:0:
329,192,151292,1,0,0:0:0:0:
402,192,151292,1,0,0:0:0:0:
475,192,151292,1,0,0:0:0:0:
109,192,151637,1,0,0:0:0:0:
182,192,151637,1,0,0:0:0:0:
402,192,151637,1,0,0:0:0:0:
329,192,151637,1,0,0:0:0:0:
256,192,151809,1,0,0:0:0:0:
36,192,151982,1,0,0:0:0:0:
109,192,151982,1,0,0:0:0:0:
402,192,151982,1,0,0:0:0:0:
475,192,151982,1,0,0:0:0:0:
256,192,152154,1,0,0:0:0:0:
36,192,152327,1,0,0:0:0:0:
109,192,152327,1,0,0:0:0:0:
182,192,152327,1,0,0:0:0:0:
329,192,152327,1,0,0:0:0:0:
402,192,152327,1,0,0:0:0:0:
475,192,152327,1,0,0:0:0:0:
36,192,152499,128,0,152585:0:0:0:0:
182,192,152499,128,0,152585:0:0:0:0:
109,192,152499,128,0,152585:0:0:0:0:
402,192,152499,128,0,152585:0:0:0:0:
475,192,152499,128,0,152585:0:0:0:0:
329,192,152499,128,0,152758:0:0:0:0:
256,192,152499,128,0,152585:0:0:0:0:
109,192,152671,128,0,152758:0:0:0:0:
36,192,152671,128,0,152758:0:0:0:0:
256,192,152671,128,0,152758:0:0:0:0:
182,192,152671,128,0,152930:0:0:0:0:
402,192,152671,128,0,152758:0:0:0:0:
475,192,152671,128,0,152758:0:0:0:0:
256,192,152844,128,0,152930:0:0:0:0:
36,192,152844,128,0,152930:0:0:0:0:
109,192,152844,128,0,152930:0:0:0:0:
475,192,152844,128,0,152930:0:0:0:0:
329,192,152844,128,0,152930:0:0:0:0:
402,192,152844,128,0,153102:0:0:0:0:
329,192,153016,128,0,153102:0:0:0:0:
256,192,153016,128,0,153102:0:0:0:0:
182,192,153016,128,0,153102:0:0:0:0:
36,192,153016,1,0,0:0:0:0:
109,192,153016,128,0,153102:0:0:0:0:
475,192,153102,1,0,0:0:0:0:
36,192,153189,1,0,0:0:0:0:
109,192,153189,128,0,153447:0:0:0:0:
182,192,153189,128,0,153447:0:0:0:0:
256,192,153189,128,0,153447:0:0:0:0:
329,192,153189,128,0,153447:0:0:0:0:
402,192,153189,128,0,153447:0:0:0:0:
475,192,153275,1,0,0:0:0:0:
36,192,153361,1,0,0:0:0:0:
475,192,153447,1,0,0:0:0:0:
36,192,153534,1,0,0:0:0:0:
109,192,153534,128,0,153620:0:0:0:0:
182,192,153534,128,0,153620:0:0:0:0:
256,192,153534,128,0,153620:0:0:0:0:
329,192,153534,128,0,153620:0:0:0:0:
402,192,153534,128,0,153620:0:0:0:0:
36,192,153706,128,0,153792:0:0:0:0:
182,192,153706,128,0,153792:0:0:0:0:
109,192,153706,128,0,153792:0:0:0:0:
256,192,153706,128,0,153792:0:0:0:0:
329,192,153706,128,0,153792:0:0:0:0:
475,192,153706,128,0,153792:0:0:0:0:
402,192,153878,128,0,153965:0:0:0:0:
475,192,153878,128,0,153965:0:0:0:0:
256,192,153878,128,0,153965:0:0:0:0:
182,192,153878,128,0,153965:0:0:0:0:
109,192,153878,128,0,153965:0:0:0:0:
36,192,153878,128,0,153965:0:0:0:0:
182,192,154051,128,0,154137:0:0:0:0:
109,192,154051,128,0,154137:0:0:0:0:
36,192,154051,128,0,154137:0:0:0:0:
329,192,154051,128,0,154137:0:0:0:0:
402,192,154051,128,0,154137:0:0:0:0:
475,192,154051,128,0,154137:0:0:0:0:
256,192,154223,128,0,154309:0:0:0:0:
329,192,154223,128,0,154309:0:0:0:0:
402,192,154223,128,0,154309:0:0:0:0:
475,192,154223,128,0,154309:0:0:0:0:
36,192,154223,128,0,154309:0:0:0:0:
109,192,154223,128,0,154309:0:0:0:0:
36,192,154396,128,0,154697:0:0:0:0:
109,192,154396,128,0,154697:0:0:0:0:
182,192,154396,128,0,154697:0:0:0:0:
329,192,154396,128,0,154697:0:0:0:0:
402,192,154396,128,0,154697:0:0:0:0:
475,192,154396,128,0,154697:0:0:0:0:
36,192,154740,1,0,0:0:0:0:
109,192,154740,1,0,0:0:0:0:
182,192,154740,1,0,0:0:0:0:
329,192,154740,1,0,0:0:0:0:
402,192,154740,1,0,0:0:0:0:
475,192,154740,1,0,0:0:0:0:
182,192,155085,1,0,0:0:0:0:
36,192,155085,1,0,0:0:0:0:
329,192,155085,1,0,0:0:0:0:
475,192,155085,1,0,0:0:0:0:
256,192,155171,1,0,0:0:0:0:
109,192,155258,1,0,0:0:0:0:
402,192,155258,1,0,0:0:0:0:
256,192,155344,1,0,0:0:0:0:
36,192,155430,128,0,155516:0:0:0:0:
109,192,155430,128,0,155516:0:0:0:0:
402,192,155430,128,0,155516:0:0:0:0:
475,192,155430,128,0,155516:0:0:0:0:
182,192,155430,1,0,0:0:0:0:
329,192,155430,1,0,0:0:0:0:
109,192,155602,1,0,0:0:0:0:
402,192,155602,1,0,0:0:0:0:
36,192,155775,1,0,0:0:0:0:
475,192,155775,1,0,0:0:0:0:
256,192,155947,1,0,0:0:0:0:
36,192,156120,1,0,0:0:0:0:
475,192,156120,1,0,0:0:0:0:
402,192,156206,1,0,0:0:0:0:
109,192,156206,1,0,0:0:0:0:
182,192,156292,1,0,0:0:0:0:
329,192,156292,1,0,0:0:0:0:
109,192,156465,128,0,156766:0:0:0:0:
36,192,156465,128,0,156766:0:0:0:0:
402,192,156465,128,0,156766:0:0:0:0:
475,192,156465,128,0,156766:0:0:0:0:
256,192,156465,1,0,0:0:0:0:
182,192,156637,1,0,0:0:0:0:
329,192,156637,1,0,0:0:0:0:
109,192,156809,1,0,0:0:0:0:
36,192,156809,1,0,0:0:0:0:
402,192,156809,1,0,0:0:0:0:
475,192,156809,1,0,0:0:0:0:
256,192,156982,1,0,0:0:0:0:
36,192,157154,128,0,157456:0:0:0:0:
109,192,157154,128,0,157456:0:0:0:0:
402,192,157154,128,0,157456:0:0:0:0:
475,192,157154,128,0,157456:0:0:0:0:
329,192,157154,1,0,0:0:0:0:
256,192,157197,1,0,0:0:0:0:
182,192,157240,1,0,0:0:0:0:
329,192,157284,1,0,0:0:0:0:
256,192,157327,1,0,0:0:0:0:
182,192,157370,1,0,0:0:0:0:
36,192,157499,1,0,0:0:0:0:
109,192,157499,1,0,0:0:0:0:
402,192,157499,1,0,0:0:0:0:
475,192,157499,1,0,0:0:0:0:
256,192,157671,1,0,0:0:0:0:
182,192,157844,1,0,0:0:0:0:
475,192,157844,1,0,0:0:0:0:
402,192,157844,1,0,0:0:0:0:
109,192,157844,1,0,0:0:0:0:
36,192,158016,1,0,0:0:0:0:
329,192,158016,1,0,0:0:0:0:
109,192,158102,1,0,0:0:0:0:
402,192,158102,1,0,0:0:0:0:
182,192,158189,1,0,0:0:0:0:
475,192,158189,1,0,0:0:0:0:
109,192,158361,1,0,0:0:0:0:
402,192,158361,1,0,0:0:0:0:
36,192,158534,1,0,0:0:0:0:
329,192,158534,1,0,0:0:0:0:
475,192,158620,1,0,0:0:0:0:
256,192,158620,1,0,0:0:0:0:
402,192,158706,1,0,0:0:0:0:
182,192,158706,1,0,0:0:0:0:
329,192,158792,1,0,0:0:0:0:
109,192,158792,1,0,0:0:0:0:
36,192,158878,1,0,0:0:0:0:
256,192,158878,1,0,0:0:0:0:
182,192,159051,1,0,0:0:0:0:
402,192,159051,1,0,0:0:0:0:
36,192,159223,128,0,159525:0:0:0:0:
109,192,159223,128,0,159525:0:0:0:0:
402,192,159223,128,0,159525:0:0:0:0:
475,192,159223,128,0,159525:0:0:0:0:
256,192,159223,1,0,0:0:0:0:
182,192,159396,1,0,0:0:0:0:
329,192,159396,1,0,0:0:0:0:
36,192,159568,1,0,0:0:0:0:
109,192,159568,1,0,0:0:0:0:
402,192,159568,1,0,0:0:0:0:
475,192,159568,1,0,0:0:0:0:
256,192,159740,1,0,0:0:0:0:
109,192,159913,128,0,160215:0:0:0:0:
36,192,159913,128,0,160215:0:0:0:0:
402,192,159913,128,0,160215:0:0:0:0:
475,192,159913,128,0,160215:0:0:0:0:
182,192,159913,1,0,0:0:0:0:
329,192,159913,1,0,0:0:0:0:
329,192,160085,1,0,0:0:0:0:
256,192,160128,1,0,0:0:0:0:
182,192,160171,1,0,0:0:0:0:
329,192,160215,1,0,0:0:0:0:
109,192,160258,1,0,0:0:0:0:
36,192,160258,1,0,0:0:0:0:
402,192,160258,1,0,0:0:0:0:
475,192,160258,1,0,0:0:0:0:
256,192,160430,1,0,0:0:0:0:
36,192,160602,1,0,0:0:0:0:
109,192,160602,1,0,0:0:0:0:
402,192,160602,1,0,0:0:0:0:
475,192,160602,1,0,0:0:0:0:
182,192,160775,1,0,0:0:0:0:
329,192,160775,1,0,0:0:0:0:
256,192,160947,1,0,0:0:0:0:
182,192,161120,1,0,0:0:0:0:
329,192,161120,1,0,0:0:0:0:
109,192,161292,1,0,0:0:0:0:
402,192,161292,1,0,0:0:0:0:
475,192,161292,1,0,0:0:0:0:
36,192,161292,1,0,0:0:0:0:
329,192,161465,1,0,0:0:0:0:
182,192,161465,1,0,0:0:0:0:
109,192,161637,128,0,161723:0:0:0:0:
182,192,161637,128,0,161723:0:0:0:0:
329,192,161637,1,0,0:0:0:0:
402,192,161637,1,0,0:0:0:0:
329,192,161809,128,0,161896:0:0:0:0:
402,192,161809,128,0,161896:0:0:0:0:
109,192,161809,1,0,0:0:0:0:
182,192,161809,1,0,0:0:0:0:
36,192,161982,128,0,162284:0:0:0:0:
109,192,161982,128,0,162284:0:0:0:0:
402,192,161982,128,0,162284:0:0:0:0:
475,192,161982,128,0,162284:0:0:0:0:
256,192,161982,1,0,0:0:0:0:
182,192,162154,1,0,0:0:0:0:
329,192,162154,1,0,0:0:0:0:
36,192,162327,1,0,0:0:0:0:
109,192,162327,1,0,0:0:0:0:
402,192,162327,1,0,0:0:0:0:
475,192,162327,1,0,0:0:0:0:
329,192,162370,1,0,0:0:0:0:
256,192,162413,1,0,0:0:0:0:
182,192,162456,1,0,0:0:0:0:
109,192,162499,1,0,0:0:0:0:
402,192,162499,1,0,0:0:0:0:
329,192,162585,1,0,0:0:0:0:
36,192,162671,128,0,162973:0:0:0:0:
109,192,162671,128,0,162973:0:0:0:0:
402,192,162671,128,0,162973:0:0:0:0:
475,192,162671,128,0,162973:0:0:0:0:
256,192,162671,1,0,0:0:0:0:
182,192,162844,1,0,0:0:0:0:
329,192,162844,1,0,0:0:0:0:
36,192,163016,1,0,0:0:0:0:
109,192,163016,1,0,0:0:0:0:
402,192,163016,1,0,0:0:0:0:
475,192,163016,1,0,0:0:0:0:
329,192,163189,1,0,0:0:0:0:
182,192,163189,1,0,0:0:0:0:
402,192,163361,1,0,0:0:0:0:
475,192,163361,1,0,0:0:0:0:
109,192,163361,1,0,0:0:0:0:
329,192,163404,1,0,0:0:0:0:
36,192,163404,1,0,0:0:0:0:
256,192,163447,1,0,0:0:0:0:
182,192,163490,1,0,0:0:0:0:
475,192,163490,1,0,0:0:0:0:
109,192,163534,1,0,0:0:0:0:
402,192,163534,1,0,0:0:0:0:
36,192,163577,1,0,0:0:0:0:
329,192,163577,1,0,0:0:0:0:
256,192,163620,1,0,0:0:0:0:
182,192,163663,1,0,0:0:0:0:
109,192,163706,1,0,0:0:0:0:
36,192,163706,1,0,0:0:0:0:
402,192,163706,1,0,0:0:0:0:
475,192,163706,1,0,0:0:0:0:
182,192,163878,1,0,0:0:0:0:
329,192,163878,1,0,0:0:0:0:
109,192,164051,128,0,164137:0:0:0:0:
36,192,164051,128,0,164137:0:0:0:0:
182,192,164051,1,0,0:0:0:0:
402,192,164051,128,0,164137:0:0:0:0:
329,192,164137,1,0,0:0:0:0:
402,192,164223,128,0,164309:0:0:0:0:
475,192,164223,128,0,164309:0:0:0:0:
109,192,164223,128,0,164309:0:0:0:0:
182,192,164223,1,0,0:0:0:0:
329,192,164309,1,0,0:0:0:0:
182,192,164396,1,0,0:0:0:0:
256,192,164439,1,0,0:0:0:0:
329,192,164482,1,0,0:0:0:0:
402,192,164525,1,0,0:0:0:0:
182,192,164568,1,0,0:0:0:0:
329,192,164654,1,0,0:0:0:0:
182,192,164740,128,0,164827:0:0:0:0:
109,192,164740,128,0,164827:0:0:0:0:
36,192,164740,128,0,164827:0:0:0:0:
402,192,164740,128,0,164827:0:0:0:0:
475,192,164740,128,0,164827:0:0:0:0:
256,192,164740,128,0,164827:0:0:0:0:
36,192,164913,128,0,164999:0:0:0:0:
109,192,164913,128,0,164999:0:0:0:0:
256,192,164913,128,0,164999:0:0:0:0:
329,192,164913,128,0,164999:0:0:0:0:
402,192,164913,128,0,164999:0:0:0:0:
475,192,164913,128,0,164999:0:0:0:0:
109,192,165085,128,0,165171:0:0:0:0:
36,192,165085,128,0,165171:0:0:0:0:
182,192,165085,128,0,165171:0:0:0:0:
329,192,165085,128,0,165171:0:0:0:0:
402,192,165085,128,0,165171:0:0:0:0:
475,192,165085,128,0,165171:0:0:0:0:
329,192,165258,128,0,165344:0:0:0:0:
402,192,165258,128,0,165344:0:0:0:0:
475,192,165258,128,0,165344:0:0:0:0:
36,192,165258,128,0,165344:0:0:0:0:
182,192,165258,128,0,165344:0:0:0:0:
256,192,165258,128,0,165344:0:0:0:0:
36,192,165430,128,0,165732:0:0:0:0:
182,192,165430,128,0,165732:0:0:0:0:
109,192,165430,128,0,165732:0:0:0:0:
256,192,165430,128,0,165732:0:0:0:0:
329,192,165430,128,0,165732:0:0:0:0:
402,192,165430,128,0,165732:0:0:0:0:
475,192,165430,128,0,165732:0:0:0:0:
36,192,165775,1,0,0:0:0:0:
109,192,165775,1,0,0:0:0:0:
182,192,165775,1,0,0:0:0:0:
256,192,165775,1,0,0:0:0:0:
329,192,165775,1,0,0:0:0:0:
402,192,165775,1,0,0:0:0:0:
475,192,165775,1,0,0:0:0:0:
