osu file format v14

[General]
AudioFilename: Blackjack.mp3
AudioLeadIn: 0
PreviewTime: 59860
Countdown: 0
SampleSet: Normal
StackLeniency: 0.3
Mode: 0
LetterboxInBreaks: 0
WidescreenStoryboard: 1

[Editor]
Bookmarks: 22623,22799,27316,41044,59202,60518,66352,68325,74685,92623,99992,115781,123150,146308,152623,154729,155781
DistanceSpacing: 1.2
BeatDivisor: 3
GridSize: 4
TimelineZoom: 1.9

[Metadata]
Title:Blackjack
TitleUnicode:Blackjack
Artist:Yucha-P
ArtistUnicode:ゆちゃP
Creator:happy623
Version:Extra
Source:
Tags:vocaloid casino twenty one megurine luka yucha ych
BeatmapID:694591
BeatmapSetID:131651

[Difficulty]
HPDrainRate:6
CircleSize:4
OverallDifficulty:8
ApproachRate:9
SliderMultiplier:2
SliderTickRate:1

[Events]
//Background and Video events
0,0,"bg.jpg",0,0
Video,-230,"vid.flv"
//Break Periods
//Storyboard Layer 0 (Background)
//Storyboard Layer 1 (Fail)
//Storyboard Layer 2 (Pass)
//Storyboard Layer 3 (Foreground)
//Storyboard Sound Samples

[TimingPoints]
1045,263.157894736842,4,1,1,40,1,0
1088,-100,4,1,1,20,0,0
2360,-100,4,1,1,40,0,0
3194,-100,4,1,1,20,0,0
4466,-100,4,1,1,40,0,0
5299,-100,4,1,1,20,0,0
6571,-100,4,1,1,40,0,0
12623,-200,4,2,1,40,0,0
12667,-200,4,2,1,20,0,0
12887,-200,4,2,1,40,0,0
12930,-200,4,2,1,20,0,0
13150,-200,4,2,1,40,0,0
13194,-200,4,2,1,20,0,0
13413,-200,4,2,1,40,0,0
13457,-200,4,2,1,20,0,0
13676,-100,4,1,1,40,0,0
21044,-200,4,2,1,40,0,0
21088,-200,4,2,1,20,0,0
21308,-200,4,2,1,40,0,0
21352,-200,4,2,1,20,0,0
21571,-200,4,2,1,40,0,0
21615,-200,4,2,1,20,0,0
21834,-200,4,2,1,40,0,0
21878,-200,4,2,1,20,0,0
22097,-100,4,1,1,40,0,0
35781,-133.333333333333,4,1,1,40,0,0
36834,-100,4,1,1,40,0,0
42097,-133.333333333333,4,2,1,15,0,0
42185,-133.333333333333,4,2,1,30,0,0
42273,-133.333333333333,4,2,1,15,0,0
42360,-133.333333333333,4,2,1,30,0,0
42448,-133.333333333333,4,2,1,15,0,0
42623,-133.333333333333,4,2,1,30,0,0
42711,-133.333333333333,4,2,1,15,0,0
42887,-133.333333333333,4,2,1,30,0,0
42974,-133.333333333333,4,2,1,15,0,0
43062,-133.333333333333,4,2,1,30,0,0
43150,-133.333333333333,4,1,1,40,0,0
44071,-200,4,1,1,40,0,0
45255,-133.333333333333,4,1,1,40,0,0
46176,-200,4,1,1,40,0,0
47360,-133.333333333333,4,1,1,40,0,0
48281,-200,4,1,1,40,0,0
51571,-133.333333333333,4,1,1,40,0,0
52492,-200,4,1,1,40,0,0
53676,-133.333333333333,4,1,1,40,0,0
54597,-200,4,1,1,40,0,0
55781,-133.333333333333,4,1,1,40,0,0
57887,-100,4,1,1,40,0,0
59992,-100,4,1,1,40,0,1
67360,-200,4,1,1,40,0,0
68413,-100,4,1,1,40,0,1
74729,-100,4,1,1,40,0,0
74816,-100,4,1,1,20,0,0
76044,-100,4,1,1,40,0,0
76922,-100,4,1,1,20,0,0
78150,-100,4,1,1,40,0,0
79027,-100,4,1,1,20,0,0
80255,-100,4,1,1,40,0,0
89466,-100,4,1,1,60,0,0
91571,-100,4,1,1,40,0,0
99992,-133.333333333333,4,1,1,40,0,0
116834,-200,4,2,2,40,0,0
123150,-133.333333333333,4,1,1,40,0,0
125255,-100,4,1,1,40,0,1
131571,-100,4,1,1,40,0,0

[Colours]
Combo1 : 238,189,235
Combo2 : 95,143,197
Combo3 : 162,118,167

[HitObjects]
24,56,1045,6,0,P|116:72|220:24,1,200,4|8,2:0|0:0,0:0:0:0:
440,256,1571,2,0,B|352:356|352:356|352:280,1,200,0|8,0:0|0:0,0:0:0:0:
352,289,2097,2,0,L|352:176,1,100
244,68,2360,6,0,P|264:184|248:288,1,200,4|0,2:0|0:0,0:0:0:0:
60,303,2755,2,0,P|153:269|253:263,1,200,4|0,2:0|0:0,0:0:0:0:
447,224,3150,6,0,P|353:258|254:264,1,200,4|8,2:0|0:0,0:0:0:0:
96,60,3676,2,0,B|124:20|124:20|112:184,1,200,0|8,0:0|0:0,0:0:0:0:
112,170,4202,2,0,P|160:144|212:140,1,100
442,322,4466,6,0,L|244:296,1,200,4|8,2:0|0:0,0:0:0:0:
57,256,4860,2,0,P|155:251|244:296,1,200,4|0,2:0|0:0,0:0:0:0:
243,295,5255,6,0,B|164:176|164:176|160:248,1,200,4|8,2:0|0:0,0:0:0:0:
160,44,5781,2,0,B|260:184|260:184|260:136,1,200,0|8,0:0|0:0,0:0:0:0:
260,156,6308,2,0,P|300:136|364:144,1,100
420,284,6571,6,0,B|316:208|316:208|324:280,1,200,4|8,2:0|0:0,0:0:0:0:
131,280,6966,2,0,P|227:255|323:278,1,200,4|0,2:0|0:0,0:0:0:0:
376,128,7360,6,0,P|416:80|496:80,1,133.333333333333,4|0,1:2|0:0,0:0:0:0:
456,152,7623,1,8,0:0:0:0:
376,128,7887,2,0,P|364:66|416:5,1,133.333333333333,4|0,2:0|0:0,0:0:0:0:
456,152,8150,1,8,0:0:0:0:
376,128,8413,2,0,P|321:96|307:18,1,133.333333333333,4|0,2:0|0:0,0:0:0:0:
456,152,8676,1,8,0:0:0:0:
456,152,8939,5,8,0:0:0:0:
448,232,9027,1,0,0:0:0:0:
396,292,9115,1,0,0:0:0:0:
320,320,9202,1,8,0:0:0:0:
240,332,9290,1,0,0:0:0:0:
160,320,9378,1,0,0:0:0:0:
92,276,9466,6,0,P|64:212|68:144,1,133.333333333333,4|0,1:2|0:0,0:0:0:0:
104,80,9729,1,8,0:0:0:0:
92,276,9992,2,0,P|128:216|188:200,1,133.333333333333
260,236,10255,1,8,0:0:0:0:
452,72,10430,1,0,0:0:0:0:
452,72,10518,6,0,L|300:84,1,133.333333333333
264,140,10781,2,0,L|128:152,1,133.333333333333,8|0,0:0|0:0,0:0:0:0:
7,243,11044,2,0,L|140:232,1,133.333333333333,8|0,0:0|0:0,0:0:0:0:
168,308,11308,2,0,L|324:296,1,133.333333333333,8|0,0:0|0:0,0:0:0:0:
368,340,11571,6,0,P|384:272|344:224,1,133.333333333333
404,280,11834,1,8,0:0:0:0:
440,212,12009,1,0,0:0:0:0:
404,280,12273,5,0,0:0:0:0:
440,212,12360,2,0,L|452:72,1,133.333333333333,8|0,0:0|0:0,0:0:0:0:
376,56,12623,6,0,L|360:32,5,16.6666666666667,2|0|0|0|0|0,0:0|0:0|0:0|0:0|0:0|0:0,0:0:0:0:
300,120,12887,2,0,L|300:92,5,16.6666666666667,2|0|0|0|0|0,0:0|0:0|0:0|0:0|0:0|0:0,0:0:0:0:
200,96,13150,2,0,L|212:68,5,16.6666666666667,2|0|0|0|0|0,0:0|0:0|0:0|0:0|0:0|0:0,0:0:0:0:
120,128,13413,2,0,L|116:100,5,16.6666666666667,2|0|0|0|0|0,0:0|0:0|0:0|0:0|0:0|0:0,0:0:0:0:
72,200,13676,6,0,L|64:344,1,133.333333333333,4|0,2:0|0:0,0:0:0:0:
144,316,13939,2,0,L|276:288,1,133.333333333333,8|0,0:0|0:0,0:0:0:0:
344,328,14202,2,0,P|416:316|480:336,1,133.333333333333
408,280,14466,1,8,0:0:0:0:
312,152,14641,1,0,0:0:0:0:
316,156,14729,6,0,L|348:20,1,133.333333333333
253,205,14992,2,0,L|284:76,1,133.333333333333,8|0,0:0|0:0,0:0:0:0:
197,261,15255,2,0,L|228:132,1,133.333333333333
143,315,15518,2,0,L|174:186,1,133.333333333333,8|0,0:0|0:0,0:0:0:0:
80,376,15781,6,0,P|100:308|56:248,1,133.333333333333
122,89,16044,2,0,P|101:150|132:208,1,133.333333333333,8|0,0:0|0:0,0:0:0:0:
304,209,16308,2,0,P|239:212|196:260,1,133.333333333333
292,132,16571,2,0,P|356:129|399:80,1,133.333333333333,8|0,0:0|0:0,0:0:0:0:
324,56,16834,6,0,L|455:31,1,133.333333333333
112,39,17097,2,0,L|244:64,1,133.333333333333,8|0,0:0|0:0,0:0:0:0:
304,209,17360,2,0,L|435:184,1,133.333333333333
124,296,17623,2,0,L|256:272,1,133.333333333333,8|0,0:0|0:0,0:0:0:0:
56,340,17887,6,0,P|44:276|88:224,1,133.333333333333,4|0,2:0|0:0,0:0:0:0:
164,212,18150,1,8,0:0:0:0:
56,340,18413,2,0,L|32:192,1,133.333333333333
76,140,18676,1,8,0:0:0:0:
208,48,18852,1,0,0:0:0:0:
208,48,18939,6,0,L|236:184,1,133.333333333333
300,219,19202,2,0,P|304:154|264:104,1,133.333333333333,8|0,0:0|0:0,0:0:0:0:
104,206,19466,2,0,L|234:178,1,133.333333333333
300,220,19729,2,0,P|228:252|168:208,1,133.333333333333,8|0,0:0|0:0,0:0:0:0:
27,319,19992,6,0,L|160:308,1,133.333333333333
236,332,20255,1,8,0:0:0:0:
316,316,20430,1,0,0:0:0:0:
236,332,20694,5,0,0:0:0:0:
316,316,20781,2,0,L|460:288,1,133.333333333333,8|0,0:0|0:0,0:0:0:0:
480,160,21044,6,0,L|484:136,5,16.6666666666667,2|0|0|0|0|0,0:0|0:0|0:0|0:0|0:0|0:0,0:0:0:0:
404,80,21308,2,0,L|408:56,5,16.6666666666667,2|0|0|0|0|0,0:0|0:0|0:0|0:0|0:0|0:0,0:0:0:0:
312,96,21571,2,0,L|312:72,5,16.6666666666667,2|0|0|0|0|0,0:0|0:0|0:0|0:0|0:0|0:0,0:0:0:0:
212,60,21834,2,0,L|204:32,5,16.6666666666667,2|0|0|0|0|0,0:0|0:0|0:0|0:0|0:0|0:0,0:0:0:0:
140,120,22097,6,0,B|92:228|92:228|104:260,1,133.333333333333,4|0,2:0|0:0,0:0:0:0:
152,300,22360,2,0,P|216:280|308:292,1,133.333333333333,8|0,0:0|0:0,0:0:0:0:
