osu file format v14

[General]
AudioFilename: audio.ogg
AudioLeadIn: 0
PreviewTime: 131243
Countdown: 0
SampleSet: Soft
StackLeniency: 0.7
Mode: 3
LetterboxInBreaks: 0
SpecialStyle: 0
WidescreenStoryboard: 1

[Editor]
Bookmarks: 39000,57286,66428,131571,149857
DistanceSpacing: 1.3
BeatDivisor: 4
GridSize: 4
TimelineZoom: 2.299999

[Metadata]
Title:Streaming Heart
TitleUnicode:ストリーミングハート
Artist:Yuaru
ArtistUnicode:ゆある
Creator:komugii
Version:Hana's Insane
Source:
Tags:DECO27 デコニーナ Deko Niina Kous Conti New UMA-9033 Download ONE TIME SELECTION EVERGREEN SONGS 2014 EXIT TUNES PRESENTS NUMBERS Vocalofantasy Vocaloid ボーカロイド Hatsune Miku 初音ミクElectronic Rock JRock J-Rock Pop JPop J-Pop Synthpop Japanese MikuExpo China Tour Magical Mirai 2017 Utattemita 歌ってみた Utaite Cover Js Jumpstream Trills Stamina Chordjack Tech Dump Dumpstream hna hana crisper
BeatmapID:3507797
BeatmapSetID:1674865

[Difficulty]
HPDrainRate:8
CircleSize:4
OverallDifficulty:8
ApproachRate:5
SliderMultiplier:1.4
SliderTickRate:1

[Events]
//Background and Video events
0,0,"42404124.jpg",0,0
//Break Periods
//Storyboard Layer 0 (Background)
//Storyboard Layer 1 (Fail)
//Storyboard Layer 2 (Pass)
//Storyboard Layer 3 (Foreground)
//Storyboard Layer 4 (Overlay)
//Storyboard Sound Samples

[TimingPoints]
1243,285.714285714286,4,2,1,20,1,0
10385,-100,4,2,1,100,0,1
28671,-100,4,2,1,100,0,0
57243,-100,4,2,1,100,0,1
75528,-100,4,2,1,100,0,0
112100,-100,4,2,1,100,0,1
121243,-100,4,2,1,100,0,0
131528,-100,4,2,1,100,0,1
139385,-100,4,2,1,100,0,0
140671,-100,4,2,1,100,0,1
149814,-100,4,2,1,100,0,0
150100,-100,4,2,1,100,0,1
168100,-100,4,2,1,100,0,0

[HitObjects]
448,192,1243,5,0,0:0:0:0:
320,192,1243,1,0,0:0:0:0:
320,192,1385,1,0,0:0:0:0:
64,192,1528,1,0,0:0:0:0:
448,192,1528,1,0,0:0:0:0:
192,192,1671,1,0,0:0:0:0:
448,192,1814,1,0,0:0:0:0:
64,192,1814,1,0,0:0:0:0:
64,192,1957,1,0,0:0:0:0:
320,192,2100,1,0,0:0:0:0:
448,192,2100,1,0,0:0:0:0:
192,192,2243,1,0,0:0:0:0:
320,192,2243,1,0,0:0:0:0:
192,192,2385,1,0,0:0:0:0:
320,192,2528,1,0,0:0:0:0:
448,192,2528,1,0,0:0:0:0:
448,192,2671,1,0,0:0:0:0:
192,192,2814,1,0,0:0:0:0:
64,192,2814,1,0,0:0:0:0:
64,192,2957,1,0,0:0:0:0:
192,192,3100,1,0,0:0:0:0:
320,192,3100,1,0,0:0:0:0:
64,192,3243,1,0,0:0:0:0:
448,192,3243,1,0,0:0:0:0:
448,192,3385,1,0,0:0:0:0:
192,192,3385,1,0,0:0:0:0:
64,192,3528,5,0,0:0:0:0:
192,192,3528,1,0,0:0:0:0:
64,192,3671,1,0,0:0:0:0:
320,192,3814,1,0,0:0:0:0:
192,192,3814,1,0,0:0:0:0:
448,192,3957,1,0,0:0:0:0:
192,192,4100,1,0,0:0:0:0:
320,192,4100,1,0,0:0:0:0:
320,192,4243,1,0,0:0:0:0:
192,192,4385,1,0,0:0:0:0:
64,192,4385,1,0,0:0:0:0:
448,192,4528,1,0,0:0:0:0:
64,192,4528,1,0,0:0:0:0:
448,192,4671,1,0,0:0:0:0:
192,192,4814,1,0,0:0:0:0:
64,192,4814,1,0,0:0:0:0:
192,192,4957,1,0,0:0:0:0:
320,192,5100,1,0,0:0:0:0:
448,192,5100,1,0,0:0:0:0:
320,192,5243,1,0,0:0:0:0:
448,192,5385,1,0,0:0:0:0:
64,192,5385,1,0,0:0:0:0:
320,192,5528,1,0,0:0:0:0:
192,192,5528,1,0,0:0:0:0:
192,192,5671,1,0,0:0:0:0:
448,192,5671,1,0,0:0:0:0:
448,192,5814,5,0,0:0:0:0:
320,192,5814,1,0,0:0:0:0:
320,192,5957,1,0,0:0:0:0:
64,192,6100,1,0,0:0:0:0:
448,192,6100,1,0,0:0:0:0:
192,192,6243,1,0,0:0:0:0:
448,192,6385,1,0,0:0:0:0:
64,192,6385,1,0,0:0:0:0:
64,192,6528,1,0,0:0:0:0:
320,192,6671,1,0,0:0:0:0:
448,192,6671,1,0,0:0:0:0:
192,192,6814,1,0,0:0:0:0:
320,192,6814,1,0,0:0:0:0:
192,192,6957,1,0,0:0:0:0:
320,192,7100,1,0,0:0:0:0:
448,192,7100,1,0,0:0:0:0:
448,192,7243,1,0,0:0:0:0:
192,192,7385,1,0,0:0:0:0:
64,192,7385,1,0,0:0:0:0:
64,192,7528,1,0,0:0:0:0:
192,192,7671,1,0,0:0:0:0:
320,192,7671,1,0,0:0:0:0:
64,192,7814,1,0,0:0:0:0:
448,192,7814,1,0,0:0:0:0:
448,192,7957,1,0,0:0:0:0:
192,192,7957,1,0,0:0:0:0:
64,192,8100,5,0,0:0:0:0:
192,192,8100,1,0,0:0:0:0:
64,192,9243,1,0,0:0:0:0:
192,192,9243,1,0,0:0:0:0:
320,192,9385,1,0,0:0:0:0:
448,192,9385,1,0,0:0:0:0:
192,192,9457,1,0,0:0:0:0:
448,192,9528,1,0,0:0:0:0:
192,192,9671,1,0,0:0:0:0:
320,192,9671,1,0,0:0:0:0:
448,192,9814,1,0,0:0:0:0:
64,192,9814,1,0,0:0:0:0:
192,192,9885,1,0,0:0:0:0:
64,192,9957,1,0,0:0:0:0:
192,192,10028,1,0,0:0:0:0:
448,192,10100,1,0,0:0:0:0:
320,192,10100,1,0,0:0:0:0:
64,192,10171,1,0,0:0:0:0:
448,192,10243,1,0,0:0:0:0:
320,192,10243,1,0,0:0:0:0:
64,192,10314,1,0,0:0:0:0:
192,192,10314,1,0,0:0:0:0:
320,192,10385,1,0,0:0:0:0:
448,192,10385,1,0,0:0:0:0:
192,192,10457,1,0,0:0:0:0:
64,192,10528,1,0,0:0:0:0:
192,192,10600,1,0,0:0:0:0:
320,192,10671,1,0,0:0:0:0:
192,192,10743,1,0,0:0:0:0:
64,192,10814,1,0,0:0:0:0:
448,192,10814,1,0,0:0:0:0:
320,192,10885,1,0,0:0:0:0:
192,192,10957,1,0,0:0:0:0:
64,192,10957,1,0,0:0:0:0:
448,192,10957,1,0,0:0:0:0:
320,192,11100,1,0,0:0:0:0:
64,192,11243,1,0,0:0:0:0:
192,192,11243,1,0,0:0:0:0:
192,192,11385,1,0,0:0:0:0:
320,192,11528,1,0,0:0:0:0:
448,192,11528,1,0,0:0:0:0:
64,192,11600,1,0,0:0:0:0:
320,192,11671,1,0,0:0:0:0:
448,192,11743,1,0,0:0:0:0:
192,192,11814,1,0,0:0:0:0:
448,192,11885,1,0,0:0:0:0:
320,192,11957,1,0,0:0:0:0:
64,192,11957,1,0,0:0:0:0:
192,192,12028,1,0,0:0:0:0:
320,192,12100,1,0,0:0:0:0:
64,192,12100,1,0,0:0:0:0:
448,192,12100,1,0,0:0:0:0:
192,192,12243,1,0,0:0:0:0:
320,192,12385,1,0,0:0:0:0:
448,192,12385,1,0,0:0:0:0:
320,192,12528,1,0,0:0:0:0:
192,192,12671,1,0,0:0:0:0:
64,192,12671,1,0,0:0:0:0:
320,192,12743,1,0,0:0:0:0:
448,192,12814,1,0,0:0:0:0:
320,192,12885,1,0,0:0:0:0:
192,192,12957,1,0,0:0:0:0:
320,192,13028,1,0,0:0:0:0:
448,192,13100,1,0,0:0:0:0:
64,192,13100,1,0,0:0:0:0:
192,192,13171,1,0,0:0:0:0:
320,192,13243,1,0,0:0:0:0:
448,192,13243,1,0,0:0:0:0:
64,192,13243,1,0,0:0:0:0:
192,192,13385,1,0,0:0:0:0:
448,192,13528,1,0,0:0:0:0:
320,192,13528,1,0,0:0:0:0:
320,192,13671,1,0,0:0:0:0:
192,192,13814,1,0,0:0:0:0:
64,192,13814,1,0,0:0:0:0:
448,192,13885,1,0,0:0:0:0:
192,192,13957,1,0,0:0:0:0:
64,192,14028,1,0,0:0:0:0:
320,192,14100,1,0,0:0:0:0:
64,192,14171,1,0,0:0:0:0:
192,192,14243,1,0,0:0:0:0:
448,192,14243,1,0,0:0:0:0:
320,192,14314,1,0,0:0:0:0:
192,192,14385,1,0,0:0:0:0:
448,192,14385,1,0,0:0:0:0:
64,192,14385,1,0,0:0:0:0:
64,192,14528,1,0,0:0:0:0:
320,192,14528,1,0,0:0:0:0:
448,192,14671,1,0,0:0:0:0:
320,192,14671,1,0,0:0:0:0:
448,192,14814,1,0,0:0:0:0:
64,192,14957,1,0,0:0:0:0:
192,192,14957,1,0,0:0:0:0:
448,192,15028,1,0,0:0:0:0:
320,192,15100,1,0,0:0:0:0:
448,192,15171,1,0,0:0:0:0:
192,192,15243,1,0,0:0:0:0:
448,192,15314,1,0,0:0:0:0:
64,192,15385,1,0,0:0:0:0:
320,192,15385,1,0,0:0:0:0:
192,192,15457,1,0,0:0:0:0:
64,192,15528,1,0,0:0:0:0:
448,192,15528,1,0,0:0:0:0:
320,192,15528,1,0,0:0:0:0:
192,192,15671,1,0,0:0:0:0:
320,192,15814,1,0,0:0:0:0:
448,192,15814,1,0,0:0:0:0:
320,192,15957,1,0,0:0:0:0:
192,192,16100,1,0,0:0:0:0:
64,192,16100,1,0,0:0:0:0:
448,192,16171,1,0,0:0:0:0:
64,192,16243,1,0,0:0:0:0:
192,192,16314,1,0,0:0:0:0:
448,192,16385,1,0,0:0:0:0:
192,192,16457,1,0,0:0:0:0:
320,192,16528,1,0,0:0:0:0:
64,192,16528,1,0,0:0:0:0:
448,192,16600,1,0,0:0:0:0:
64,192,16671,1,0,0:0:0:0:
320,192,16671,1,0,0:0:0:0:
192,192,16671,1,0,0:0:0:0:
448,192,16814,1,0,0:0:0:0:
64,192,16957,1,0,0:0:0:0:
192,192,16957,1,0,0:0:0:0:
192,192,17100,1,0,0:0:0:0:
448,192,17243,1,0,0:0:0:0:
320,192,17243,1,0,0:0:0:0:
64,192,17314,1,0,0:0:0:0:
192,192,17385,1,0,0:0:0:0:
64,192,17457,1,0,0:0:0:0:
320,192,17528,1,0,0:0:0:0:
64,192,17600,1,0,0:0:0:0:
448,192,17671,1,0,0:0:0:0:
192,192,17671,1,0,0:0:0:0:
320,192,17743,1,0,0:0:0:0:
448,192,17814,1,0,0:0:0:0:
64,192,17814,1,0,0:0:0:0:
192,192,17814,1,0,0:0:0:0:
320,192,17957,1,0,0:0:0:0:
192,192,18100,1,0,0:0:0:0:
64,192,18100,1,0,0:0:0:0:
192,192,18243,1,0,0:0:0:0:
448,192,18385,1,0,0:0:0:0:
320,192,18385,1,0,0:0:0:0:
64,192,18457,1,0,0:0:0:0:
448,192,18528,1,0,0:0:0:0:
320,192,18600,1,0,0:0:0:0:
64,192,18671,1,0,0:0:0:0:
320,192,18743,1,0,0:0:0:0:
192,192,18814,1,0,0:0:0:0:
448,192,18814,1,0,0:0:0:0:
64,192,18885,1,0,0:0:0:0:
448,192,18957,1,0,0:0:0:0:
192,192,18957,1,0,0:0:0:0:
320,192,18957,1,0,0:0:0:0:
64,192,19100,1,0,0:0:0:0:
320,192,19100,1,0,0:0:0:0:
64,192,19243,1,0,0:0:0:0:
192,192,19243,1,0,0:0:0:0:
192,192,19385,1,0,0:0:0:0:
448,192,19528,1,0,0:0:0:0:
320,192,19528,1,0,0:0:0:0:
192,192,19600,1,0,0:0:0:0:
64,192,19671,1,0,0:0:0:0:
192,192,19743,1,0,0:0:0:0:
448,192,19814,1,0,0:0:0:0:
192,192,19885,1,0,0:0:0:0:
320,192,19957,1,0,0:0:0:0:
64,192,19957,1,0,0:0:0:0:
448,192,20028,1,0,0:0:0:0:
64,192,20100,1,0,0:0:0:0:
192,192,20100,1,0,0:0:0:0:
320,192,20100,1,0,0:0:0:0:
448,192,20243,1,0,0:0:0:0:
64,192,20385,1,0,0:0:0:0:
192,192,20385,1,0,0:0:0:0:
192,192,20528,1,0,0:0:0:0:
320,192,20671,1,0,0:0:0:0:
448,192,20671,1,0,0:0:0:0:
64,192,20743,1,0,0:0:0:0:
320,192,20814,1,0,0:0:0:0:
448,192,20885,1,0,0:0:0:0:
192,192,20957,1,0,0:0:0:0:
448,192,21028,1,0,0:0:0:0:
320,192,21100,1,0,0:0:0:0:
64,192,21100,1,0,0:0:0:0:
192,192,21171,1,0,0:0:0:0:
448,192,21243,1,0,0:0:0:0:
320,192,21243,1,0,0:0:0:0:
64,192,21243,1,0,0:0:0:0:
192,192,21385,1,0,0:0:0:0:
320,192,21528,1,0,0:0:0:0:
448,192,21528,1,0,0:0:0:0:
320,192,21671,1,0,0:0:0:0:
64,192,21814,1,0,0:0:0:0:
192,192,21814,1,0,0:0:0:0:
320,192,21885,1,0,0:0:0:0:
448,192,21957,1,0,0:0:0:0:
320,192,22028,1,0,0:0:0:0:
64,192,22100,1,0,0:0:0:0:
320,192,22171,1,0,0:0:0:0:
192,192,22243,1,0,0:0:0:0:
448,192,22243,1,0,0:0:0:0:
64,192,22314,1,0,0:0:0:0:
448,192,22385,1,0,0:0:0:0:
320,192,22385,1,0,0:0:0:0:
192,192,22385,1,0,0:0:0:0:
64,192,22528,1,0,0:0:0:0:
448,192,22671,1,0,0:0:0:0:
320,192,22671,1,0,0:0:0:0:
320,192,22814,1,0,0:0:0:0:
192,192,22957,1,0,0:0:0:0:
64,192,22957,1,0,0:0:0:0:
448,192,23028,1,0,0:0:0:0:
192,192,23100,1,0,0:0:0:0:
64,192,23171,1,0,0:0:0:0:
320,192,23243,1,0,0:0:0:0:
64,192,23314,1,0,0:0:0:0:
192,192,23385,1,0,0:0:0:0:
448,192,23385,1,0,0:0:0:0:
320,192,23457,1,0,0:0:0:0:
64,192,23528,1,0,0:0:0:0:
192,192,23528,1,0,0:0:0:0:
448,192,23528,1,0,0:0:0:0:
320,192,23671,1,0,0:0:0:0:
64,192,23671,1,0,0:0:0:0:
192,192,23814,1,0,0:0:0:0:
64,192,23814,1,0,0:0:0:0:
192,192,23957,1,0,0:0:0:0:
448,192,24100,1,0,0:0:0:0:
320,192,24100,1,0,0:0:0:0:
64,192,24171,1,0,0:0:0:0:
192,192,24243,1,0,0:0:0:0:
64,192,24314,1,0,0:0:0:0:
320,192,24385,1,0,0:0:0:0:
64,192,24457,1,0,0:0:0:0:
448,192,24528,1,0,0:0:0:0:
192,192,24528,1,0,0:0:0:0:
320,192,24600,1,0,0:0:0:0:
448,192,24671,1,0,0:0:0:0:
64,192,24671,1,0,0:0:0:0:
192,192,24671,1,0,0:0:0:0:
320,192,24814,1,0,0:0:0:0:
64,192,24957,1,0,0:0:0:0:
192,192,24957,1,0,0:0:0:0:
64,192,25100,1,0,0:0:0:0:
448,192,25243,1,0,0:0:0:0:
320,192,25243,1,0,0:0:0:0:
192,192,25314,1,0,0:0:0:0:
448,192,25385,1,0,0:0:0:0:
320,192,25457,1,0,0:0:0:0:
192,192,25528,1,0,0:0:0:0:
320,192,25600,1,0,0:0:0:0:
448,192,25671,1,0,0:0:0:0:
64,192,25671,1,0,0:0:0:0:
192,192,25743,1,0,0:0:0:0:
320,192,25814,1,0,0:0:0:0:
448,192,25814,1,0,0:0:0:0:
64,192,25814,1,0,0:0:0:0:
192,192,25957,1,0,0:0:0:0:
448,192,26100,1,0,0:0:0:0:
320,192,26100,1,0,0:0:0:0:
448,192,26243,1,0,0:0:0:0:
64,192,26385,1,0,0:0:0:0:
192,192,26385,1,0,0:0:0:0:
448,192,26457,1,0,0:0:0:0:
320,192,26528,1,0,0:0:0:0:
448,192,26600,1,0,0:0:0:0:
192,192,26671,1,0,0:0:0:0:
448,192,26743,1,0,0:0:0:0:
64,192,26814,1,0,0:0:0:0:
320,192,26814,1,0,0:0:0:0:
192,192,26885,1,0,0:0:0:0:
64,192,26957,1,0,0:0:0:0:
448,192,26957,1,0,0:0:0:0:
320,192,26957,1,0,0:0:0:0:
192,192,27100,1,0,0:0:0:0:
448,192,27243,1,0,0:0:0:0:
320,192,27243,1,0,0:0:0:0:
448,192,27385,1,0,0:0:0:0:
64,192,27528,1,0,0:0:0:0:
192,192,27528,1,0,0:0:0:0:
320,192,27600,1,0,0:0:0:0:
64,192,27671,1,0,0:0:0:0:
192,192,27743,1,0,0:0:0:0:
320,192,27814,1,0,0:0:0:0:
192,192,27885,1,0,0:0:0:0:
64,192,27957,1,0,0:0:0:0:
448,192,27957,1,0,0:0:0:0:
320,192,28028,1,0,0:0:0:0:
192,192,28100,1,0,0:0:0:0:
64,192,28100,1,0,0:0:0:0:
448,192,28100,1,0,0:0:0:0:
192,192,28243,1,0,0:0:0:0:
320,192,28243,1,0,0:0:0:0:
320,192,28385,1,0,0:0:0:0:
64,192,28385,1,0,0:0:0:0:
64,192,28528,1,0,0:0:0:0:
192,192,28671,1,0,0:0:0:0:
448,192,28766,1,0,0:0:0:0:
320,192,28909,1,0,0:0:0:0:
192,192,29052,1,0,0:0:0:0:
448,192,29052,1,0,0:0:0:0:
192,192,29243,1,0,0:0:0:0:
448,192,29243,1,0,0:0:0:0:
448,192,29433,1,0,0:0:0:0:
192,192,29433,1,0,0:0:0:0:
320,192,29600,1,0,0:0:0:0:
448,192,29600,1,0,0:0:0:0:
320,192,29814,1,0,0:0:0:0:
64,192,29814,1,0,0:0:0:0:
192,192,29814,1,0,0:0:0:0:
64,192,29957,1,0,0:0:0:0:
448,192,29957,1,0,0:0:0:0:
192,192,30100,1,0,0:0:0:0:
320,192,30100,1,0,0:0:0:0:
448,192,30243,1,0,0:0:0:0:
320,192,30243,1,0,0:0:0:0:
448,192,30385,1,0,0:0:0:0:
64,192,30385,1,0,0:0:0:0:
192,192,30385,1,0,0:0:0:0:
320,192,30528,1,0,0:0:0:0:
64,192,30671,1,0,0:0:0:0:
448,192,30671,1,0,0:0:0:0:
64,192,30814,1,0,0:0:0:0:
192,192,30814,1,0,0:0:0:0:
192,192,30957,1,0,0:0:0:0:
320,192,31100,1,0,0:0:0:0:
448,192,31100,1,0,0:0:0:0:
320,192,31243,1,0,0:0:0:0:
64,192,31385,1,0,0:0:0:0:
448,192,31385,1,0,0:0:0:0:
320,192,31528,1,0,0:0:0:0:
192,192,31528,1,0,0:0:0:0:
64,192,31528,1,0,0:0:0:0:
192,192,31671,1,0,0:0:0:0:
448,192,31671,1,0,0:0:0:0:
448,192,31814,1,0,0:0:0:0:
320,192,31814,1,0,0:0:0:0:
192,192,31957,1,0,0:0:0:0:
320,192,31957,1,0,0:0:0:0:
448,192,32100,1,0,0:0:0:0:
192,192,32100,1,0,0:0:0:0:
64,192,32100,1,0,0:0:0:0:
64,192,32243,1,0,0:0:0:0:
320,192,32243,1,0,0:0:0:0:
192,192,32385,1,0,0:0:0:0:
448,192,32385,1,0,0:0:0:0:
448,192,32528,1,0,0:0:0:0:
320,192,32528,1,0,0:0:0:0:
320,192,32671,1,0,0:0:0:0:
64,192,32671,1,0,0:0:0:0:
192,192,32671,1,0,0:0:0:0:
448,192,32814,1,0,0:0:0:0:
192,192,32957,1,0,0:0:0:0:
320,192,32957,1,0,0:0:0:0:
64,192,33100,1,0,0:0:0:0:
192,192,33100,1,0,0:0:0:0:
64,192,33243,1,0,0:0:0:0:
320,192,33385,1,0,0:0:0:0:
448,192,33385,1,0,0:0:0:0:
448,192,33528,1,0,0:0:0:0:
192,192,33671,1,0,0:0:0:0:
320,192,33671,1,0,0:0:0:0:
448,192,33814,1,0,0:0:0:0:
192,192,33814,1,0,0:0:0:0:
64,192,33814,1,0,0:0:0:0:
448,192,33957,1,0,0:0:0:0:
320,192,33957,1,0,0:0:0:0:
448,192,34100,1,0,0:0:0:0:
320,192,34100,1,0,0:0:0:0:
448,192,34243,1,0,0:0:0:0:
320,192,34243,1,0,0:0:0:0:
320,192,34385,1,0,0:0:0:0:
192,192,34385,1,0,0:0:0:0:
64,192,34385,1,0,0:0:0:0:
64,192,34528,1,0,0:0:0:0:
448,192,34528,1,0,0:0:0:0:
192,192,34671,1,0,0:0:0:0:
320,192,34671,1,0,0:0:0:0:
64,192,34814,1,0,0:0:0:0:
192,192,34814,1,0,0:0:0:0:
64,192,34957,1,0,0:0:0:0:
320,192,34957,1,0,0:0:0:0:
448,192,34957,1,0,0:0:0:0:
192,192,35100,1,0,0:0:0:0:
448,192,35243,1,0,0:0:0:0:
64,192,35243,1,0,0:0:0:0:
448,192,35385,1,0,0:0:0:0:
320,192,35385,1,0,0:0:0:0:
320,192,35528,1,0,0:0:0:0:
192,192,35671,1,0,0:0:0:0:
64,192,35671,1,0,0:0:0:0:
192,192,35814,1,0,0:0:0:0:
320,192,35957,1,0,0:0:0:0:
64,192,35957,1,0,0:0:0:0:
192,192,36100,1,0,0:0:0:0:
320,192,36100,1,0,0:0:0:0:
448,192,36100,1,0,0:0:0:0:
64,192,36243,1,0,0:0:0:0:
448,192,36243,1,0,0:0:0:0:
192,192,36385,1,0,0:0:0:0:
64,192,36385,1,0,0:0:0:0:
448,192,36528,1,0,0:0:0:0:
192,192,36528,1,0,0:0:0:0:
448,192,36671,1,0,0:0:0:0:
64,192,36671,1,0,0:0:0:0:
320,192,36671,1,0,0:0:0:0:
192,192,36814,1,0,0:0:0:0:
320,192,36814,1,0,0:0:0:0:
64,192,36957,1,0,0:0:0:0:
448,192,36957,1,0,0:0:0:0:
64,192,37100,1,0,0:0:0:0:
192,192,37100,1,0,0:0:0:0:
192,192,37243,1,0,0:0:0:0:
448,192,37243,1,0,0:0:0:0:
320,192,37243,1,0,0:0:0:0:
64,192,37385,1,0,0:0:0:0:
320,192,37528,1,0,0:0:0:0:
192,192,37528,1,0,0:0:0:0:
448,192,37671,1,0,0:0:0:0:
192,192,37814,1,0,0:0:0:0:
320,192,37814,1,0,0:0:0:0:
448,192,37957,1,0,0:0:0:0:
64,192,37957,1,0,0:0:0:0:
320,192,38028,1,0,0:0:0:0:
192,192,38028,1,0,0:0:0:0:
64,192,38100,1,0,0:0:0:0:
320,192,38243,1,0,0:0:0:0:
448,192,38243,1,0,0:0:0:0:
64,192,38385,1,0,0:0:0:0:
448,192,38385,1,0,0:0:0:0:
192,192,38528,1,0,0:0:0:0:
320,192,38528,1,0,0:0:0:0:
64,192,38671,1,0,0:0:0:0:
192,192,38671,1,0,0:0:0:0:
64,192,38814,1,0,0:0:0:0:
448,192,38814,1,0,0:0:0:0:
192,192,38885,1,0,0:0:0:0:
64,192,38957,5,0,0:0:0:0:
320,192,38957,1,0,0:0:0:0:
320,192,39100,1,0,0:0:0:0:
448,192,39100,1,0,0:0:0:0:
192,192,39243,1,0,0:0:0:0:
448,192,39243,1,0,0:0:0:0:
64,192,39314,1,0,0:0:0:0:
448,192,39385,1,0,0:0:0:0:
64,192,39457,1,0,0:0:0:0:
192,192,39528,1,0,0:0:0:0:
320,192,39528,1,0,0:0:0:0:
448,192,39600,1,0,0:0:0:0:
192,192,39671,1,0,0:0:0:0:
64,192,39671,1,0,0:0:0:0:
320,192,39743,1,0,0:0:0:0:
64,192,39814,1,0,0:0:0:0:
320,192,39885,1,0,0:0:0:0:
192,192,39957,1,0,0:0:0:0:
448,192,39957,1,0,0:0:0:0:
64,192,40028,1,0,0:0:0:0:
320,192,40100,1,0,0:0:0:0:
192,192,40100,1,0,0:0:0:0:
448,192,40171,1,0,0:0:0:0:
320,192,40243,1,0,0:0:0:0:
448,192,40314,1,0,0:0:0:0:
192,192,40385,1,0,0:0:0:0:
64,192,40385,1,0,0:0:0:0:
320,192,40457,1,0,0:0:0:0:
64,192,40528,1,0,0:0:0:0:
192,192,40528,1,0,0:0:0:0:
320,192,40600,1,0,0:0:0:0:
448,192,40671,1,0,0:0:0:0:
64,192,40743,1,0,0:0:0:0:
192,192,40814,1,0,0:0:0:0:
320,192,40814,1,0,0:0:0:0:
448,192,40885,1,0,0:0:0:0:
192,192,40957,1,0,0:0:0:0:
448,192,41028,1,0,0:0:0:0:
64,192,41100,1,0,0:0:0:0:
320,192,41100,1,0,0:0:0:0:
192,192,41171,1,0,0:0:0:0:
64,192,41243,1,0,0:0:0:0:
192,192,41314,1,0,0:0:0:0:
320,192,41385,1,0,0:0:0:0:
448,192,41385,1,0,0:0:0:0:
64,192,41457,1,0,0:0:0:0:
320,192,41528,1,0,0:0:0:0:
192,192,41528,1,0,0:0:0:0:
448,192,41600,1,0,0:0:0:0:
192,192,41671,1,0,0:0:0:0:
448,192,41743,1,0,0:0:0:0:
64,192,41814,1,0,0:0:0:0:
320,192,41814,1,0,0:0:0:0:
192,192,41885,1,0,0:0:0:0:
64,192,41957,1,0,0:0:0:0:
448,192,42028,1,0,0:0:0:0:
192,192,42100,1,0,0:0:0:0:
320,192,42100,1,0,0:0:0:0:
64,192,42171,1,0,0:0:0:0:
320,192,42243,1,0,0:0:0:0:
448,192,42314,1,0,0:0:0:0:
64,192,42385,1,0,0:0:0:0:
192,192,42385,1,0,0:0:0:0:
320,192,42457,1,0,0:0:0:0:
192,192,42528,1,0,0:0:0:0:
320,192,42600,1,0,0:0:0:0:
64,192,42671,1,0,0:0:0:0:
448,192,42671,1,0,0:0:0:0:
192,192,42743,1,0,0:0:0:0:
448,192,42814,1,0,0:0:0:0:
64,192,42814,1,0,0:0:0:0:
192,192,42885,1,0,0:0:0:0:
320,192,42957,1,0,0:0:0:0:
448,192,42957,1,0,0:0:0:0:
64,192,43028,1,0,0:0:0:0:
320,192,43100,1,0,0:0:0:0:
192,192,43100,1,0,0:0:0:0:
448,192,43171,1,0,0:0:0:0:
192,192,43243,1,0,0:0:0:0:
448,192,43314,1,0,0:0:0:0:
64,192,43385,1,0,0:0:0:0:
320,192,43385,1,0,0:0:0:0:
192,192,43457,1,0,0:0:0:0:
448,192,43528,1,0,0:0:0:0:
64,192,43528,1,0,0:0:0:0:
192,192,43600,1,0,0:0:0:0:
320,192,43671,1,0,0:0:0:0:
448,192,43671,1,0,0:0:0:0:
64,192,43743,1,0,0:0:0:0:
320,192,43814,1,0,0:0:0:0:
192,192,43814,1,0,0:0:0:0:
448,192,43885,1,0,0:0:0:0:
64,192,43957,1,0,0:0:0:0:
320,192,44028,1,0,0:0:0:0:
64,192,44100,1,0,0:0:0:0:
192,192,44100,1,0,0:0:0:0:
448,192,44171,1,0,0:0:0:0:
192,192,44243,1,0,0:0:0:0:
448,192,44314,1,0,0:0:0:0:
64,192,44385,1,0,0:0:0:0:
320,192,44385,1,0,0:0:0:0:
192,192,44457,1,0,0:0:0:0:
320,192,44528,1,0,0:0:0:0:
64,192,44600,1,0,0:0:0:0:
192,192,44671,1,0,0:0:0:0:
448,192,44671,1,0,0:0:0:0:
320,192,44743,1,0,0:0:0:0:
64,192,44814,1,0,0:0:0:0:
448,192,44814,1,0,0:0:0:0:
320,192,44885,1,0,0:0:0:0:
64,192,44957,1,0,0:0:0:0:
192,192,44957,1,0,0:0:0:0:
448,192,45028,1,0,0:0:0:0:
192,192,45100,1,0,0:0:0:0:
64,192,45171,1,0,0:0:0:0:
448,192,45243,1,0,0:0:0:0:
320,192,45243,1,0,0:0:0:0:
192,192,45314,1,0,0:0:0:0:
448,192,45385,1,0,0:0:0:0:
64,192,45457,1,0,0:0:0:0:
320,192,45528,1,0,0:0:0:0:
192,192,45528,1,0,0:0:0:0:
448,192,45600,1,0,0:0:0:0:
64,192,45671,1,0,0:0:0:0:
320,192,45743,1,0,0:0:0:0:
448,192,45814,1,0,0:0:0:0:
192,192,45814,1,0,0:0:0:0:
64,192,45885,1,0,0:0:0:0:
448,192,45957,1,0,0:0:0:0:
320,192,45957,1,0,0:0:0:0:
192,192,46028,1,0,0:0:0:0:
320,192,46100,1,0,0:0:0:0:
64,192,46100,1,0,0:0:0:0:
448,192,46171,1,0,0:0:0:0:
64,192,46243,1,0,0:0:0:0:
192,192,46314,1,0,0:0:0:0:
448,192,46385,1,0,0:0:0:0:
320,192,46385,1,0,0:0:0:0:
64,192,46457,1,0,0:0:0:0:
320,192,46528,1,0,0:0:0:0:
448,192,46600,1,0,0:0:0:0:
192,192,46671,1,0,0:0:0:0:
64,192,46671,1,0,0:0:0:0:
320,192,46743,1,0,0:0:0:0:
192,192,46814,1,0,0:0:0:0:
64,192,46885,1,0,0:0:0:0:
448,192,46957,1,0,0:0:0:0:
320,192,46957,1,0,0:0:0:0:
192,192,47028,1,0,0:0:0:0:
320,192,47100,1,0,0:0:0:0:
192,192,47171,1,0,0:0:0:0:
448,192,47243,1,0,0:0:0:0:
64,192,47243,1,0,0:0:0:0:
320,192,47314,1,0,0:0:0:0:
192,192,47385,1,0,0:0:0:0:
64,192,47385,1,0,0:0:0:0:
448,192,47457,1,0,0:0:0:0:
192,192,47528,1,0,0:0:0:0:
320,192,47528,1,0,0:0:0:0:
64,192,47600,1,0,0:0:0:0:
320,192,47671,1,0,0:0:0:0:
448,192,47743,1,0,0:0:0:0:
192,192,47814,1,0,0:0:0:0:
64,192,47814,1,0,0:0:0:0:
320,192,47885,1,0,0:0:0:0:
448,192,47957,1,0,0:0:0:0:
320,192,48028,1,0,0:0:0:0:
192,192,48100,5,0,0:0:0:0:
64,192,48100,1,0,0:0:0:0:
192,192,48243,1,0,0:0:0:0:
448,192,48385,1,0,0:0:0:0:
192,192,48528,1,0,0:0:0:0:
64,192,48528,1,0,0:0:0:0:
192,192,48671,1,0,0:0:0:0:
64,192,48814,1,0,0:0:0:0:
192,192,48957,1,0,0:0:0:0:
448,192,48957,1,0,0:0:0:0:
448,192,49100,1,0,0:0:0:0:
192,192,49243,1,0,0:0:0:0:
320,192,49243,1,0,0:0:0:0:
192,192,49385,1,0,0:0:0:0:
320,192,49528,1,0,0:0:0:0:
448,192,49528,1,0,0:0:0:0:
320,192,49671,1,0,0:0:0:0:
64,192,49814,1,0,0:0:0:0:
448,192,49814,1,0,0:0:0:0:
64,192,49957,1,0,0:0:0:0:
192,192,50100,1,0,0:0:0:0:
320,192,50100,1,0,0:0:0:0:
320,192,50243,1,0,0:0:0:0:
64,192,50385,1,0,0:0:0:0:
192,192,50385,1,0,0:0:0:0:
192,192,50528,1,0,0:0:0:0:
64,192,50671,1,0,0:0:0:0:
64,192,50814,1,0,0:0:0:0:
448,192,50957,1,0,0:0:0:0:
64,192,51100,1,0,0:0:0:0:
192,192,51243,1,0,0:0:0:0:
320,192,51243,1,0,0:0:0:0:
192,192,51385,1,0,0:0:0:0:
448,192,51528,1,0,0:0:0:0:
320,192,51528,1,0,0:0:0:0:
448,192,51671,1,0,0:0:0:0:
64,192,51814,1,0,0:0:0:0:
320,192,51814,1,0,0:0:0:0:
64,192,51957,1,0,0:0:0:0:
320,192,52100,1,0,0:0:0:0:
192,192,52100,1,0,0:0:0:0:
320,192,52243,1,0,0:0:0:0:
192,192,52385,1,0,0:0:0:0:
448,192,52385,1,0,0:0:0:0:
192,192,52528,1,0,0:0:0:0:
320,192,52671,1,0,0:0:0:0:
448,192,52671,1,0,0:0:0:0:
448,192,52814,1,0,0:0:0:0:
320,192,52957,1,0,0:0:0:0:
320,192,53100,1,0,0:0:0:0:
64,192,53243,1,0,0:0:0:0:
448,192,53385,1,0,0:0:0:0:
64,192,53528,1,0,0:0:0:0:
320,192,53528,1,0,0:0:0:0:
320,192,53671,1,0,0:0:0:0:
192,192,53814,1,0,0:0:0:0:
64,192,53814,1,0,0:0:0:0:
192,192,53957,1,0,0:0:0:0:
448,192,54100,1,0,0:0:0:0:
64,192,54100,1,0,0:0:0:0:
448,192,54243,1,0,0:0:0:0:
192,192,54385,1,0,0:0:0:0:
320,192,54385,1,0,0:0:0:0:
192,192,54528,1,0,0:0:0:0:
320,192,54671,1,0,0:0:0:0:
64,192,54671,1,0,0:0:0:0:
320,192,54814,1,0,0:0:0:0:
192,192,54957,1,0,0:0:0:0:
64,192,54957,1,0,0:0:0:0:
64,192,55100,1,0,0:0:0:0:
320,192,55243,1,0,0:0:0:0:
192,192,55243,1,0,0:0:0:0:
192,192,55385,1,0,0:0:0:0:
64,192,55528,1,0,0:0:0:0:
448,192,55528,1,0,0:0:0:0:
64,192,55671,1,0,0:0:0:0:
448,192,55814,1,0,0:0:0:0:
192,192,55814,1,0,0:0:0:0:
448,192,55957,1,0,0:0:0:0:
64,192,56100,1,0,0:0:0:0:
320,192,56100,1,0,0:0:0:0:
192,192,56171,1,0,0:0:0:0:
320,192,56243,1,0,0:0:0:0:
192,192,56314,1,0,0:0:0:0:
64,192,56385,1,0,0:0:0:0:
448,192,56385,1,0,0:0:0:0:
320,192,56457,1,0,0:0:0:0:
448,192,56528,1,0,0:0:0:0:
320,192,56600,1,0,0:0:0:0:
64,192,56671,1,0,0:0:0:0:
192,192,56671,1,0,0:0:0:0:
64,192,56957,1,0,0:0:0:0:
448,192,57243,1,0,0:0:0:0:
192,192,57243,1,0,0:0:0:0:
320,192,57314,1,0,0:0:0:0:
192,192,57385,1,0,0:0:0:0:
320,192,57457,1,0,0:0:0:0:
192,192,57528,1,0,0:0:0:0:
448,192,57528,1,0,0:0:0:0:
64,192,57600,1,0,0:0:0:0:
448,192,57671,1,0,0:0:0:0:
320,192,57671,1,0,0:0:0:0:
192,192,57743,1,0,0:0:0:0:
320,192,57814,1,0,0:0:0:0:
192,192,57885,1,0,0:0:0:0:
320,192,57957,1,0,0:0:0:0:
64,192,58028,1,0,0:0:0:0:
192,192,58100,1,0,0:0:0:0:
448,192,58100,1,0,0:0:0:0:
320,192,58171,1,0,0:0:0:0:
64,192,58243,1,0,0:0:0:0:
448,192,58243,1,0,0:0:0:0:
320,192,58314,1,0,0:0:0:0:
64,192,58385,1,0,0:0:0:0:
192,192,58385,1,0,0:0:0:0:
448,192,58457,1,0,0:0:0:0:
192,192,58528,1,0,0:0:0:0:
64,192,58600,1,0,0:0:0:0:
320,192,58671,1,0,0:0:0:0:
448,192,58671,1,0,0:0:0:0:
192,192,58743,1,0,0:0:0:0:
448,192,58814,1,0,0:0:0:0:
64,192,58814,1,0,0:0:0:0:
192,192,58885,1,0,0:0:0:0:
448,192,58957,1,0,0:0:0:0:
64,192,59028,1,0,0:0:0:0:
320,192,59100,1,0,0:0:0:0:
192,192,59100,1,0,0:0:0:0:
448,192,59171,1,0,0:0:0:0:
64,192,59243,1,0,0:0:0:0:
320,192,59243,1,0,0:0:0:0:
448,192,59314,1,0,0:0:0:0:
192,192,59385,1,0,0:0:0:0:
320,192,59457,1,0,0:0:0:0:
64,192,59528,1,0,0:0:0:0:
192,192,59528,1,0,0:0:0:0:
320,192,59600,1,0,0:0:0:0:
448,192,59671,1,0,0:0:0:0:
192,192,59743,1,0,0:0:0:0:
320,192,59814,1,0,0:0:0:0:
64,192,59814,1,0,0:0:0:0:
448,192,59885,1,0,0:0:0:0:
64,192,59957,1,0,0:0:0:0:
448,192,60028,1,0,0:0:0:0:
320,192,60100,1,0,0:0:0:0:
192,192,60100,1,0,0:0:0:0:
64,192,60171,1,0,0:0:0:0:
192,192,60243,1,0,0:0:0:0:
64,192,60314,1,0,0:0:0:0:
320,192,60385,1,0,0:0:0:0:
448,192,60385,1,0,0:0:0:0:
192,192,60457,1,0,0:0:0:0:
448,192,60528,1,0,0:0:0:0:
64,192,60528,1,0,0:0:0:0:
320,192,60600,1,0,0:0:0:0:
64,192,60671,1,0,0:0:0:0:
320,192,60743,1,0,0:0:0:0:
192,192,60814,1,0,0:0:0:0:
64,192,60885,1,0,0:0:0:0:
320,192,60957,1,0,0:0:0:0:
448,192,60957,1,0,0:0:0:0:
192,192,61028,1,0,0:0:0:0:
448,192,61100,1,0,0:0:0:0:
320,192,61100,1,0,0:0:0:0:
64,192,61171,1,0,0:0:0:0:
448,192,61243,1,0,0:0:0:0:
192,192,61243,1,0,0:0:0:0:
320,192,61314,1,0,0:0:0:0:
64,192,61385,1,0,0:0:0:0:
320,192,61457,1,0,0:0:0:0:
192,192,61528,1,0,0:0:0:0:
448,192,61528,1,0,0:0:0:0:
64,192,61600,1,0,0:0:0:0:
192,192,61671,1,0,0:0:0:0:
64,192,61743,1,0,0:0:0:0:
448,192,61814,1,0,0:0:0:0:
320,192,61814,1,0,0:0:0:0:
192,192,61885,1,0,0:0:0:0:
320,192,61957,1,0,0:0:0:0:
192,192,62028,1,0,0:0:0:0:
320,192,62100,1,0,0:0:0:0:
64,192,62100,1,0,0:0:0:0:
448,192,62171,1,0,0:0:0:0:
64,192,62243,1,0,0:0:0:0:
192,192,62243,1,0,0:0:0:0:
320,192,62314,1,0,0:0:0:0:
192,192,62385,1,0,0:0:0:0:
320,192,62457,1,0,0:0:0:0:
192,192,62528,1,0,0:0:0:0:
448,192,62600,1,0,0:0:0:0:
320,192,62671,1,0,0:0:0:0:
64,192,62671,1,0,0:0:0:0:
192,192,62743,1,0,0:0:0:0:
448,192,62814,1,0,0:0:0:0:
64,192,62814,1,0,0:0:0:0:
192,192,62885,1,0,0:0:0:0:
448,192,62957,1,0,0:0:0:0:
320,192,62957,1,0,0:0:0:0:
64,192,63028,1,0,0:0:0:0:
320,192,63100,1,0,0:0:0:0:
448,192,63171,1,0,0:0:0:0:
192,192,63243,1,0,0:0:0:0:
64,192,63243,1,0,0:0:0:0:
320,192,63314,1,0,0:0:0:0:
64,192,63385,1,0,0:0:0:0:
448,192,63385,1,0,0:0:0:0:
320,192,63457,1,0,0:0:0:0:
64,192,63528,1,0,0:0:0:0:
448,192,63600,1,0,0:0:0:0:
192,192,63671,1,0,0:0:0:0:
320,192,63671,1,0,0:0:0:0:
64,192,63743,1,0,0:0:0:0:
448,192,63814,1,0,0:0:0:0:
192,192,63814,1,0,0:0:0:0:
64,192,63885,1,0,0:0:0:0:
320,192,63957,1,0,0:0:0:0:
192,192,64028,1,0,0:0:0:0:
448,192,64100,1,0,0:0:0:0:
320,192,64100,1,0,0:0:0:0:
192,192,64171,1,0,0:0:0:0:
64,192,64243,1,0,0:0:0:0:
320,192,64314,1,0,0:0:0:0:
192,192,64385,1,0,0:0:0:0:
448,192,64385,1,0,0:0:0:0:
64,192,64457,1,0,0:0:0:0:
448,192,64528,1,0,0:0:0:0:
64,192,64600,1,0,0:0:0:0:
192,192,64671,1,0,0:0:0:0:
320,192,64671,1,0,0:0:0:0:
448,192,64743,1,0,0:0:0:0:
320,192,64814,1,0,0:0:0:0:
448,192,64885,1,0,0:0:0:0:
192,192,64957,1,0,0:0:0:0:
64,192,64957,1,0,0:0:0:0:
320,192,65028,1,0,0:0:0:0:
64,192,65100,1,0,0:0:0:0:
448,192,65100,1,0,0:0:0:0:
192,192,65171,1,0,0:0:0:0:
320,192,65243,1,0,0:0:0:0:
448,192,65243,1,0,0:0:0:0:
320,192,65385,1,0,0:0:0:0:
192,192,65528,1,0,0:0:0:0:
64,192,65528,1,0,0:0:0:0:
320,192,65600,1,0,0:0:0:0:
64,192,65671,1,0,0:0:0:0:
192,192,65671,1,0,0:0:0:0:
448,192,65743,1,0,0:0:0:0:
320,192,65814,1,0,0:0:0:0:
64,192,65814,1,0,0:0:0:0:
192,192,65885,1,0,0:0:0:0:
320,192,65957,1,0,0:0:0:0:
192,192,66028,1,0,0:0:0:0:
448,192,66100,1,0,0:0:0:0:
64,192,66100,1,0,0:0:0:0:
320,192,66171,1,0,0:0:0:0:
448,192,66243,1,0,0:0:0:0:
320,192,66314,1,0,0:0:0:0:
192,192,66385,1,0,0:0:0:0:
64,192,66385,1,0,0:0:0:0:
448,192,66457,1,0,0:0:0:0:
64,192,66528,1,0,0:0:0:0:
448,192,66600,1,0,0:0:0:0:
64,192,66671,1,0,0:0:0:0:
320,192,66743,1,0,0:0:0:0:
448,192,66814,1,0,0:0:0:0:
192,192,66814,1,0,0:0:0:0:
64,192,66885,1,0,0:0:0:0:
320,192,66957,1,0,0:0:0:0:
448,192,66957,1,0,0:0:0:0:
192,192,67028,1,0,0:0:0:0:
320,192,67100,1,0,0:0:0:0:
192,192,67171,1,0,0:0:0:0:
64,192,67243,1,0,0:0:0:0:
448,192,67243,1,0,0:0:0:0:
320,192,67314,1,0,0:0:0:0:
192,192,67385,1,0,0:0:0:0:
448,192,67385,1,0,0:0:0:0:
320,192,67457,1,0,0:0:0:0:
192,192,67528,1,0,0:0:0:0:
64,192,67528,1,0,0:0:0:0:
448,192,67600,1,0,0:0:0:0:
320,192,67671,1,0,0:0:0:0:
64,192,67671,1,0,0:0:0:0:
192,192,67743,1,0,0:0:0:0:
64,192,67814,1,0,0:0:0:0:
192,192,67885,1,0,0:0:0:0:
320,192,67957,1,0,0:0:0:0:
448,192,67957,1,0,0:0:0:0:
64,192,68028,1,0,0:0:0:0:
320,192,68100,1,0,0:0:0:0:
192,192,68171,1,0,0:0:0:0:
448,192,68243,1,0,0:0:0:0:
64,192,68243,1,0,0:0:0:0:
320,192,68314,1,0,0:0:0:0:
448,192,68385,1,0,0:0:0:0:
192,192,68385,1,0,0:0:0:0:
320,192,68457,1,0,0:0:0:0:
192,192,68528,1,0,0:0:0:0:
64,192,68600,1,0,0:0:0:0:
320,192,68671,1,0,0:0:0:0:
448,192,68671,1,0,0:0:0:0:
192,192,68743,1,0,0:0:0:0:
320,192,68814,1,0,0:0:0:0:
192,192,68885,1,0,0:0:0:0:
320,192,68957,1,0,0:0:0:0:
64,192,69028,1,0,0:0:0:0:
192,192,69100,1,0,0:0:0:0:
448,192,69100,1,0,0:0:0:0:
320,192,69171,1,0,0:0:0:0:
192,192,69243,1,0,0:0:0:0:
64,192,69243,1,0,0:0:0:0:
448,192,69314,1,0,0:0:0:0:
64,192,69385,1,0,0:0:0:0:
448,192,69457,1,0,0:0:0:0:
320,192,69528,1,0,0:0:0:0:
192,192,69528,1,0,0:0:0:0:
64,192,69600,1,0,0:0:0:0:
448,192,69671,1,0,0:0:0:0:
192,192,69671,1,0,0:0:0:0:
64,192,69743,1,0,0:0:0:0:
320,192,69814,1,0,0:0:0:0:
448,192,69814,1,0,0:0:0:0:
192,192,69885,1,0,0:0:0:0:
320,192,69957,1,0,0:0:0:0:
64,192,69957,1,0,0:0:0:0:
448,192,70028,1,0,0:0:0:0:
320,192,70100,1,0,0:0:0:0:
192,192,70171,1,0,0:0:0:0:
448,192,70243,1,0,0:0:0:0:
64,192,70243,1,0,0:0:0:0:
320,192,70314,1,0,0:0:0:0:
64,192,70385,1,0,0:0:0:0:
448,192,70457,1,0,0:0:0:0:
192,192,70528,1,0,0:0:0:0:
320,192,70528,1,0,0:0:0:0:
64,192,70600,1,0,0:0:0:0:
320,192,70671,1,0,0:0:0:0:
448,192,70671,1,0,0:0:0:0:
192,192,70743,1,0,0:0:0:0:
64,192,70814,1,0,0:0:0:0:
192,192,70885,1,0,0:0:0:0:
320,192,70957,1,0,0:0:0:0:
448,192,70957,1,0,0:0:0:0:
64,192,71028,1,0,0:0:0:0:
448,192,71100,1,0,0:0:0:0:
64,192,71171,1,0,0:0:0:0:
448,192,71243,1,0,0:0:0:0:
192,192,71314,1,0,0:0:0:0:
64,192,71385,1,0,0:0:0:0:
320,192,71385,1,0,0:0:0:0:
448,192,71457,1,0,0:0:0:0:
192,192,71528,1,0,0:0:0:0:
64,192,71528,1,0,0:0:0:0:
320,192,71600,1,0,0:0:0:0:
192,192,71671,1,0,0:0:0:0:
320,192,71743,1,0,0:0:0:0:
448,192,71814,1,0,0:0:0:0:
64,192,71814,1,0,0:0:0:0:
192,192,71885,1,0,0:0:0:0:
320,192,71957,1,0,0:0:0:0:
64,192,71957,1,0,0:0:0:0:
192,192,72028,1,0,0:0:0:0:
320,192,72100,1,0,0:0:0:0:
448,192,72100,1,0,0:0:0:0:
64,192,72171,1,0,0:0:0:0:
192,192,72243,1,0,0:0:0:0:
448,192,72243,1,0,0:0:0:0:
320,192,72314,1,0,0:0:0:0:
448,192,72385,1,0,0:0:0:0:
320,192,72457,1,0,0:0:0:0:
192,192,72528,1,0,0:0:0:0:
64,192,72528,1,0,0:0:0:0:
448,192,72600,1,0,0:0:0:0:
192,192,72671,1,0,0:0:0:0:
320,192,72743,1,0,0:0:0:0:
64,192,72814,1,0,0:0:0:0:
448,192,72814,1,0,0:0:0:0:
192,192,72885,1,0,0:0:0:0:
64,192,72957,1,0,0:0:0:0:
320,192,72957,1,0,0:0:0:0:
192,192,73028,1,0,0:0:0:0:
320,192,73100,1,0,0:0:0:0:
448,192,73171,1,0,0:0:0:0:
192,192,73243,1,0,0:0:0:0:
64,192,73243,1,0,0:0:0:0:
320,192,73314,1,0,0:0:0:0:
192,192,73385,1,0,0:0:0:0:
320,192,73457,1,0,0:0:0:0:
192,192,73528,5,0,0:0:0:0:
448,192,73600,1,0,0:0:0:0:
320,192,73671,1,0,0:0:0:0:
64,192,73671,1,0,0:0:0:0:
192,192,73743,1,0,0:0:0:0:
320,192,73814,1,0,0:0:0:0:
448,192,73814,1,0,0:0:0:0:
64,192,73885,1,0,0:0:0:0:
448,192,73957,1,0,0:0:0:0:
64,192,74028,1,0,0:0:0:0:
192,192,74100,1,0,0:0:0:0:
320,192,74100,1,0,0:0:0:0:
448,192,74171,1,0,0:0:0:0:
64,192,74243,1,0,0:0:0:0:
320,192,74243,1,0,0:0:0:0:
448,192,74314,1,0,0:0:0:0:
192,192,74385,1,0,0:0:0:0:
64,192,74385,1,0,0:0:0:0:
320,192,74457,1,0,0:0:0:0:
192,192,74528,1,0,0:0:0:0:
448,192,74528,1,0,0:0:0:0:
64,192,74600,1,0,0:0:0:0:
192,192,74671,1,0,0:0:0:0:
320,192,74671,1,0,0:0:0:0:
320,192,74814,1,0,0:0:0:0:
448,192,74814,1,0,0:0:0:0:
64,192,74885,1,0,0:0:0:0:
192,192,74885,1,0,0:0:0:0:
448,192,74957,1,0,0:0:0:0:
320,192,74957,1,0,0:0:0:0:
64,192,75100,1,0,0:0:0:0:
192,192,75100,1,0,0:0:0:0:
64,192,75243,1,0,0:0:0:0:
448,192,75243,1,0,0:0:0:0:
320,192,75385,1,0,0:0:0:0:
192,192,75385,1,0,0:0:0:0:
64,192,75528,1,0,0:0:0:0:
320,192,75528,1,0,0:0:0:0:
448,192,75528,1,0,0:0:0:0:
192,192,75600,1,0,0:0:0:0:
64,192,75671,1,0,0:0:0:0:
192,192,75743,1,0,0:0:0:0:
64,192,75814,1,0,0:0:0:0:
192,192,75885,1,0,0:0:0:0:
320,192,75957,1,0,0:0:0:0:
448,192,75957,1,0,0:0:0:0:
64,192,76028,1,0,0:0:0:0:
448,192,76100,1,0,0:0:0:0:
320,192,76100,1,0,0:0:0:0:
320,192,76385,1,0,0:0:0:0:
192,192,76385,1,0,0:0:0:0:
448,192,76671,1,0,0:0:0:0:
64,192,76671,1,0,0:0:0:0:
192,192,76743,1,0,0:0:0:0:
448,192,76814,1,0,0:0:0:0:
192,192,76885,1,0,0:0:0:0:
448,192,76957,1,0,0:0:0:0:
192,192,77028,1,0,0:0:0:0:
64,192,77100,1,0,0:0:0:0:
320,192,77100,1,0,0:0:0:0:
448,192,77171,1,0,0:0:0:0:
320,192,77243,1,0,0:0:0:0:
192,192,77385,1,0,0:0:0:0:
64,192,77528,1,0,0:0:0:0:
192,192,77671,1,0,0:0:0:0:
64,192,77814,1,0,0:0:0:0:
448,192,77814,1,0,0:0:0:0:
320,192,77885,1,0,0:0:0:0:
448,192,77957,1,0,0:0:0:0:
320,192,78028,1,0,0:0:0:0:
448,192,78100,1,0,0:0:0:0:
320,192,78171,1,0,0:0:0:0:
64,192,78243,1,0,0:0:0:0:
192,192,78243,1,0,0:0:0:0:
448,192,78314,1,0,0:0:0:0:
64,192,78385,1,0,0:0:0:0:
192,192,78385,1,0,0:0:0:0:
192,192,78671,1,0,0:0:0:0:
320,192,78671,1,0,0:0:0:0:
64,192,78957,1,0,0:0:0:0:
448,192,78957,1,0,0:0:0:0:
320,192,79028,1,0,0:0:0:0:
64,192,79100,1,0,0:0:0:0:
320,192,79171,1,0,0:0:0:0:
64,192,79243,1,0,0:0:0:0:
320,192,79314,1,0,0:0:0:0:
448,192,79385,1,0,0:0:0:0:
192,192,79385,1,0,0:0:0:0:
64,192,79457,1,0,0:0:0:0:
192,192,79528,1,0,0:0:0:0:
320,192,79671,1,0,0:0:0:0:
448,192,79814,1,0,0:0:0:0:
320,192,79957,1,0,0:0:0:0:
64,192,80100,1,0,0:0:0:0:
448,192,80100,1,0,0:0:0:0:
192,192,80171,1,0,0:0:0:0:
64,192,80243,1,0,0:0:0:0:
192,192,80314,1,0,0:0:0:0:
64,192,80385,1,0,0:0:0:0:
192,192,80457,1,0,0:0:0:0:
448,192,80528,1,0,0:0:0:0:
320,192,80528,1,0,0:0:0:0:
64,192,80600,1,0,0:0:0:0:
448,192,80671,1,0,0:0:0:0:
320,192,80671,1,0,0:0:0:0:
320,192,80957,1,0,0:0:0:0:
64,192,80957,1,0,0:0:0:0:
320,192,81243,1,0,0:0:0:0:
192,192,81243,1,0,0:0:0:0:
64,192,81314,1,0,0:0:0:0:
320,192,81385,1,0,0:0:0:0:
64,192,81457,1,0,0:0:0:0:
320,192,81528,1,0,0:0:0:0:
64,192,81600,1,0,0:0:0:0:
192,192,81671,1,0,0:0:0:0:
448,192,81671,1,0,0:0:0:0:
320,192,81743,1,0,0:0:0:0:
448,192,81814,1,0,0:0:0:0:
192,192,81957,1,0,0:0:0:0:
64,192,82100,1,0,0:0:0:0:
192,192,82243,1,0,0:0:0:0:
64,192,82385,1,0,0:0:0:0:
320,192,82385,1,0,0:0:0:0:
448,192,82457,1,0,0:0:0:0:
320,192,82528,1,0,0:0:0:0:
448,192,82600,1,0,0:0:0:0:
320,192,82671,1,0,0:0:0:0:
448,192,82743,1,0,0:0:0:0:
64,192,82814,1,0,0:0:0:0:
192,192,82814,1,0,0:0:0:0:
320,192,82885,1,0,0:0:0:0:
64,192,82957,1,0,0:0:0:0:
192,192,82957,1,0,0:0:0:0:
192,192,83243,1,0,0:0:0:0:
448,192,83243,1,0,0:0:0:0:
192,192,83528,1,0,0:0:0:0:
320,192,83528,1,0,0:0:0:0:
448,192,83600,1,0,0:0:0:0:
192,192,83671,1,0,0:0:0:0:
448,192,83743,1,0,0:0:0:0:
192,192,83814,1,0,0:0:0:0:
448,192,83885,1,0,0:0:0:0:
64,192,83957,1,0,0:0:0:0:
320,192,83957,1,0,0:0:0:0:
192,192,84028,1,0,0:0:0:0:
64,192,84100,1,0,0:0:0:0:
448,192,84243,1,0,0:0:0:0:
320,192,84385,1,0,0:0:0:0:
448,192,84528,1,0,0:0:0:0:
64,192,84671,1,0,0:0:0:0:
192,192,84671,1,0,0:0:0:0:
64,192,85100,1,0,0:0:0:0:
192,192,85100,1,0,0:0:0:0:
64,192,85528,1,0,0:0:0:0:
448,192,85528,1,0,0:0:0:0:
448,192,85814,1,0,0:0:0:0:
320,192,85814,1,0,0:0:0:0:
64,192,86100,1,0,0:0:0:0:
448,192,86100,1,0,0:0:0:0:
448,192,86243,1,0,0:0:0:0:
192,192,86243,1,0,0:0:0:0:
64,192,86243,1,0,0:0:0:0:
64,192,86671,1,0,0:0:0:0:
448,192,86671,1,0,0:0:0:0:
448,192,86957,1,0,0:0:0:0:
320,192,86957,1,0,0:0:0:0:
320,192,87243,1,0,0:0:0:0:
64,192,87243,1,0,0:0:0:0:
64,192,87385,1,0,0:0:0:0:
320,192,87385,1,0,0:0:0:0:
448,192,87385,1,0,0:0:0:0:
64,192,87814,1,0,0:0:0:0:
320,192,87814,1,0,0:0:0:0:
64,192,88100,1,0,0:0:0:0:
192,192,88100,1,0,0:0:0:0:
64,192,88385,1,0,0:0:0:0:
320,192,88385,1,0,0:0:0:0:
64,192,88528,1,0,0:0:0:0:
320,192,88528,1,0,0:0:0:0:
448,192,88528,1,0,0:0:0:0:
192,192,88957,1,0,0:0:0:0:
448,192,88957,1,0,0:0:0:0:
64,192,89243,1,0,0:0:0:0:
192,192,89243,1,0,0:0:0:0:
64,192,89528,1,0,0:0:0:0:
448,192,89528,1,0,0:0:0:0:
320,192,89671,1,0,0:0:0:0:
448,192,89671,1,0,0:0:0:0:
64,192,89671,1,0,0:0:0:0:
64,192,90100,1,0,0:0:0:0:
448,192,90100,1,0,0:0:0:0:
448,192,90385,1,0,0:0:0:0:
320,192,90385,1,0,0:0:0:0:
64,192,90671,1,0,0:0:0:0:
448,192,90671,1,0,0:0:0:0:
448,192,90814,1,0,0:0:0:0:
192,192,90814,1,0,0:0:0:0:
64,192,90814,1,0,0:0:0:0:
64,192,91243,1,0,0:0:0:0:
448,192,91243,1,0,0:0:0:0:
320,192,91528,1,0,0:0:0:0:
448,192,91528,1,0,0:0:0:0:
448,192,91814,1,0,0:0:0:0:
192,192,91814,1,0,0:0:0:0:
448,192,91957,1,0,0:0:0:0:
64,192,91957,1,0,0:0:0:0:
192,192,91957,1,0,0:0:0:0:
192,192,92385,1,0,0:0:0:0:
448,192,92385,1,0,0:0:0:0:
320,192,92671,1,0,0:0:0:0:
448,192,92671,1,0,0:0:0:0:
64,192,92671,1,0,0:0:0:0:
448,192,92957,1,0,0:0:0:0:
192,192,92957,1,0,0:0:0:0:
320,192,93028,1,0,0:0:0:0:
192,192,93100,1,0,0:0:0:0:
320,192,93171,1,0,0:0:0:0:
448,192,93243,1,0,0:0:0:0:
64,192,93243,1,0,0:0:0:0:
192,192,93314,1,0,0:0:0:0:
448,192,93385,1,0,0:0:0:0:
64,192,93385,1,0,0:0:0:0:
64,192,93814,1,0,0:0:0:0:
448,192,93814,1,0,0:0:0:0:
320,192,93957,1,0,0:0:0:0:
192,192,93957,1,0,0:0:0:0:
64,192,94028,1,0,0:0:0:0:
448,192,94100,1,0,0:0:0:0:
320,192,94100,1,0,0:0:0:0:
192,192,94171,1,0,0:0:0:0:
448,192,94243,1,0,0:0:0:0:
192,192,94314,1,0,0:0:0:0:
320,192,94385,1,0,0:0:0:0:
64,192,94385,1,0,0:0:0:0:
448,192,94457,1,0,0:0:0:0:
64,192,94528,1,0,0:0:0:0:
320,192,94600,1,0,0:0:0:0:
448,192,94671,1,0,0:0:0:0:
192,192,94671,1,0,0:0:0:0:
64,192,94743,1,0,0:0:0:0:
192,192,94814,1,0,0:0:0:0:
64,192,94885,1,0,0:0:0:0:
448,192,94957,1,0,0:0:0:0:
320,192,94957,1,0,0:0:0:0:
192,192,95028,1,0,0:0:0:0:
448,192,95100,1,0,0:0:0:0:
320,192,95100,1,0,0:0:0:0:
192,192,95171,1,0,0:0:0:0:
64,192,95243,1,0,0:0:0:0:
448,192,95314,1,0,0:0:0:0:
320,192,95385,1,0,0:0:0:0:
192,192,95385,1,0,0:0:0:0:
64,192,95457,1,0,0:0:0:0:
320,192,95528,1,0,0:0:0:0:
64,192,95600,1,0,0:0:0:0:
192,192,95671,1,0,0:0:0:0:
448,192,95671,1,0,0:0:0:0:
320,192,95743,1,0,0:0:0:0:
448,192,95814,1,0,0:0:0:0:
320,192,95885,1,0,0:0:0:0:
192,192,95957,1,0,0:0:0:0:
64,192,95957,1,0,0:0:0:0:
448,192,96028,1,0,0:0:0:0:
192,192,96100,1,0,0:0:0:0:
64,192,96171,1,0,0:0:0:0:
448,192,96243,1,0,0:0:0:0:
320,192,96243,1,0,0:0:0:0:
192,192,96314,1,0,0:0:0:0:
320,192,96385,1,0,0:0:0:0:
448,192,96385,1,0,0:0:0:0:
64,192,96457,1,0,0:0:0:0:
320,192,96528,1,0,0:0:0:0:
64,192,96600,1,0,0:0:0:0:
448,192,96671,1,0,0:0:0:0:
192,192,96671,1,0,0:0:0:0:
320,192,96743,1,0,0:0:0:0:
192,192,96814,1,0,0:0:0:0:
448,192,96885,1,0,0:0:0:0:
320,192,96957,1,0,0:0:0:0:
64,192,96957,1,0,0:0:0:0:
192,192,97028,1,0,0:0:0:0:
64,192,97100,1,0,0:0:0:0:
192,192,97171,1,0,0:0:0:0:
448,192,97243,1,0,0:0:0:0:
320,192,97243,1,0,0:0:0:0:
64,192,97314,1,0,0:0:0:0:
448,192,97385,1,0,0:0:0:0:
320,192,97385,1,0,0:0:0:0:
64,192,97457,1,0,0:0:0:0:
448,192,97528,1,0,0:0:0:0:
192,192,97528,1,0,0:0:0:0:
320,192,97600,1,0,0:0:0:0:
64,192,97671,1,0,0:0:0:0:
192,192,97671,1,0,0:0:0:0:
320,192,97743,1,0,0:0:0:0:
448,192,97814,1,0,0:0:0:0:
64,192,97885,1,0,0:0:0:0:
320,192,97957,1,0,0:0:0:0:
192,192,97957,1,0,0:0:0:0:
448,192,98028,1,0,0:0:0:0:
192,192,98100,1,0,0:0:0:0:
448,192,98171,1,0,0:0:0:0:
320,192,98243,1,0,0:0:0:0:
64,192,98243,1,0,0:0:0:0:
192,192,98314,1,0,0:0:0:0:
64,192,98385,1,0,0:0:0:0:
192,192,98457,1,0,0:0:0:0:
320,192,98528,1,0,0:0:0:0:
64,192,98600,1,0,0:0:0:0:
320,192,98671,1,0,0:0:0:0:
448,192,98671,1,0,0:0:0:0:
192,192,98743,1,0,0:0:0:0:
448,192,98814,1,0,0:0:0:0:
192,192,98885,1,0,0:0:0:0:
320,192,98957,1,0,0:0:0:0:
64,192,98957,1,0,0:0:0:0:
448,192,99028,1,0,0:0:0:0:
64,192,99100,1,0,0:0:0:0:
320,192,99171,1,0,0:0:0:0:
448,192,99243,1,0,0:0:0:0:
192,192,99243,1,0,0:0:0:0:
64,192,99314,1,0,0:0:0:0:
192,192,99385,1,0,0:0:0:0:
64,192,99457,1,0,0:0:0:0:
448,192,99528,1,0,0:0:0:0:
320,192,99528,1,0,0:0:0:0:
192,192,99600,1,0,0:0:0:0:
320,192,99671,1,0,0:0:0:0:
192,192,99743,1,0,0:0:0:0:
64,192,99814,1,0,0:0:0:0:
448,192,99885,1,0,0:0:0:0:
320,192,99957,1,0,0:0:0:0:
192,192,99957,1,0,0:0:0:0:
64,192,100028,1,0,0:0:0:0:
320,192,100100,1,0,0:0:0:0:
64,192,100171,1,0,0:0:0:0:
192,192,100243,1,0,0:0:0:0:
448,192,100243,1,0,0:0:0:0:
320,192,100314,1,0,0:0:0:0:
448,192,100385,1,0,0:0:0:0:
320,192,100457,1,0,0:0:0:0:
192,192,100528,1,0,0:0:0:0:
64,192,100528,1,0,0:0:0:0:
448,192,100600,1,0,0:0:0:0:
192,192,100671,1,0,0:0:0:0:
64,192,100743,1,0,0:0:0:0:
320,192,100814,1,0,0:0:0:0:
192,192,100885,1,0,0:0:0:0:
448,192,100957,1,0,0:0:0:0:
320,192,100957,1,0,0:0:0:0:
64,192,101028,1,0,0:0:0:0:
448,192,101100,1,0,0:0:0:0:
64,192,101171,1,0,0:0:0:0:
320,192,101243,1,0,0:0:0:0:
192,192,101243,1,0,0:0:0:0:
448,192,101314,1,0,0:0:0:0:
320,192,101385,1,0,0:0:0:0:
448,192,101457,1,0,0:0:0:0:
64,192,101528,1,0,0:0:0:0:
192,192,101528,1,0,0:0:0:0:
320,192,101600,1,0,0:0:0:0:
64,192,101671,1,0,0:0:0:0:
320,192,101743,1,0,0:0:0:0:
192,192,101814,1,0,0:0:0:0:
448,192,101814,1,0,0:0:0:0:
64,192,101885,1,0,0:0:0:0:
192,192,101957,1,0,0:0:0:0:
64,192,102028,1,0,0:0:0:0:
320,192,102100,5,0,0:0:0:0:
448,192,102100,1,0,0:0:0:0:
192,192,102171,1,0,0:0:0:0:
320,192,102243,1,0,0:0:0:0:
448,192,102314,1,0,0:0:0:0:
64,192,102385,1,0,0:0:0:0:
192,192,102385,1,0,0:0:0:0:
320,192,102457,1,0,0:0:0:0:
64,192,102528,1,0,0:0:0:0:
448,192,102528,1,0,0:0:0:0:
192,192,102600,1,0,0:0:0:0:
448,192,102671,1,0,0:0:0:0:
320,192,102671,1,0,0:0:0:0:
64,192,102743,1,0,0:0:0:0:
448,192,102814,1,0,0:0:0:0:
320,192,102814,1,0,0:0:0:0:
64,192,102885,1,0,0:0:0:0:
320,192,102957,1,0,0:0:0:0:
192,192,102957,1,0,0:0:0:0:
448,192,103243,5,0,0:0:0:0:
448,192,103385,1,0,0:0:0:0:
64,192,103528,1,0,0:0:0:0:
192,192,103671,1,0,0:0:0:0:
320,192,103814,1,0,0:0:0:0:
320,192,104100,1,0,0:0:0:0:
320,192,104385,1,0,0:0:0:0:
320,192,104528,1,0,0:0:0:0:
64,192,104671,1,0,0:0:0:0:
192,192,104814,1,0,0:0:0:0:
448,192,104957,1,0,0:0:0:0:
448,192,105243,1,0,0:0:0:0:
448,192,105528,1,0,0:0:0:0:
448,192,105671,1,0,0:0:0:0:
64,192,105814,1,0,0:0:0:0:
192,192,105957,1,0,0:0:0:0:
320,192,106100,1,0,0:0:0:0:
64,192,106100,1,0,0:0:0:0:
448,192,106100,1,0,0:0:0:0:
320,192,106385,1,0,0:0:0:0:
320,192,106528,1,0,0:0:0:0:
448,192,106671,1,0,0:0:0:0:
448,192,106814,1,0,0:0:0:0:
64,192,106957,1,0,0:0:0:0:
192,192,107100,1,0,0:0:0:0:
64,192,107243,1,0,0:0:0:0:
320,192,107243,1,0,0:0:0:0:
448,192,107243,1,0,0:0:0:0:
448,192,107528,1,0,0:0:0:0:
448,192,107814,1,0,0:0:0:0:
448,192,107957,1,0,0:0:0:0:
192,192,108100,1,0,0:0:0:0:
64,192,108243,1,0,0:0:0:0:
192,192,108385,1,0,0:0:0:0:
448,192,108385,1,0,0:0:0:0:
320,192,108385,1,0,0:0:0:0:
320,192,108671,1,0,0:0:0:0:
320,192,108814,1,0,0:0:0:0:
192,192,108957,1,0,0:0:0:0:
448,192,108957,1,0,0:0:0:0:
64,192,108957,1,0,0:0:0:0:
320,192,109100,1,0,0:0:0:0:
192,192,109243,1,0,0:0:0:0:
64,192,109385,1,0,0:0:0:0:
192,192,109528,1,0,0:0:0:0:
448,192,109528,1,0,0:0:0:0:
320,192,109528,1,0,0:0:0:0:
448,192,109814,1,0,0:0:0:0:
448,192,110100,1,0,0:0:0:0:
448,192,110243,1,0,0:0:0:0:
192,192,110385,1,0,0:0:0:0:
64,192,110528,1,0,0:0:0:0:
448,192,110671,1,0,0:0:0:0:
320,192,110671,1,0,0:0:0:0:
192,192,110671,1,0,0:0:0:0:
320,192,111100,1,0,0:0:0:0:
192,192,111243,1,0,0:0:0:0:
64,192,111243,1,0,0:0:0:0:
320,192,111385,1,0,0:0:0:0:
320,192,111671,1,0,0:0:0:0:
64,192,111814,1,0,0:0:0:0:
192,192,111814,1,0,0:0:0:0:
64,192,111957,1,0,0:0:0:0:
192,192,111957,1,0,0:0:0:0:
64,192,112100,1,0,0:0:0:0:
448,192,112100,1,0,0:0:0:0:
320,192,112171,1,0,0:0:0:0:
192,192,112243,1,0,0:0:0:0:
320,192,112314,1,0,0:0:0:0:
64,192,112385,1,0,0:0:0:0:
192,192,112385,1,0,0:0:0:0:
448,192,112457,1,0,0:0:0:0:
64,192,112528,1,0,0:0:0:0:
320,192,112600,1,0,0:0:0:0:
192,192,112671,1,0,0:0:0:0:
448,192,112671,1,0,0:0:0:0:
64,192,112743,1,0,0:0:0:0:
448,192,112814,1,0,0:0:0:0:
64,192,112885,1,0,0:0:0:0:
448,192,112957,1,0,0:0:0:0:
320,192,112957,1,0,0:0:0:0:
192,192,113028,1,0,0:0:0:0:
320,192,113100,1,0,0:0:0:0:
192,192,113171,1,0,0:0:0:0:
64,192,113243,1,0,0:0:0:0:
448,192,113243,1,0,0:0:0:0:
448,192,113385,1,0,0:0:0:0:
320,192,113385,1,0,0:0:0:0:
192,192,113528,1,0,0:0:0:0:
320,192,113528,1,0,0:0:0:0:
64,192,113671,1,0,0:0:0:0:
192,192,113671,1,0,0:0:0:0:
448,192,113814,1,0,0:0:0:0:
64,192,113814,1,0,0:0:0:0:
192,192,113885,1,0,0:0:0:0:
64,192,113957,1,0,0:0:0:0:
192,192,114028,1,0,0:0:0:0:
320,192,114100,1,0,0:0:0:0:
448,192,114171,1,0,0:0:0:0:
320,192,114243,1,0,0:0:0:0:
64,192,114314,1,0,0:0:0:0:
192,192,114385,1,0,0:0:0:0:
448,192,114385,1,0,0:0:0:0:
320,192,114457,1,0,0:0:0:0:
64,192,114528,1,0,0:0:0:0:
320,192,114600,1,0,0:0:0:0:
64,192,114671,1,0,0:0:0:0:
192,192,114671,1,0,0:0:0:0:
448,192,114743,1,0,0:0:0:0:
192,192,114814,1,0,0:0:0:0:
320,192,114885,1,0,0:0:0:0:
64,192,114957,1,0,0:0:0:0:
448,192,114957,1,0,0:0:0:0:
192,192,115028,1,0,0:0:0:0:
448,192,115100,1,0,0:0:0:0:
192,192,115171,1,0,0:0:0:0:
448,192,115243,1,0,0:0:0:0:
320,192,115243,1,0,0:0:0:0:
64,192,115314,1,0,0:0:0:0:
320,192,115385,1,0,0:0:0:0:
64,192,115457,1,0,0:0:0:0:
192,192,115528,1,0,0:0:0:0:
448,192,115528,1,0,0:0:0:0:
448,192,115671,1,0,0:0:0:0:
320,192,115671,1,0,0:0:0:0:
64,192,115814,1,0,0:0:0:0:
320,192,115814,1,0,0:0:0:0:
64,192,115957,1,0,0:0:0:0:
192,192,115957,1,0,0:0:0:0:
448,192,116100,1,0,0:0:0:0:
192,192,116100,1,0,0:0:0:0:
64,192,116171,1,0,0:0:0:0:
192,192,116243,1,0,0:0:0:0:
64,192,116314,1,0,0:0:0:0:
448,192,116385,1,0,0:0:0:0:
320,192,116457,1,0,0:0:0:0:
448,192,116528,1,0,0:0:0:0:
192,192,116600,1,0,0:0:0:0:
64,192,116671,1,0,0:0:0:0:
320,192,116671,1,0,0:0:0:0:
448,192,116743,1,0,0:0:0:0:
192,192,116814,1,0,0:0:0:0:
448,192,116885,1,0,0:0:0:0:
64,192,116957,1,0,0:0:0:0:
192,192,116957,1,0,0:0:0:0:
320,192,117028,1,0,0:0:0:0:
64,192,117100,1,0,0:0:0:0:
448,192,117171,1,0,0:0:0:0:
192,192,117243,1,0,0:0:0:0:
320,192,117243,1,0,0:0:0:0:
64,192,117314,1,0,0:0:0:0:
320,192,117385,1,0,0:0:0:0:
64,192,117457,1,0,0:0:0:0:
448,192,117528,1,0,0:0:0:0:
320,192,117528,1,0,0:0:0:0:
192,192,117600,1,0,0:0:0:0:
448,192,117671,1,0,0:0:0:0:
192,192,117743,1,0,0:0:0:0:
64,192,117814,1,0,0:0:0:0:
320,192,117814,1,0,0:0:0:0:
448,192,117957,1,0,0:0:0:0:
320,192,117957,1,0,0:0:0:0:
64,192,118100,1,0,0:0:0:0:
448,192,118100,1,0,0:0:0:0:
64,192,118243,1,0,0:0:0:0:
192,192,118243,1,0,0:0:0:0:
448,192,118385,1,0,0:0:0:0:
192,192,118385,1,0,0:0:0:0:
64,192,118457,1,0,0:0:0:0:
192,192,118528,1,0,0:0:0:0:
64,192,118600,1,0,0:0:0:0:
320,192,118671,1,0,0:0:0:0:
448,192,118743,1,0,0:0:0:0:
320,192,118814,1,0,0:0:0:0:
192,192,118885,1,0,0:0:0:0:
448,192,118957,1,0,0:0:0:0:
64,192,118957,1,0,0:0:0:0:
320,192,119028,1,0,0:0:0:0:
192,192,119100,1,0,0:0:0:0:
320,192,119171,1,0,0:0:0:0:
192,192,119243,1,0,0:0:0:0:
64,192,119243,1,0,0:0:0:0:
448,192,119314,1,0,0:0:0:0:
64,192,119385,1,0,0:0:0:0:
320,192,119457,1,0,0:0:0:0:
448,192,119528,1,0,0:0:0:0:
192,192,119528,1,0,0:0:0:0:
64,192,119600,1,0,0:0:0:0:
448,192,119671,1,0,0:0:0:0:
64,192,119743,1,0,0:0:0:0:
320,192,119814,1,0,0:0:0:0:
448,192,119814,1,0,0:0:0:0:
192,192,119885,1,0,0:0:0:0:
320,192,119957,1,0,0:0:0:0:
192,192,120028,1,0,0:0:0:0:
64,192,120100,5,0,0:0:0:0:
448,192,120100,1,0,0:0:0:0:
320,192,120243,1,0,0:0:0:0:
448,192,120243,1,0,0:0:0:0:
320,192,120385,1,0,0:0:0:0:
192,192,120385,1,0,0:0:0:0:
192,192,120528,1,0,0:0:0:0:
64,192,120528,1,0,0:0:0:0:
64,192,120671,1,0,0:0:0:0:
448,192,120671,1,0,0:0:0:0:
192,192,120743,1,0,0:0:0:0:
64,192,120814,1,0,0:0:0:0:
192,192,120885,1,0,0:0:0:0:
320,192,120957,1,0,0:0:0:0:
448,192,121028,1,0,0:0:0:0:
320,192,121100,1,0,0:0:0:0:
448,192,121171,1,0,0:0:0:0:
192,192,121243,5,0,0:0:0:0:
64,192,121243,1,0,0:0:0:0:
192,192,121385,1,0,0:0:0:0:
448,192,121528,1,0,0:0:0:0:
192,192,121671,1,0,0:0:0:0:
64,192,121671,1,0,0:0:0:0:
192,192,121814,1,0,0:0:0:0:
64,192,121957,1,0,0:0:0:0:
192,192,122100,1,0,0:0:0:0:
448,192,122100,1,0,0:0:0:0:
448,192,122243,1,0,0:0:0:0:
192,192,122385,1,0,0:0:0:0:
320,192,122385,1,0,0:0:0:0:
192,192,122528,1,0,0:0:0:0:
320,192,122671,1,0,0:0:0:0:
448,192,122671,1,0,0:0:0:0:
320,192,122814,1,0,0:0:0:0:
64,192,122957,1,0,0:0:0:0:
448,192,122957,1,0,0:0:0:0:
64,192,123100,1,0,0:0:0:0:
192,192,123243,1,0,0:0:0:0:
320,192,123243,1,0,0:0:0:0:
320,192,123385,1,0,0:0:0:0:
64,192,123528,1,0,0:0:0:0:
192,192,123528,1,0,0:0:0:0:
192,192,123671,1,0,0:0:0:0:
64,192,123814,1,0,0:0:0:0:
64,192,123957,1,0,0:0:0:0:
448,192,124100,1,0,0:0:0:0:
64,192,124243,1,0,0:0:0:0:
192,192,124385,1,0,0:0:0:0:
320,192,124385,1,0,0:0:0:0:
192,192,124528,1,0,0:0:0:0:
448,192,124671,1,0,0:0:0:0:
320,192,124671,1,0,0:0:0:0:
448,192,124814,1,0,0:0:0:0:
64,192,124957,1,0,0:0:0:0:
320,192,124957,1,0,0:0:0:0:
64,192,125100,1,0,0:0:0:0:
320,192,125243,1,0,0:0:0:0:
192,192,125243,1,0,0:0:0:0:
320,192,125385,1,0,0:0:0:0:
192,192,125528,1,0,0:0:0:0:
448,192,125528,1,0,0:0:0:0:
192,192,125671,1,0,0:0:0:0:
320,192,125814,1,0,0:0:0:0:
448,192,125814,1,0,0:0:0:0:
448,192,125957,1,0,0:0:0:0:
320,192,126100,1,0,0:0:0:0:
320,192,126243,1,0,0:0:0:0:
64,192,126385,1,0,0:0:0:0:
448,192,126528,1,0,0:0:0:0:
64,192,126671,1,0,0:0:0:0:
320,192,126671,1,0,0:0:0:0:
320,192,126814,1,0,0:0:0:0:
192,192,126957,1,0,0:0:0:0:
64,192,126957,1,0,0:0:0:0:
192,192,127100,1,0,0:0:0:0:
448,192,127243,1,0,0:0:0:0:
64,192,127243,1,0,0:0:0:0:
448,192,127385,1,0,0:0:0:0:
192,192,127528,1,0,0:0:0:0:
320,192,127528,1,0,0:0:0:0:
192,192,127671,1,0,0:0:0:0:
320,192,127814,1,0,0:0:0:0:
64,192,127814,1,0,0:0:0:0:
320,192,127957,1,0,0:0:0:0:
192,192,128100,1,0,0:0:0:0:
64,192,128100,1,0,0:0:0:0:
64,192,128243,1,0,0:0:0:0:
320,192,128385,1,0,0:0:0:0:
192,192,128385,1,0,0:0:0:0:
192,192,128528,1,0,0:0:0:0:
64,192,128671,1,0,0:0:0:0:
448,192,128671,1,0,0:0:0:0:
64,192,128814,1,0,0:0:0:0:
448,192,128957,1,0,0:0:0:0:
192,192,128957,1,0,0:0:0:0:
448,192,129100,1,0,0:0:0:0:
64,192,129243,1,0,0:0:0:0:
320,192,129243,1,0,0:0:0:0:
192,192,129314,1,0,0:0:0:0:
320,192,129385,1,0,0:0:0:0:
192,192,129457,1,0,0:0:0:0:
64,192,129528,1,0,0:0:0:0:
448,192,129528,1,0,0:0:0:0:
320,192,129600,1,0,0:0:0:0:
448,192,129671,1,0,0:0:0:0:
320,192,129743,1,0,0:0:0:0:
64,192,129814,1,0,0:0:0:0:
192,192,129814,1,0,0:0:0:0:
192,192,131243,1,0,0:0:0:0:
320,192,131243,1,0,0:0:0:0:
64,192,131243,1,0,0:0:0:0:
448,192,131528,1,0,0:0:0:0:
192,192,131528,1,0,0:0:0:0:
320,192,131600,1,0,0:0:0:0:
192,192,131671,1,0,0:0:0:0:
320,192,131743,1,0,0:0:0:0:
192,192,131814,1,0,0:0:0:0:
448,192,131814,1,0,0:0:0:0:
64,192,131885,1,0,0:0:0:0:
448,192,131957,1,0,0:0:0:0:
320,192,131957,1,0,0:0:0:0:
192,192,132028,1,0,0:0:0:0:
320,192,132100,1,0,0:0:0:0:
192,192,132171,1,0,0:0:0:0:
320,192,132243,1,0,0:0:0:0:
64,192,132314,1,0,0:0:0:0:
192,192,132385,1,0,0:0:0:0:
448,192,132385,1,0,0:0:0:0:
320,192,132457,1,0,0:0:0:0:
64,192,132528,1,0,0:0:0:0:
448,192,132528,1,0,0:0:0:0:
320,192,132600,1,0,0:0:0:0:
64,192,132671,1,0,0:0:0:0:
192,192,132671,1,0,0:0:0:0:
448,192,132743,1,0,0:0:0:0:
192,192,132814,1,0,0:0:0:0:
64,192,132885,1,0,0:0:0:0:
320,192,132957,1,0,0:0:0:0:
448,192,132957,1,0,0:0:0:0:
192,192,133028,1,0,0:0:0:0:
448,192,133100,1,0,0:0:0:0:
64,192,133100,1,0,0:0:0:0:
192,192,133171,1,0,0:0:0:0:
448,192,133243,1,0,0:0:0:0:
64,192,133314,1,0,0:0:0:0:
320,192,133385,1,0,0:0:0:0:
192,192,133385,1,0,0:0:0:0:
448,192,133457,1,0,0:0:0:0:
64,192,133528,1,0,0:0:0:0:
320,192,133528,1,0,0:0:0:0:
448,192,133600,1,0,0:0:0:0:
192,192,133671,1,0,0:0:0:0:
320,192,133743,1,0,0:0:0:0:
64,192,133814,1,0,0:0:0:0:
192,192,133814,1,0,0:0:0:0:
320,192,133885,1,0,0:0:0:0:
448,192,133957,1,0,0:0:0:0:
192,192,134028,1,0,0:0:0:0:
320,192,134100,1,0,0:0:0:0:
64,192,134100,1,0,0:0:0:0:
448,192,134171,1,0,0:0:0:0:
64,192,134243,1,0,0:0:0:0:
448,192,134314,1,0,0:0:0:0:
320,192,134385,1,0,0:0:0:0:
192,192,134385,1,0,0:0:0:0:
64,192,134457,1,0,0:0:0:0:
192,192,134528,1,0,0:0:0:0:
64,192,134600,1,0,0:0:0:0:
320,192,134671,1,0,0:0:0:0:
448,192,134671,1,0,0:0:0:0:
192,192,134743,1,0,0:0:0:0:
448,192,134814,1,0,0:0:0:0:
64,192,134814,1,0,0:0:0:0:
320,192,134885,1,0,0:0:0:0:
64,192,134957,1,0,0:0:0:0:
320,192,135028,1,0,0:0:0:0:
192,192,135100,1,0,0:0:0:0:
64,192,135171,1,0,0:0:0:0:
320,192,135243,1,0,0:0:0:0:
448,192,135243,1,0,0:0:0:0:
192,192,135314,1,0,0:0:0:0:
448,192,135385,1,0,0:0:0:0:
320,192,135385,1,0,0:0:0:0:
64,192,135457,1,0,0:0:0:0:
448,192,135528,1,0,0:0:0:0:
192,192,135528,1,0,0:0:0:0:
320,192,135600,1,0,0:0:0:0:
64,192,135671,1,0,0:0:0:0:
320,192,135743,1,0,0:0:0:0:
192,192,135814,1,0,0:0:0:0:
448,192,135814,1,0,0:0:0:0:
64,192,135885,1,0,0:0:0:0:
192,192,135957,1,0,0:0:0:0:
64,192,136028,1,0,0:0:0:0:
448,192,136100,1,0,0:0:0:0:
320,192,136100,1,0,0:0:0:0:
192,192,136171,1,0,0:0:0:0:
320,192,136243,1,0,0:0:0:0:
192,192,136314,1,0,0:0:0:0:
320,192,136385,1,0,0:0:0:0:
64,192,136385,1,0,0:0:0:0:
448,192,136457,1,0,0:0:0:0:
64,192,136528,1,0,0:0:0:0:
192,192,136528,1,0,0:0:0:0:
320,192,136600,1,0,0:0:0:0:
192,192,136671,1,0,0:0:0:0:
320,192,136743,1,0,0:0:0:0:
192,192,136814,1,0,0:0:0:0:
448,192,136885,1,0,0:0:0:0:
320,192,136957,1,0,0:0:0:0:
64,192,136957,1,0,0:0:0:0:
192,192,137028,1,0,0:0:0:0:
448,192,137100,1,0,0:0:0:0:
64,192,137100,1,0,0:0:0:0:
192,192,137171,1,0,0:0:0:0:
448,192,137243,1,0,0:0:0:0:
320,192,137243,1,0,0:0:0:0:
64,192,137314,1,0,0:0:0:0:
320,192,137385,1,0,0:0:0:0:
448,192,137457,1,0,0:0:0:0:
192,192,137528,1,0,0:0:0:0:
64,192,137528,1,0,0:0:0:0:
320,192,137600,1,0,0:0:0:0:
64,192,137671,1,0,0:0:0:0:
448,192,137671,1,0,0:0:0:0:
320,192,137743,1,0,0:0:0:0:
64,192,137814,1,0,0:0:0:0:
448,192,137885,1,0,0:0:0:0:
192,192,137957,1,0,0:0:0:0:
320,192,137957,1,0,0:0:0:0:
64,192,138028,1,0,0:0:0:0:
448,192,138100,1,0,0:0:0:0:
192,192,138100,1,0,0:0:0:0:
64,192,138171,1,0,0:0:0:0:
320,192,138243,1,0,0:0:0:0:
192,192,138314,1,0,0:0:0:0:
448,192,138385,1,0,0:0:0:0:
320,192,138385,1,0,0:0:0:0:
192,192,138457,1,0,0:0:0:0:
64,192,138528,1,0,0:0:0:0:
320,192,138600,1,0,0:0:0:0:
192,192,138671,1,0,0:0:0:0:
448,192,138671,1,0,0:0:0:0:
64,192,138743,1,0,0:0:0:0:
448,192,138814,1,0,0:0:0:0:
64,192,138885,1,0,0:0:0:0:
192,192,138957,1,0,0:0:0:0:
320,192,138957,1,0,0:0:0:0:
448,192,139028,1,0,0:0:0:0:
320,192,139100,1,0,0:0:0:0:
448,192,139171,1,0,0:0:0:0:
192,192,139243,1,0,0:0:0:0:
64,192,139243,1,0,0:0:0:0:
320,192,139314,1,0,0:0:0:0:
64,192,139385,1,0,0:0:0:0:
448,192,139385,1,0,0:0:0:0:
192,192,139457,1,0,0:0:0:0:
448,192,139528,1,0,0:0:0:0:
320,192,140671,1,0,0:0:0:0:
64,192,140671,1,0,0:0:0:0:
448,192,140671,1,0,0:0:0:0:
192,192,140814,1,0,0:0:0:0:
448,192,140814,1,0,0:0:0:0:
64,192,140957,1,0,0:0:0:0:
448,192,140957,1,0,0:0:0:0:
64,192,141100,1,0,0:0:0:0:
192,192,141100,1,0,0:0:0:0:
320,192,141100,1,0,0:0:0:0:
448,192,141243,1,0,0:0:0:0:
192,192,141243,1,0,0:0:0:0:
320,192,141385,1,0,0:0:0:0:
192,192,141385,1,0,0:0:0:0:
64,192,141528,1,0,0:0:0:0:
320,192,141528,1,0,0:0:0:0:
448,192,141528,1,0,0:0:0:0:
192,192,141671,1,0,0:0:0:0:
64,192,141671,1,0,0:0:0:0:
320,192,141814,1,0,0:0:0:0:
448,192,141814,1,0,0:0:0:0:
192,192,141814,1,0,0:0:0:0:
448,192,141957,1,0,0:0:0:0:
64,192,141957,1,0,0:0:0:0:
320,192,142100,1,0,0:0:0:0:
64,192,142100,1,0,0:0:0:0:
192,192,142100,1,0,0:0:0:0:
448,192,142243,1,0,0:0:0:0:
320,192,142243,1,0,0:0:0:0:
64,192,142385,1,0,0:0:0:0:
448,192,142385,1,0,0:0:0:0:
64,192,142528,1,0,0:0:0:0:
192,192,142528,1,0,0:0:0:0:
320,192,142528,1,0,0:0:0:0:
192,192,142671,1,0,0:0:0:0:
448,192,142671,1,0,0:0:0:0:
320,192,142671,1,0,0:0:0:0:
64,192,142814,1,0,0:0:0:0:
448,192,142814,1,0,0:0:0:0:
320,192,142957,1,0,0:0:0:0:
192,192,142957,1,0,0:0:0:0:
448,192,143100,1,0,0:0:0:0:
192,192,143100,1,0,0:0:0:0:
64,192,143243,1,0,0:0:0:0:
320,192,143243,1,0,0:0:0:0:
448,192,143243,1,0,0:0:0:0:
64,192,143385,1,0,0:0:0:0:
192,192,143385,1,0,0:0:0:0:
320,192,143528,1,0,0:0:0:0:
192,192,143528,1,0,0:0:0:0:
448,192,143528,1,0,0:0:0:0:
320,192,143671,1,0,0:0:0:0:
448,192,143671,1,0,0:0:0:0:
64,192,143814,1,0,0:0:0:0:
192,192,143814,1,0,0:0:0:0:
448,192,143814,1,0,0:0:0:0:
192,192,143957,1,0,0:0:0:0:
320,192,143957,1,0,0:0:0:0:
320,192,144100,5,0,0:0:0:0:
64,192,144100,1,0,0:0:0:0:
448,192,144243,1,0,0:0:0:0:
192,192,144243,1,0,0:0:0:0:
64,192,144385,1,0,0:0:0:0:
320,192,144385,1,0,0:0:0:0:
448,192,144385,1,0,0:0:0:0:
192,192,144528,1,0,0:0:0:0:
320,192,144528,1,0,0:0:0:0:
64,192,144671,1,0,0:0:0:0:
192,192,144671,1,0,0:0:0:0:
448,192,144671,1,0,0:0:0:0:
64,192,144814,1,0,0:0:0:0:
320,192,144814,1,0,0:0:0:0:
448,192,144957,1,0,0:0:0:0:
320,192,144957,1,0,0:0:0:0:
192,192,144957,1,0,0:0:0:0:
64,192,145100,1,0,0:0:0:0:
448,192,145100,1,0,0:0:0:0:
192,192,145243,1,0,0:0:0:0:
320,192,145243,1,0,0:0:0:0:
64,192,145243,1,0,0:0:0:0:
448,192,145385,1,0,0:0:0:0:
192,192,145385,1,0,0:0:0:0:
320,192,145528,1,0,0:0:0:0:
192,192,145528,1,0,0:0:0:0:
448,192,145671,1,0,0:0:0:0:
320,192,145671,1,0,0:0:0:0:
64,192,145671,1,0,0:0:0:0:
192,192,145814,1,0,0:0:0:0:
448,192,145814,1,0,0:0:0:0:
64,192,145957,1,0,0:0:0:0:
448,192,145957,1,0,0:0:0:0:
320,192,146100,1,0,0:0:0:0:
192,192,146100,1,0,0:0:0:0:
64,192,146100,1,0,0:0:0:0:
320,192,146243,1,0,0:0:0:0:
448,192,146243,1,0,0:0:0:0:
192,192,146385,1,0,0:0:0:0:
64,192,146385,1,0,0:0:0:0:
448,192,146385,1,0,0:0:0:0:
192,192,146528,1,0,0:0:0:0:
320,192,146528,1,0,0:0:0:0:
64,192,146671,1,0,0:0:0:0:
448,192,146671,1,0,0:0:0:0:
320,192,146671,1,0,0:0:0:0:
64,192,146814,1,0,0:0:0:0:
192,192,146814,1,0,0:0:0:0:
320,192,146957,1,0,0:0:0:0:
192,192,146957,1,0,0:0:0:0:
320,192,147100,1,0,0:0:0:0:
64,192,147100,1,0,0:0:0:0:
448,192,147243,1,0,0:0:0:0:
64,192,147243,1,0,0:0:0:0:
192,192,147243,1,0,0:0:0:0:
448,192,147385,1,0,0:0:0:0:
320,192,147385,1,0,0:0:0:0:
64,192,147457,1,0,0:0:0:0:
320,192,147528,1,0,0:0:0:0:
192,192,147528,1,0,0:0:0:0:
64,192,147671,1,0,0:0:0:0:
192,192,147671,1,0,0:0:0:0:
320,192,147814,5,0,0:0:0:0:
448,192,147814,1,0,0:0:0:0:
192,192,147957,1,0,0:0:0:0:
320,192,147957,1,0,0:0:0:0:
64,192,148028,1,0,0:0:0:0:
192,192,148100,1,0,0:0:0:0:
448,192,148100,1,0,0:0:0:0:
320,192,148171,1,0,0:0:0:0:
64,192,148243,1,0,0:0:0:0:
320,192,148314,1,0,0:0:0:0:
448,192,148314,1,0,0:0:0:0:
64,192,148385,1,0,0:0:0:0:
192,192,148385,1,0,0:0:0:0:
448,192,148457,1,0,0:0:0:0:
192,192,148528,1,0,0:0:0:0:
448,192,148600,1,0,0:0:0:0:
64,192,148671,1,0,0:0:0:0:
320,192,148671,1,0,0:0:0:0:
192,192,148743,1,0,0:0:0:0:
64,192,148814,1,0,0:0:0:0:
448,192,148885,1,0,0:0:0:0:
192,192,148957,1,0,0:0:0:0:
320,192,148957,1,0,0:0:0:0:
448,192,149028,1,0,0:0:0:0:
192,192,149171,1,0,0:0:0:0:
64,192,149171,1,0,0:0:0:0:
320,192,149243,1,0,0:0:0:0:
64,192,149314,1,0,0:0:0:0:
320,192,149385,1,0,0:0:0:0:
64,192,149457,1,0,0:0:0:0:
448,192,149528,1,0,0:0:0:0:
320,192,149600,1,0,0:0:0:0:
448,192,149671,1,0,0:0:0:0:
320,192,149743,1,0,0:0:0:0:
192,192,149814,5,0,0:0:0:0:
64,192,149814,1,0,0:0:0:0:
448,192,149885,1,0,0:0:0:0:
64,192,149957,1,0,0:0:0:0:
448,192,150028,1,0,0:0:0:0:
192,192,150100,1,0,0:0:0:0:
64,192,150100,1,0,0:0:0:0:
320,192,150171,1,0,0:0:0:0:
448,192,150243,1,0,0:0:0:0:
192,192,150243,1,0,0:0:0:0:
64,192,150314,1,0,0:0:0:0:
320,192,150385,1,0,0:0:0:0:
448,192,150385,1,0,0:0:0:0:
192,192,150457,1,0,0:0:0:0:
320,192,150528,1,0,0:0:0:0:
192,192,150600,1,0,0:0:0:0:
64,192,150671,1,0,0:0:0:0:
448,192,150671,1,0,0:0:0:0:
320,192,150743,1,0,0:0:0:0:
192,192,150814,1,0,0:0:0:0:
448,192,150814,1,0,0:0:0:0:
320,192,150885,1,0,0:0:0:0:
192,192,150957,1,0,0:0:0:0:
64,192,150957,1,0,0:0:0:0:
448,192,151028,1,0,0:0:0:0:
320,192,151100,1,0,0:0:0:0:
64,192,151100,1,0,0:0:0:0:
192,192,151171,1,0,0:0:0:0:
64,192,151243,1,0,0:0:0:0:
192,192,151314,1,0,0:0:0:0:
320,192,151385,1,0,0:0:0:0:
448,192,151385,1,0,0:0:0:0:
64,192,151457,1,0,0:0:0:0:
320,192,151528,1,0,0:0:0:0:
192,192,151600,1,0,0:0:0:0:
448,192,151671,1,0,0:0:0:0:
64,192,151671,1,0,0:0:0:0:
320,192,151743,1,0,0:0:0:0:
448,192,151814,1,0,0:0:0:0:
192,192,151814,1,0,0:0:0:0:
320,192,151885,1,0,0:0:0:0:
192,192,151957,1,0,0:0:0:0:
64,192,152028,1,0,0:0:0:0:
320,192,152100,1,0,0:0:0:0:
448,192,152100,1,0,0:0:0:0:
192,192,152171,1,0,0:0:0:0:
320,192,152243,1,0,0:0:0:0:
192,192,152314,1,0,0:0:0:0:
320,192,152385,1,0,0:0:0:0:
64,192,152457,1,0,0:0:0:0:
192,192,152528,1,0,0:0:0:0:
448,192,152528,1,0,0:0:0:0:
320,192,152600,1,0,0:0:0:0:
192,192,152671,1,0,0:0:0:0:
64,192,152671,1,0,0:0:0:0:
448,192,152743,1,0,0:0:0:0:
320,192,152814,1,0,0:0:0:0:
64,192,152814,1,0,0:0:0:0:
448,192,152885,1,0,0:0:0:0:
320,192,152957,1,0,0:0:0:0:
192,192,152957,1,0,0:0:0:0:
64,192,153028,1,0,0:0:0:0:
448,192,153100,1,0,0:0:0:0:
192,192,153100,1,0,0:0:0:0:
64,192,153171,1,0,0:0:0:0:
320,192,153243,1,0,0:0:0:0:
448,192,153243,1,0,0:0:0:0:
192,192,153314,1,0,0:0:0:0:
320,192,153385,1,0,0:0:0:0:
64,192,153385,1,0,0:0:0:0:
448,192,153457,1,0,0:0:0:0:
320,192,153528,1,0,0:0:0:0:
192,192,153600,1,0,0:0:0:0:
64,192,153671,1,0,0:0:0:0:
448,192,153671,1,0,0:0:0:0:
320,192,153743,1,0,0:0:0:0:
448,192,153814,1,0,0:0:0:0:
320,192,153885,1,0,0:0:0:0:
64,192,153957,1,0,0:0:0:0:
192,192,153957,1,0,0:0:0:0:
448,192,154028,1,0,0:0:0:0:
64,192,154100,1,0,0:0:0:0:
320,192,154100,1,0,0:0:0:0:
192,192,154171,1,0,0:0:0:0:
64,192,154243,1,0,0:0:0:0:
192,192,154314,1,0,0:0:0:0:
320,192,154385,1,0,0:0:0:0:
448,192,154385,1,0,0:0:0:0:
64,192,154457,1,0,0:0:0:0:
448,192,154528,1,0,0:0:0:0:
64,192,154600,1,0,0:0:0:0:
448,192,154671,1,0,0:0:0:0:
192,192,154743,1,0,0:0:0:0:
64,192,154814,1,0,0:0:0:0:
320,192,154814,1,0,0:0:0:0:
448,192,154885,1,0,0:0:0:0:
192,192,154957,1,0,0:0:0:0:
64,192,154957,1,0,0:0:0:0:
320,192,155028,1,0,0:0:0:0:
192,192,155100,1,0,0:0:0:0:
320,192,155171,1,0,0:0:0:0:
448,192,155243,1,0,0:0:0:0:
64,192,155243,1,0,0:0:0:0:
192,192,155314,1,0,0:0:0:0:
320,192,155385,1,0,0:0:0:0:
64,192,155385,1,0,0:0:0:0:
192,192,155457,1,0,0:0:0:0:
320,192,155528,1,0,0:0:0:0:
448,192,155528,1,0,0:0:0:0:
64,192,155600,1,0,0:0:0:0:
192,192,155671,1,0,0:0:0:0:
448,192,155671,1,0,0:0:0:0:
320,192,155743,1,0,0:0:0:0:
448,192,155814,1,0,0:0:0:0:
320,192,155885,1,0,0:0:0:0:
192,192,155957,1,0,0:0:0:0:
64,192,155957,1,0,0:0:0:0:
448,192,156028,1,0,0:0:0:0:
192,192,156100,1,0,0:0:0:0:
320,192,156171,1,0,0:0:0:0:
64,192,156243,1,0,0:0:0:0:
448,192,156243,1,0,0:0:0:0:
192,192,156314,1,0,0:0:0:0:
64,192,156385,1,0,0:0:0:0:
320,192,156385,1,0,0:0:0:0:
192,192,156457,1,0,0:0:0:0:
320,192,156528,1,0,0:0:0:0:
448,192,156600,1,0,0:0:0:0:
192,192,156671,1,0,0:0:0:0:
64,192,156671,1,0,0:0:0:0:
320,192,156743,1,0,0:0:0:0:
192,192,156814,1,0,0:0:0:0:
320,192,156885,1,0,0:0:0:0:
192,192,156957,1,0,0:0:0:0:
448,192,157028,1,0,0:0:0:0:
320,192,157100,1,0,0:0:0:0:
64,192,157100,1,0,0:0:0:0:
192,192,157171,1,0,0:0:0:0:
320,192,157243,1,0,0:0:0:0:
448,192,157243,1,0,0:0:0:0:
64,192,157314,1,0,0:0:0:0:
448,192,157385,1,0,0:0:0:0:
64,192,157457,1,0,0:0:0:0:
192,192,157528,1,0,0:0:0:0:
320,192,157528,1,0,0:0:0:0:
448,192,157600,1,0,0:0:0:0:
64,192,157671,1,0,0:0:0:0:
320,192,157671,1,0,0:0:0:0:
448,192,157743,1,0,0:0:0:0:
192,192,157814,1,0,0:0:0:0:
64,192,157814,1,0,0:0:0:0:
320,192,157885,1,0,0:0:0:0:
192,192,157957,1,0,0:0:0:0:
448,192,157957,1,0,0:0:0:0:
64,192,158028,1,0,0:0:0:0:
192,192,158100,1,0,0:0:0:0:
320,192,158171,1,0,0:0:0:0:
64,192,158243,1,0,0:0:0:0:
448,192,158243,1,0,0:0:0:0:
192,192,158314,1,0,0:0:0:0:
320,192,158385,1,0,0:0:0:0:
448,192,158385,1,0,0:0:0:0:
64,192,158457,1,0,0:0:0:0:
320,192,158528,1,0,0:0:0:0:
448,192,158600,1,0,0:0:0:0:
192,192,158671,1,0,0:0:0:0:
64,192,158671,1,0,0:0:0:0:
320,192,158743,1,0,0:0:0:0:
192,192,158814,1,0,0:0:0:0:
448,192,158885,1,0,0:0:0:0:
64,192,158957,1,0,0:0:0:0:
320,192,158957,1,0,0:0:0:0:
192,192,159028,1,0,0:0:0:0:
320,192,159100,1,0,0:0:0:0:
192,192,159171,1,0,0:0:0:0:
64,192,159243,1,0,0:0:0:0:
320,192,159243,1,0,0:0:0:0:
448,192,159314,1,0,0:0:0:0:
64,192,159385,1,0,0:0:0:0:
192,192,159385,1,0,0:0:0:0:
320,192,159457,1,0,0:0:0:0:
448,192,159528,1,0,0:0:0:0:
192,192,159528,1,0,0:0:0:0:
64,192,159600,1,0,0:0:0:0:
448,192,159671,1,0,0:0:0:0:
64,192,159743,1,0,0:0:0:0:
320,192,159814,1,0,0:0:0:0:
192,192,159814,1,0,0:0:0:0:
448,192,159885,1,0,0:0:0:0:
64,192,159957,1,0,0:0:0:0:
320,192,159957,1,0,0:0:0:0:
448,192,160028,1,0,0:0:0:0:
64,192,160100,1,0,0:0:0:0:
192,192,160100,1,0,0:0:0:0:
448,192,160171,1,0,0:0:0:0:
320,192,160243,1,0,0:0:0:0:
192,192,160243,1,0,0:0:0:0:
64,192,160314,1,0,0:0:0:0:
320,192,160385,1,0,0:0:0:0:
448,192,160385,1,0,0:0:0:0:
64,192,160457,1,0,0:0:0:0:
192,192,160528,1,0,0:0:0:0:
448,192,160528,1,0,0:0:0:0:
320,192,160600,1,0,0:0:0:0:
64,192,160671,1,0,0:0:0:0:
192,192,160671,1,0,0:0:0:0:
320,192,160743,1,0,0:0:0:0:
64,192,160814,1,0,0:0:0:0:
448,192,160814,1,0,0:0:0:0:
192,192,160885,1,0,0:0:0:0:
448,192,160957,1,0,0:0:0:0:
320,192,160957,1,0,0:0:0:0:
192,192,161028,1,0,0:0:0:0:
320,192,161100,1,0,0:0:0:0:
448,192,161171,1,0,0:0:0:0:
64,192,161243,1,0,0:0:0:0:
192,192,161243,1,0,0:0:0:0:
320,192,161314,1,0,0:0:0:0:
64,192,161385,1,0,0:0:0:0:
320,192,161457,1,0,0:0:0:0:
448,192,161528,1,0,0:0:0:0:
64,192,161528,1,0,0:0:0:0:
192,192,161600,1,0,0:0:0:0:
448,192,161671,1,0,0:0:0:0:
320,192,161671,1,0,0:0:0:0:
192,192,161743,1,0,0:0:0:0:
64,192,161814,1,0,0:0:0:0:
448,192,161814,1,0,0:0:0:0:
320,192,161885,1,0,0:0:0:0:
64,192,161957,1,0,0:0:0:0:
320,192,162028,1,0,0:0:0:0:
192,192,162100,1,0,0:0:0:0:
448,192,162100,1,0,0:0:0:0:
64,192,162171,1,0,0:0:0:0:
320,192,162243,1,0,0:0:0:0:
192,192,162243,1,0,0:0:0:0:
64,192,162314,1,0,0:0:0:0:
448,192,162385,1,0,0:0:0:0:
320,192,162385,1,0,0:0:0:0:
192,192,162457,1,0,0:0:0:0:
64,192,162528,1,0,0:0:0:0:
448,192,162528,1,0,0:0:0:0:
320,192,162600,1,0,0:0:0:0:
192,192,162671,1,0,0:0:0:0:
64,192,162671,1,0,0:0:0:0:
448,192,162743,1,0,0:0:0:0:
192,192,162814,1,0,0:0:0:0:
320,192,162814,1,0,0:0:0:0:
64,192,162885,1,0,0:0:0:0:
448,192,162957,1,0,0:0:0:0:
320,192,162957,1,0,0:0:0:0:
64,192,163028,1,0,0:0:0:0:
320,192,163100,1,0,0:0:0:0:
192,192,163100,1,0,0:0:0:0:
448,192,163171,1,0,0:0:0:0:
64,192,163243,1,0,0:0:0:0:
192,192,163243,1,0,0:0:0:0:
320,192,163314,1,0,0:0:0:0:
64,192,163385,1,0,0:0:0:0:
448,192,163457,1,0,0:0:0:0:
192,192,163528,1,0,0:0:0:0:
320,192,163528,1,0,0:0:0:0:
64,192,163600,1,0,0:0:0:0:
448,192,163671,1,0,0:0:0:0:
64,192,163743,1,0,0:0:0:0:
448,192,163814,1,0,0:0:0:0:
192,192,163814,1,0,0:0:0:0:
320,192,163885,1,0,0:0:0:0:
192,192,163957,1,0,0:0:0:0:
64,192,163957,1,0,0:0:0:0:
448,192,164028,1,0,0:0:0:0:
64,192,164100,1,0,0:0:0:0:
320,192,164100,1,0,0:0:0:0:
192,192,164171,1,0,0:0:0:0:
320,192,164243,1,0,0:0:0:0:
192,192,164314,1,0,0:0:0:0:
64,192,164385,1,0,0:0:0:0:
448,192,164385,1,0,0:0:0:0:
320,192,164457,1,0,0:0:0:0:
448,192,164528,1,0,0:0:0:0:
192,192,164528,1,0,0:0:0:0:
320,192,164600,1,0,0:0:0:0:
192,192,164671,1,0,0:0:0:0:
64,192,164671,1,0,0:0:0:0:
320,192,164743,1,0,0:0:0:0:
64,192,164814,1,0,0:0:0:0:
448,192,164814,1,0,0:0:0:0:
192,192,164885,1,0,0:0:0:0:
448,192,164957,1,0,0:0:0:0:
320,192,164957,1,0,0:0:0:0:
192,192,165028,1,0,0:0:0:0:
320,192,165100,1,0,0:0:0:0:
64,192,165100,1,0,0:0:0:0:
448,192,165171,1,0,0:0:0:0:
192,192,165243,1,0,0:0:0:0:
64,192,165243,1,0,0:0:0:0:
448,192,165314,1,0,0:0:0:0:
320,192,165385,1,0,0:0:0:0:
192,192,165385,1,0,0:0:0:0:
64,192,165457,1,0,0:0:0:0:
320,192,165528,1,0,0:0:0:0:
448,192,165528,1,0,0:0:0:0:
64,192,165600,1,0,0:0:0:0:
320,192,165671,1,0,0:0:0:0:
448,192,165743,1,0,0:0:0:0:
192,192,165814,1,0,0:0:0:0:
64,192,165814,1,0,0:0:0:0:
320,192,165885,1,0,0:0:0:0:
192,192,165957,1,0,0:0:0:0:
320,192,166028,1,0,0:0:0:0:
192,192,166100,1,0,0:0:0:0:
448,192,166100,1,0,0:0:0:0:
64,192,166171,1,0,0:0:0:0:
320,192,166243,1,0,0:0:0:0:
448,192,166243,1,0,0:0:0:0:
64,192,166314,1,0,0:0:0:0:
448,192,166385,1,0,0:0:0:0:
192,192,166385,1,0,0:0:0:0:
320,192,166457,1,0,0:0:0:0:
192,192,166528,1,0,0:0:0:0:
320,192,166600,1,0,0:0:0:0:
448,192,166671,1,0,0:0:0:0:
64,192,166671,1,0,0:0:0:0:
192,192,166743,1,0,0:0:0:0:
64,192,166814,1,0,0:0:0:0:
320,192,166814,1,0,0:0:0:0:
192,192,166885,1,0,0:0:0:0:
320,192,166957,1,0,0:0:0:0:
448,192,166957,1,0,0:0:0:0:
64,192,167028,1,0,0:0:0:0:
448,192,167100,1,0,0:0:0:0:
192,192,167100,1,0,0:0:0:0:
320,192,167171,1,0,0:0:0:0:
64,192,167243,1,0,0:0:0:0:
192,192,167243,1,0,0:0:0:0:
448,192,167314,1,0,0:0:0:0:
320,192,167385,1,0,0:0:0:0:
64,192,167385,1,0,0:0:0:0:
192,192,167457,1,0,0:0:0:0:
320,192,167528,1,0,0:0:0:0:
448,192,167528,1,0,0:0:0:0:
64,192,167671,1,0,0:0:0:0:
448,192,167671,1,0,0:0:0:0:
192,192,167814,1,0,0:0:0:0:
320,192,167814,1,0,0:0:0:0:
192,192,167957,1,0,0:0:0:0:
64,192,167957,1,0,0:0:0:0:
320,192,168028,1,0,0:0:0:0:
448,192,168028,1,0,0:0:0:0:
64,192,168100,1,0,0:0:0:0:
192,192,168100,1,0,0:0:0:0:
