osu file format v14

[General]
AudioFilename: audio.mp3
AudioLeadIn: 0
PreviewTime: 69094
Countdown: 0
SampleSet: Normal
StackLeniency: 0.7
Mode: 0
LetterboxInBreaks: 0
WidescreenStoryboard: 0

[Editor]
Bookmarks: 22998
DistanceSpacing: 1.5
BeatDivisor: 4
GridSize: 8
TimelineZoom: 1

[Metadata]
Title:Kanashimi no Nami ni Oboreru (Yuaru ver.)
TitleUnicode:Kanashimi no Nami ni Oboreru (Yuaru ver.)
Artist:Yuaru
ArtistUnicode:Yuaru
Creator:Rekinaja
Version:Ball Fish
Source:
Tags:
BeatmapID:1236958
BeatmapSetID:584674

[Difficulty]
HPDrainRate:7
CircleSize:4
OverallDifficulty:7
ApproachRate:9
SliderMultiplier:1.6
SliderTickRate:1

[Events]
//Background and Video events
0,0,"sea_bubbles_spikes_eye_ball_fish_ocean_underwater_1920x1080.jpg",0,0
//Break Periods
2,37693,41949
2,43254,47679
2,79827,89477
2,132412,136668
//Storyboard Layer 0 (Background)
//Storyboard Layer 1 (Fail)
//Storyboard Layer 2 (Pass)
//Storyboard Layer 3 (Foreground)
//Storyboard Sound Samples

[TimingPoints]
5302,337.078651685393,4,1,0,50,1,0
5303,-133.333333333333,4,1,0,50,0,0
16088,-100,4,1,0,50,0,0
59234,-80,4,1,0,50,0,0
69346,-133.333333333333,4,1,0,50,0,0
69852,-66.6666666666667,4,1,0,50,0,1
79290,-100,4,1,0,50,0,0
111818,-80,4,1,0,50,0,0
121594,-133.333333333333,4,1,0,50,0,0
122605,-66.6666666666667,4,1,0,50,0,1
131875,-100,4,1,0,50,0,0
148223,-80,4,1,0,50,0,0
157830,-200,4,1,0,50,0,0
158335,-133.333333333333,4,1,0,50,0,0
159009,-66.6666666666667,4,1,0,50,0,1
179234,-133.333333333333,4,1,0,50,0,0
190021,-200,4,1,0,25,0,0
199459,-200,4,1,0,20,0,0
199627,-200,4,1,0,15,0,0
199964,-200,4,1,0,10,0,0

[Colours]
Combo1 : 128,64,0
Combo2 : 255,128,64
Combo3 : 128,255,128
Combo4 : 0,128,0

[HitObjects]
128,96,5303,6,0,L|256:96,1,120.000004577637
132,168,5807,2,0,L|212:168,1,60.0000022888184
192,168,6144,5,0,0:0:0:0:
200,304,6313,1,0,0:0:0:0:
256,240,6481,1,0,0:0:0:0:
312,168,6650,2,0,L|184:168,1,120.000004577637
56,168,7155,1,0,0:0:0:0:
128,96,7324,1,0,0:0:0:0:
128,96,7661,5,0,0:0:0:0:
128,344,7830,1,0,0:0:0:0:
128,96,7998,1,0,0:0:0:0:
128,344,8167,2,0,L|128:144,1,180.000006866455
200,88,8841,1,0,0:0:0:0:
312,88,9009,1,0,0:0:0:0:
200,344,9178,2,0,L|200:164,1,180.000006866455
200,24,9852,1,0,0:0:0:0:
128,168,10021,2,0,L|128:232,1,60.0000022888184
200,344,10358,2,0,L|200:264,1,60.0000022888184
208,168,10695,6,0,P|264:152|328:176,1,120.000004577637
264,288,11200,2,0,P|224:288|192:272,1,60.0000022888184
248,80,11537,1,0,0:0:0:0:
224,176,11706,1,0,0:0:0:0:
199,278,11875,2,0,P|255:293|312:275,1,120.000004577637
408,192,12380,1,0,0:0:0:0:
368,336,12549,1,0,0:0:0:0:
224,176,12717,1,0,0:0:0:0:
224,176,13223,5,0,0:0:0:0:
152,232,13391,1,0,0:0:0:0:
224,176,13560,2,0,P|256:208|192:312,1,180.000006866455
224,176,14234,1,0,0:0:0:0:
96,96,14403,1,0,0:0:0:0:
244,41,14571,2,0,P|276:73|212:177,1,180.000006866455
88,168,15245,1,0,0:0:0:0:
203,310,15414,2,0,P|212:281|204:253,1,60.0000022888184
88,168,15751,2,0,P|78:196|86:224,1,60.0000022888184
256,128,16088,5,0,0:0:0:0:
192,352,16257,2,0,L|192:272,1,80
360,88,16594,2,0,L|360:168,1,80
192,272,16931,1,0,0:0:0:0:
360,88,17099,1,0,0:0:0:0:
192,272,17268,2,0,B|192:208|192:208|168:184|168:184|200:160|200:160|168:128,1,160
184,48,17773,1,0,0:0:0:0:
352,240,17942,1,0,0:0:0:0:
184,48,18110,2,0,L|184:136,1,80
352,240,18448,2,0,L|352:144,1,80
352,48,18785,5,0,0:0:0:0:
64,152,18953,2,0,L|152:152,1,80
440,232,19290,2,0,L|352:232,1,80
144,152,19627,1,0,0:0:0:0:
360,232,19796,1,0,0:0:0:0:
215,106,19964,1,0,0:0:0:0:
292,273,20133,1,0,0:0:0:0:
297,75,20301,1,0,0:0:0:0:
214,300,20470,1,0,0:0:0:0:
256,192,20639,1,0,0:0:0:0:
256,192,20976,5,0,0:0:0:0:
297,308,21144,1,0,0:0:0:0:
214,83,21313,1,0,0:0:0:0:
128,192,21481,5,0,0:0:0:0:
192,344,21650,2,0,L|192:248,1,80
72,40,21987,2,0,L|72:136,1,80
192,264,22324,1,0,0:0:0:0:
72,120,22493,1,0,0:0:0:0:
272,200,22661,2,0,L|272:112,1,80
80,264,22998,2,0,L|80:352,1,80
272,120,23335,1,0,0:0:0:0:
80,344,23504,1,0,0:0:0:0:
272,200,23672,1,0,0:0:0:0:
88,344,23841,2,0,L|88:232,1,80
88,120,24178,5,0,0:0:0:0:
88,120,24346,2,0,L|176:120,1,80
424,264,24684,2,0,L|336:264,1,80
256,120,25021,1,0,0:0:0:0:
256,272,25189,1,0,0:0:0:0:
256,40,25358,1,0,0:0:0:0:
256,272,25526,2,0,L|256:360,1,80
144,136,25863,1,0,0:0:0:0:
360,136,26032,1,0,0:0:0:0:
360,136,26369,5,0,0:0:0:0:
256,192,26537,1,0,0:0:0:0:
144,136,26706,1,0,0:0:0:0:
256,32,26875,2,0,L|256:200,1,160
256,312,27380,1,0,0:0:0:0:
125,284,27549,2,0,L|261:188,1,160
376,112,28054,1,0,0:0:0:0:
384,312,28223,2,0,L|320:248,1,80
128,72,28560,2,0,L|192:136,1,80
327,255,28897,5,0,0:0:0:0:
184,128,29066,1,0,0:0:0:0:
240,296,29234,2,0,B|232:224|296:176|296:176|272:128,1,160
216,32,29740,1,0,0:0:0:0:
216,32,30077,5,0,0:0:0:0:
152,112,30245,1,0,0:0:0:0:
216,192,30414,1,0,0:0:0:0:
216,32,30582,1,0,0:0:0:0:
216,192,30751,2,0,B|168:232|128:224|80:192|80:192|48:232|56:272|80:296,1,240
104,352,31425,2,0,L|192:352,1,80
272,304,31762,5,0,0:0:0:0:
152,128,31930,1,0,0:0:0:0:
368,120,32099,1,0,0:0:0:0:
368,120,32268,5,0,0:0:0:0:
96,248,32436,2,0,L|192:200,1,80
464,192,32773,2,0,L|392:227,1,80
167,212,33110,1,0,0:0:0:0:
392,227,33279,1,0,0:0:0:0:
96,248,33448,2,0,B|154:222|154:222|167:191|167:191|202:211|202:211|219:169,1,160
352,56,33953,2,0,B|343:76|343:76|309:56|309:56|296:87|296:87|237:112,1,160
184,296,34459,1,0,0:0:0:0:
237,112,34627,1,0,0:0:0:0:
336,256,34796,1,0,0:0:0:0:
336,256,34964,5,0,0:0:0:0:
120,80,35133,2,0,L|200:152,1,80
320,352,35470,2,0,L|240:280,1,80
184,136,35807,1,0,0:0:0:0:
256,296,35976,1,0,0:0:0:0:
120,80,36144,1,0,0:0:0:0:
320,352,36313,1,0,0:0:0:0:
112,208,36481,1,0,0:0:0:0:
256,104,36650,1,0,0:0:0:0:
272,272,36818,2,0,L|256:248,4,20
272,272,37155,5,0,0:0:0:0:
256,104,37324,1,0,0:0:0:0:
200,192,37493,1,0,0:0:0:0:
200,192,42549,5,0,0:0:0:0:
280,216,42717,2,0,B|288:184|272:152|272:152|312:176|312:232|312:232|344:224,1,160
270,253,48279,5,0,0:0:0:0:
88,184,48448,2,0,L|176:184,1,80
368,64,48785,2,0,L|368:160,1,80
168,184,49122,1,0,0:0:0:0:
368,144,49290,1,0,0:0:0:0:
304,320,49459,1,0,0:0:0:0:
376,144,49627,2,0,B|312:144|312:144|288:168|288:168|264:136|264:136|232:168,1,160
64,152,50133,1,0,0:0:0:0:
344,312,50301,2,0,L|344:224,1,80
168,72,50639,2,0,L|168:160,1,80
168,304,50976,1,0,0:0:0:0:
184,304,51144,1,0,0:0:0:0:
200,304,51313,5,0,0:0:0:0:
312,48,51481,2,0,L|312:152,1,80
96,304,51818,2,0,L|96:200,1,80
312,128,52155,1,0,0:0:0:0:
96,224,52324,1,0,0:0:0:0:
312,128,52493,2,0,L|312:216,1,80
96,224,52830,2,0,L|96:136,1,80
96,144,53335,5,0,0:0:0:0:
208,288,53504,1,0,0:0:0:0:
312,144,53672,1,0,0:0:0:0:
208,64,53841,5,0,0:0:0:0:
208,288,54009,2,0,L|208:192,1,80
448,144,54346,2,0,L|344:144,1,80
208,208,54684,1,0,0:0:0:0:
368,144,54852,1,0,0:0:0:0:
208,288,55021,1,0,0:0:0:0:
456,152,55189,2,0,B|440:192|440:192|456:224|456:224|416:224|416:224|384:272,1,160
328,344,55695,1,0,0:0:0:0:
312,144,55863,1,0,0:0:0:0:
224,192,56032,1,0,0:0:0:0:
312,240,56200,1,0,0:0:0:0:
200,56,56369,1,0,0:0:0:0:
200,56,56706,5,0,0:0:0:0:
80,232,56875,2,0,L|168:232,1,80
288,152,57212,2,0,L|208:152,1,80
88,152,57549,1,0,0:0:0:0:
176,320,57717,1,0,0:0:0:0:
384,152,57886,1,0,0:0:0:0:
88,152,58054,1,0,0:0:0:0:
240,152,58223,1,0,0:0:0:0:
176,320,58391,5,0,0:0:0:0:
209,299,58475,1,0,0:0:0:0:
229,265,58559,1,0,0:0:0:0:
232,225,58643,1,0,0:0:0:0:
254,192,58728,1,0,0:0:0:0:
287,170,58812,1,0,0:0:0:0:
326,166,58896,1,0,0:0:0:0:
352,304,59066,1,0,0:0:0:0:
104,120,59234,6,0,P|152:80|224:80,1,100
435,257,59571,2,0,P|387:297|315:297,1,100
187,73,59908,1,0,0:0:0:0:
224,248,60077,1,0,0:0:0:0:
312,136,60245,1,0,0:0:0:0:
80,192,60414,1,0,0:0:0:0:
248,352,60582,2,0,P|296:328|312:264,1,100
232,24,60919,2,0,P|184:48|168:112,1,100
400,288,61257,2,0,P|432:176|376:80,1,200
160,192,61762,1,0,0:0:0:0:
400,288,61931,6,0,P|344:304|296:280,1,100
112,96,62268,2,0,P|168:80|216:104,1,100
160,272,62605,1,0,0:0:0:0:
336,136,62773,1,0,0:0:0:0:
112,96,62942,1,0,0:0:0:0:
248,208,63110,1,0,0:0:0:0:
376,104,63279,2,0,P|400:56|368:16,1,100
249,124,63616,2,0,P|225:172|257:212,1,100
376,104,63953,1,0,0:0:0:0:
160,104,64122,1,0,0:0:0:0:
256,48,64290,2,0,B|272:104|272:104|256:112|240:112|240:112|256:160|256:160|304:192,1,200
432,264,64796,5,0,0:0:0:0:
208,224,64964,1,0,0:0:0:0:
352,112,65133,1,0,0:0:0:0:
272,304,65301,1,0,0:0:0:0:
136,136,65470,1,0,0:0:0:0:
320,208,65639,1,0,0:0:0:0:
96,272,65807,1,0,0:0:0:0:
176,32,65976,2,0,P|216:64|224:120,1,100
145,349,66313,2,0,P|105:317|97:261,1,100
256,192,66650,1,0,0:0:0:0:
72,192,66818,1,0,0:0:0:0:
256,56,66987,1,0,0:0:0:0:
352,312,67155,2,0,P|304:344|160:304,1,200
352,64,67661,6,0,L|352:176,1,100
112,264,67998,2,0,L|112:152,1,100
352,64,68335,1,0,0:0:0:0:
112,264,68504,1,0,0:0:0:0:
312,256,68672,1,0,0:0:0:0:
192,120,68841,1,0,0:0:0:0:
192,120,69346,6,0,P|240:144|304:112,1,120.000004577637
240,32,69852,1,0,0:0:0:0:
400,192,70021,6,0,P|352:240|296:256,1,120.000004577637
208,256,70273,2,0,P|152:236|111:192,1,120.000004577637
96,104,70526,1,0,0:0:0:0:
312,104,70695,1,0,0:0:0:0:
184,104,70863,1,0,0:0:0:0:
408,104,71032,2,0,P|368:40|328:24,1,120.000004577637
184,104,71369,1,0,0:0:0:0:
408,104,71537,2,0,P|368:40|328:24,1,120.000004577637
224,240,71875,1,0,0:0:0:0:
272,320,72043,1,0,0:0:0:0:
320,240,72212,1,0,0:0:0:0:
256,64,72380,1,0,0:0:0:0:
408,240,72549,5,0,0:0:0:0:
184,240,72717,2,0,B|160:176|160:176|192:112,1,120.000004577637
256,192,72970,2,0,B|279:238|279:238|255:302,1,120.000004577637
224,376,73223,1,0,0:0:0:0:
104,256,73391,1,0,0:0:0:0:
80,344,73560,1,0,0:0:0:0:
128,160,73728,1,0,0:0:0:0:
152,80,73897,6,0,L|416:80,1,240.000009155274
248,160,74403,2,0,L|120:160,1,120.000004577637
328,168,74740,6,0,P|384:144|456:192,1,120.000004577637
352,352,75077,1,0,0:0:0:0:
224,88,75245,1,0,0:0:0:0:
296,256,75414,2,0,B|240:280|240:280|176:256,1,120.000004577637
104,200,75667,2,0,B|160:176|160:176|224:200,1,120.000004577637
296,256,75919,1,0,0:0:0:0:
224,344,76088,1,0,0:0:0:0:
352,200,76257,2,0,L|240:112,1,120.000004577637
224,344,76594,1,0,0:0:0:0:
352,200,76762,1,0,0:0:0:0:
160,296,76931,2,0,L|65:221,1,120.000004577637
0,176,77268,1,0,0:0:0:0:
304,96,77436,5,0,0:0:0:0:
256,32,77605,1,0,0:0:0:0:
208,96,77773,1,0,0:0:0:0:
256,272,77942,1,0,0:0:0:0:
160,32,78110,2,0,P|128:88|144:152,1,120.000004577637
184,204,78363,2,0,P|216:148|200:84,1,120.000004577637
160,32,78616,1,0,0:0:0:0:
160,336,78785,1,0,0:0:0:0:
160,136,78953,1,0,0:0:0:0:
160,240,79122,1,0,0:0:0:0:
424,192,79290,2,0,L|320:192,2,80
360,80,90077,5,0,0:0:0:0:
216,80,90245,2,0,L|128:80,1,80
320,160,90582,2,0,L|232:160,1,80
184,240,90919,2,0,L|104:240,1,80
32,240,91257,1,0,0:0:0:0:
296,240,91425,1,0,0:0:0:0:
184,240,91594,2,0,L|104:240,1,80
376,240,91931,2,0,L|288:240,1,80
184,240,92268,1,0,0:0:0:0:
456,240,92436,1,0,0:0:0:0:
184,240,92605,1,0,0:0:0:0:
376,240,92773,1,0,0:0:0:0:
376,240,92942,5,0,0:0:0:0:
376,240,93110,1,0,0:0:0:0:
184,240,93279,2,0,L|296:240,1,80
104,160,93616,2,0,L|208:160,1,80
240,80,93953,2,0,L|336:80,1,80
128,80,94290,1,0,0:0:0:0:
320,80,94459,1,0,0:0:0:0:
48,80,94627,2,0,L|136:80,1,80
128,80,95133,5,0,0:0:0:0:
408,80,95301,1,0,0:0:0:0:
272,80,95470,1,0,0:0:0:0:
272,80,95639,5,0,0:0:0:0:
272,80,95807,1,0,0:0:0:0:
192,160,95976,2,0,P|192:248|192:240,1,80
352,112,96313,2,0,L|352:208,1,80
104,224,96650,2,0,L|104:312,1,80
192,352,96987,1,0,0:0:0:0:
192,96,97155,1,0,0:0:0:0:
192,176,97324,2,0,L|192:264,1,80
192,16,97661,2,0,L|192:104,1,80
192,352,97998,1,0,0:0:0:0:
192,256,98167,1,0,0:0:0:0:
192,256,98335,5,0,0:0:0:0:
192,256,98504,1,0,0:0:0:0:
256,176,98672,2,0,L|256:72,1,80
336,280,99009,2,0,L|336:192,1,80
136,128,99346,2,0,L|136:24,1,80
136,336,99684,1,0,0:0:0:0:
136,208,99852,2,0,L|136:104,1,80
136,32,100189,1,0,0:0:0:0:
136,32,100526,5,0,0:0:0:0:
136,336,100695,1,0,0:0:0:0:
136,184,100863,1,0,0:0:0:0:
312,184,101032,6,0,L|208:184,1,80
48,104,101369,2,0,L|144:104,1,80
368,104,101706,2,0,L|208:104,1,160
112,208,102212,1,0,0:0:0:0:
200,336,102380,2,0,L|200:248,1,80
280,104,102717,2,0,L|280:200,1,80
280,184,103223,6,0,P|248:240|152:232,1,160
152,72,103728,1,0,0:0:0:0:
200,152,103897,1,0,0:0:0:0:
152,240,104066,1,0,0:0:0:0:
152,72,104234,1,0,0:0:0:0:
152,240,104403,1,0,0:0:0:0:
96,152,104571,1,0,0:0:0:0:
152,64,104740,1,0,0:0:0:0:
280,184,104908,2,0,B|240:248|184:256|152:240|152:240|152:304|200:352,1,240
280,336,105582,2,0,L|352:288,1,80
408,224,105919,5,0,0:0:0:0:
224,136,106088,1,0,0:0:0:0:
272,248,106257,1,0,0:0:0:0:
376,64,106425,5,0,0:0:0:0:
64,136,106594,2,0,L|152:136,1,80
384,136,106931,2,0,L|288:136,1,80
144,288,107268,1,0,0:0:0:0:
304,136,107436,1,0,0:0:0:0:
144,136,107605,1,0,0:0:0:0:
296,288,107773,1,0,0:0:0:0:
144,136,107942,1,0,0:0:0:0:
304,56,108110,2,0,L|304:136,1,80
144,288,108448,2,0,L|144:208,1,80
304,56,108785,1,0,0:0:0:0:
144,288,108953,1,0,0:0:0:0:
312,248,109122,1,0,0:0:0:0:
312,248,109290,5,0,0:0:0:0:
256,80,109459,1,0,0:0:0:0:
232,200,109627,1,0,0:0:0:0:
336,56,109796,1,0,0:0:0:0:
312,248,109964,1,0,0:0:0:0:
416,24,110133,1,0,0:0:0:0:
232,200,110301,1,0,0:0:0:0:
352,136,110470,2,0,L|448:80,1,80
144,248,110807,1,0,0:0:0:0:
232,200,110976,5,0,0:0:0:0:
199,179,111060,1,0,0:0:0:0:
193,141,111144,1,0,0:0:0:0:
219,112,111228,1,0,0:0:0:0:
258,113,111313,1,0,0:0:0:0:
282,143,111397,1,0,0:0:0:0:
274,181,111481,1,0,0:0:0:0:
200,352,111650,1,0,0:0:0:0:
264,32,111818,6,0,P|320:64|352:112,1,100
200,352,112155,2,0,P|144:320|112:272,1,100
376,152,112493,1,0,0:0:0:0:
96,216,112661,1,0,0:0:0:0:
376,232,112830,1,0,0:0:0:0:
96,136,112998,1,0,0:0:0:0:
336,304,113167,2,0,P|280:328|232:320,1,100
136,72,113504,2,0,P|192:48|240:56,1,100
120,336,113841,2,0,P|72:256|80:136,1,200
376,192,114346,1,0,0:0:0:0:
176,176,114515,6,0,P|176:232|224:288,1,100
352,232,114852,2,2,P|352:176|304:120,1,100,0|0,0:0|0:0,0:0:0:0:
80,176,115189,1,0,0:0:0:0:
272,200,115358,1,0,0:0:0:0:
96,296,115526,1,0,0:0:0:0:
272,200,115695,1,0,0:0:0:0:
176,176,115863,2,0,P|176:232|224:288,1,100
314,268,116200,2,0,P|337:225|336:176,1,100
256,72,116537,1,0,0:0:0:0:
256,320,116706,1,0,0:0:0:0:
248,194,116875,2,0,B|256:122|256:122|224:122|224:122|280:90|280:90|216:42,1,200
96,184,117380,5,0,0:0:0:0:
360,96,117549,1,0,0:0:0:0:
152,40,117717,1,0,0:0:0:0:
192,280,117886,1,0,0:0:0:0:
440,184,118054,1,0,0:0:0:0:
248,112,118223,1,0,0:0:0:0:
352,328,118391,1,0,0:0:0:0:
408,48,118560,2,0,P|352:32|288:56,1,100
256,320,118897,2,0,P|302:335|351:327,1,100
312,112,119234,1,0,0:0:0:0:
312,248,119403,1,0,0:0:0:0:
248,32,119571,1,0,0:0:0:0:
419,105,119740,2,0,P|453:197|416:288,1,200
112,296,120245,6,0,L|216:296,1,100
224,96,120582,2,0,L|120:96,1,100
360,352,120919,1,0,0:0:0:0:
360,32,121088,1,0,0:0:0:0:
64,192,121257,1,0,0:0:0:0:
256,192,121425,1,0,0:0:0:0:
256,192,121931,6,0,L|128:192,1,120.000004577637
40,192,122436,1,0,0:0:0:0:
408,48,122605,6,0,P|432:112|400:168,1,120.000004577637
304,232,122858,2,0,P|280:168|312:112,1,120.000004577637
408,48,123110,1,0,0:0:0:0:
408,288,123279,1,0,0:0:0:0:
299,123,123448,1,0,0:0:0:0:
408,288,123616,2,0,L|328:168,1,120.000004577637
240,40,123953,1,0,0:0:0:0:
120,296,124122,1,0,0:0:0:0:
168,192,124290,2,0,B|248:192|248:192|384:56,1,240.000009155274
168,184,124796,1,0,0:0:0:0:
256,88,124964,1,0,0:0:0:0:
224,304,125133,1,0,0:0:0:0:
168,184,125301,6,0,B|128:136|128:136|144:56,1,120.000004577637
256,88,125554,2,0,B|296:136|296:136|280:216,1,120.000004577637
168,184,125807,1,0,0:0:0:0:
320,32,125976,1,0,0:0:0:0:
280,200,126144,1,0,0:0:0:0:
320,32,126313,1,0,0:0:0:0:
256,296,126481,2,0,L|16:296,1,240.000009155274
184,112,126987,2,0,L|304:112,1,120.000004577637
256,296,127324,5,0,0:0:0:0:
184,112,127493,1,0,0:0:0:0:
256,296,127661,1,0,0:0:0:0:
224,40,127830,1,0,0:0:0:0:
256,48,127914,1,0,0:0:0:0:
288,56,127998,6,0,B|360:80|360:80|384:144,1,120.000004577637
360,248,128251,2,0,B|288:224|288:224|264:160,1,120.000004577637
288,56,128504,1,0,0:0:0:0:
360,248,128672,1,0,0:0:0:0:
272,182,128841,1,0,0:0:0:0:
480,96,129009,1,0,0:0:0:0:
272,182,129178,2,0,B|288:102|288:102|352:142|352:142|368:110|360:30,1,240.000009155274
152,56,129684,1,0,0:0:0:0:
362,60,129852,1,0,0:0:0:0:
320,256,130021,5,0,0:0:0:0:
376,344,130189,1,0,0:0:0:0:
432,256,130358,1,0,0:0:0:0:
368,64,130526,1,0,0:0:0:0:
160,176,130695,2,0,B|192:304|192:296,1,120.000004577637
264,192,130948,2,0,B|232:64|232:72,1,120.000004577637
160,176,131200,1,0,0:0:0:0:
368,224,131369,1,0,0:0:0:0:
264,192,131537,1,0,0:0:0:0:
464,248,131706,1,0,0:0:0:0:
368,224,131875,2,0,L|336:120,2,80
344,147,137268,5,0,0:0:0:0:
232,104,137436,2,0,L|307:131,1,80
352,280,137773,2,0,L|276:252,1,80
344,144,138110,1,0,0:0:0:0:
232,320,138279,2,0,L|416:392,1,160
248,192,138785,2,0,L|172:219,1,80
64,256,139122,1,0,0:0:0:0:
232,104,139290,2,0,L|307:131,1,80
440,184,139627,1,0,0:0:0:0:
232,104,139796,1,0,0:0:0:0:
328,184,139964,1,0,0:0:0:0:
144,136,140301,6,0,L|68:108,1,80
152,224,140639,2,0,L|227:196,1,80
144,136,140976,1,0,0:0:0:0:
296,248,141144,1,0,0:0:0:0:
408,144,141313,2,0,B|352:152|352:152|368:192|368:192|304:248,1,160
232,296,141818,5,0,0:0:0:0:
232,128,142155,1,0,0:0:0:0:
232,296,142324,2,0,B|216:344|216:344|208:280|224:224,1,160
264,64,142830,6,0,L|280:152,1,80
206,156,143167,2,0,L|222:244,1,80
240,328,143504,1,0,0:0:0:0:
192,80,143672,1,0,0:0:0:0:
296,208,143841,1,0,0:0:0:0:
88,176,144009,2,0,L|73:97,1,80
312,64,144346,1,0,0:0:0:0:
192,80,144515,1,0,0:0:0:0:
424,48,144684,2,0,L|464:216,1,160
256,200,145189,1,0,0:0:0:0:
328,128,145358,1,0,0:0:0:0:
144,304,145526,1,0,0:0:0:0:
256,200,145695,6,0,L|184:272,1,80
184,136,146032,2,0,L|240:79,1,80
288,312,146369,1,0,0:0:0:0:
240,79,146537,1,0,0:0:0:0:
376,168,146706,2,0,B|384:216|384:216|352:208|352:208|312:280,1,160
256,352,147212,5,0,0:0:0:0:
176,128,147380,1,0,0:0:0:0:
216,248,147549,1,0,0:0:0:0:
166,255,147633,1,0,0:0:0:0:
118,244,147717,1,0,0:0:0:0:
78,215,147801,1,0,0:0:0:0:
52,172,147886,1,0,0:0:0:0:
48,152,147970,5,0,0:0:0:0:
48,136,148054,1,0,0:0:0:0:
48,120,148139,1,0,0:0:0:0:
48,104,148223,2,0,P|96:88|160:112,1,100
320,240,148560,2,0,P|273:255|225:244,1,100
368,96,148897,1,0,0:0:0:0:
272,144,149066,1,0,0:0:0:0:
176,88,149234,1,0,0:0:0:0:
80,136,149403,1,0,0:0:0:0:
80,328,149571,6,0,P|128:320|176:272,1,100
262,48,149908,2,0,P|213:56|175:87,1,100
432,120,150245,1,0,0:0:0:0:
325,133,150414,1,0,0:0:0:0:
277,233,150582,1,0,0:0:0:0:
170,247,150751,1,0,0:0:0:0:
432,120,150919,6,0,P|448:176|424:232,1,100
168,152,151257,2,0,P|151:105|163:57,1,100
336,264,151594,1,0,0:0:0:0:
256,120,151762,1,0,0:0:0:0:
240,304,151931,1,0,0:0:0:0:
352,64,152099,1,0,0:0:0:0:
360,344,152268,2,0,P|408:304|416:264,1,100
232,40,152605,2,0,P|184:80|176:120,1,100
184,304,152942,1,0,0:0:0:0:
175,114,153110,1,0,0:0:0:0:
96,264,153279,2,0,B|128:200|128:200|152:224|192:232|224:200|224:200|256:200|256:200,1,200
376,192,153785,5,0,0:0:0:0:
128,200,153953,1,0,0:0:0:0:
320,96,154122,1,0,0:0:0:0:
168,296,154290,1,0,0:0:0:0:
72,72,154459,1,0,0:0:0:0:
248,200,154627,1,0,0:0:0:0:
24,240,154796,1,0,0:0:0:0:
160,32,154964,2,0,P|208:56|232:112,1,100
232,296,155301,2,0,P|184:272|160:216,1,100
392,176,155639,1,0,0:0:0:0:
232,296,155807,1,0,0:0:0:0:
229,95,155976,1,0,0:0:0:0:
392,336,156144,1,0,0:0:0:0:
392,336,156481,5,0,0:0:0:0:
256,48,156650,1,0,0:0:0:0:
120,336,156818,1,0,0:0:0:0:
416,128,156987,1,0,0:0:0:0:
96,128,157155,1,0,0:0:0:0:
256,352,157324,1,0,0:0:0:0:
256,40,157493,1,0,0:0:0:0:
256,352,157661,1,0,0:0:0:0:
256,128,157830,2,0,L|256:240,1,100
256,288,158335,6,0,L|256:152,1,120.000004577637
256,32,158841,1,0,0:0:0:0:
128,328,159009,6,0,P|144:264|136:208,1,120.000004577637
374,211,159262,2,0,P|368:270|384:328,1,120.000004577637
256,112,159515,1,0,0:0:0:0:
128,328,159684,1,0,0:0:0:0:
256,112,159852,1,0,0:0:0:0:
383,327,160021,1,0,0:0:0:0:
440,80,160189,2,0,B|384:56|320:80,1,120.000004577637
256,288,160526,1,0,0:0:0:0:
448,200,160695,2,0,P|456:128|432:56,1,120.000004577637
216,184,161032,5,0,0:0:0:0:
312,152,161200,1,0,0:0:0:0:
296,248,161369,1,0,0:0:0:0:
96,80,161537,1,0,0:0:0:0:
376,80,161706,2,0,B|464:80|464:80|432:112,1,120.000004577637
296,248,161959,2,0,B|208:248|208:248|240:216,1,120.000004577637
376,168,162212,1,0,0:0:0:0:
224,328,162380,1,0,0:0:0:0:
296,248,162549,1,0,0:0:0:0:
96,248,162717,1,0,0:0:0:0:
288,160,162886,2,0,L|362:65,1,120.000004577637
216,248,163223,1,0,0:0:0:0:
232,64,163391,2,0,L|144:176,1,120.000004577637
80,240,163728,6,0,P|112:176|168:160,1,120.000004577637
272,272,164066,1,0,0:0:0:0:
176,248,164234,1,0,0:0:0:0:
392,192,164403,2,0,P|408:272|384:320,1,120.000004577637
248,176,164655,2,0,P|232:96|256:48,1,120.000004577637
376,120,164908,1,0,0:0:0:0:
144,232,165077,1,0,0:0:0:0:
376,120,165245,1,0,0:0:0:0:
344,296,165414,1,0,0:0:0:0:
312,32,165582,2,0,L|96:160,1,240.000009155274
224,296,166088,1,0,0:0:0:0:
240,176,166257,1,0,0:0:0:0:
136,208,166425,5,0,0:0:0:0:
320,264,166594,1,0,0:0:0:0:
224,296,166762,1,0,0:0:0:0:
384,128,166931,1,0,0:0:0:0:
384,136,167015,1,0,0:0:0:0:
384,144,167099,2,0,B|384:224|384:224|344:200,1,120.000004577637
144,288,167352,2,0,B|144:208|144:208|184:232,1,120.000004577637
304,320,167605,1,0,0:0:0:0:
192,80,167773,1,0,0:0:0:0:
224,296,167942,1,0,0:0:0:0:
264,32,168110,1,0,0:0:0:0:
240,224,168279,2,0,L|200:96,2,120.000004577637
240,224,168785,1,0,0:0:0:0:
240,224,169122,5,0,0:0:0:0:
336,224,169290,1,0,0:0:0:0:
248,232,169459,5,0,0:0:0:0:
96,192,169627,1,0,0:0:0:0:
440,192,169796,2,0,P|392:240|320:248,1,120.000004577637
96,192,170049,2,0,P|136:148|193:133,1,120.000004577637
256,304,170301,1,0,0:0:0:0:
192,136,170470,1,0,0:0:0:0:
304,224,170639,1,0,0:0:0:0:
192,136,170807,1,0,0:0:0:0:
88,264,170976,6,0,B|184:264|184:264|224:240,1,120.000004577637
308,123,171313,2,0,B|212:123|212:123|172:147,1,120.000004577637
204,251,171650,1,0,0:0:0:0:
368,288,171818,5,0,0:0:0:0:
288,272,171987,1,0,0:0:0:0:
344,208,172155,1,0,0:0:0:0:
400,368,172324,1,0,0:0:0:0:
240,192,172493,2,0,P|304:104|304:80,1,120.000004577637
128,96,172745,2,0,P|64:184|64:208,1,120.000004577637
240,192,172998,1,0,0:0:0:0:
63,190,173167,1,0,0:0:0:0:
328,192,173335,5,0,0:0:0:0:
151,190,173504,1,0,0:0:0:0:
424,192,173672,5,0,0:0:0:0:
328,296,173841,1,0,0:0:0:0:
240,192,174009,1,0,0:0:0:0:
328,88,174178,6,0,L|328:224,1,120.000004577637
328,296,174515,1,0,0:0:0:0:
192,128,174684,1,0,0:0:0:0:
432,128,174852,5,0,0:0:0:0:
264,208,175021,1,0,0:0:0:0:
216,208,175105,1,0,0:0:0:0:
168,208,175189,2,0,B|112:168|112:168|112:104,1,120.000004577637
216,32,175442,2,0,B|272:72|272:72|272:136,1,120.000004577637
272,312,175695,1,0,0:0:0:0:
272,160,175863,1,0,0:0:0:0:
344,344,176032,1,0,0:0:0:0:
200,272,176200,2,0,L|72:192,1,120.000004577637
16,160,176537,1,0,0:0:0:0:
320,168,176706,1,0,0:0:0:0:
112,40,176875,2,0,L|240:120,1,120.000004577637
224,264,177212,5,0,0:0:0:0:
216,104,177380,1,0,0:0:0:0:
256,352,177549,5,0,0:0:0:0:
216,104,177717,1,0,0:0:0:0:
448,176,177886,2,0,P|400:224|336:240,1,120.000004577637
144,160,178223,1,0,0:0:0:0:
448,48,178391,1,0,0:0:0:0:
392,352,178560,1,0,0:0:0:0:
144,160,178728,1,0,0:0:0:0:
176,160,178812,1,0,0:0:0:0:
207,171,178896,1,0,0:0:0:0:
233,191,178980,1,0,0:0:0:0:
251,219,179065,1,0,0:0:0:0:
258,251,179149,1,0,0:0:0:0:
256,280,179234,6,0,B|234:315|58:259|20:282,1,240.000009155274
64,200,180077,1,0,0:0:0:0:
112,120,180245,1,0,0:0:0:0:
152,40,180414,1,0,0:0:0:0:
152,40,181257,5,0,0:0:0:0:
152,40,181931,5,0,0:0:0:0:
152,40,182099,2,0,L|352:40,1,180.000006866455
408,184,182773,1,0,0:0:0:0:
368,112,182942,1,0,0:0:0:0:
448,256,183110,2,0,P|408:272|328:168,1,180.000006866455
368,112,183953,6,0,L|336:112,2,30.0000011444092
464,112,184290,1,0,0:0:0:0:
464,112,184627,5,0,0:0:0:0:
464,112,185301,5,0,0:0:0:0:
344,112,185470,1,0,0:0:0:0:
224,112,185639,1,0,0:0:0:0:
96,112,185807,2,0,P|120:176|216:232,1,180.000006866455
312,232,186481,1,0,0:0:0:0:
264,152,186650,1,0,0:0:0:0:
264,152,187324,5,0,0:0:0:0:
264,256,187493,2,0,B|248:312|248:312|216:240|136:224,1,180.000006866455
144,320,188167,1,0,0:0:0:0:
72,264,188335,1,0,0:0:0:0:
40,168,188504,2,0,L|208:72,1,180.000006866455
296,96,189178,6,0,L|288:128,2,30.0000011444092
384,40,189515,1,0,0:0:0:0:
392,144,189684,1,0,0:0:0:0:
296,96,189852,1,0,0:0:0:0:
168,112,190021,6,0,P|176:152|208:192,1,80
296,168,190695,1,0,0:0:0:0:
424,152,191032,1,0,0:0:0:0:
424,152,191200,2,0,P|416:192|344:248,1,120
264,248,192043,1,0,0:0:0:0:
320,128,192380,1,0,0:0:0:0:
344,232,192717,6,0,P|304:248|256:248,1,80
168,224,193391,1,0,0:0:0:0:
152,112,193728,1,0,0:0:0:0:
152,112,193897,2,0,P|224:96|272:112,1,120
192,272,194740,1,0,0:0:0:0:
232,192,195077,1,0,0:0:0:0:
288,272,195414,6,0,P|320:232|328:192,1,80
256,96,196088,1,0,0:0:0:0:
224,272,196425,1,0,0:0:0:0:
224,272,196594,2,0,P|192:224|192:152,1,120
256,96,197436,1,0,0:0:0:0:
256,192,197773,1,0,0:0:0:0:
256,288,198110,6,0,L|336:312,1,80
440,280,198785,1,0,0:0:0:0:
384,184,199122,1,0,0:0:0:0:
384,184,199290,2,0,L|254:288,1,160
