osu file format v14

[General]
AudioFilename: audio.mp3
AudioLeadIn: 0
PreviewTime: 59082
Countdown: 0
SampleSet: Soft
StackLeniency: 0.7
Mode: 0
LetterboxInBreaks: 0
WidescreenStoryboard: 1

[Editor]
DistanceSpacing: 1
BeatDivisor: 4
GridSize: 32
TimelineZoom: 0.9

[Metadata]
Title:Jitter Doll
TitleUnicode:ジッタードール
Artist:Yuaru
ArtistUnicode:ゆある
Creator:-Laura-
Version:Normal
Source:
Tags:Akitoshi Corinn niki Nyun 歌い手 utaite cover
BeatmapID:1636579
BeatmapSetID:773512

[Difficulty]
HPDrainRate:4
CircleSize:3.2
OverallDifficulty:4
ApproachRate:6
SliderMultiplier:1
SliderTickRate:1

[Events]
//Background and Video events
0,0,"doll.jpg",0,0
//Break Periods
2,49625,52882
2,104292,107549
2,148082,157549
//Storyboard Layer 0 (Background)
//Storyboard Layer 1 (Fail)
//Storyboard Layer 2 (Pass)
//Storyboard Layer 3 (Foreground)
//Storyboard Sound Samples

[TimingPoints]
16092,333.333333333333,4,2,5,40,1,0
17426,333.333333333333,4,2,5,40,1,0
28092,-111.111111111111,4,2,5,40,0,0
31926,-111.111111111111,4,2,5,5,0,0
32092,-111.111111111111,4,2,5,40,0,0
37426,-100,4,2,5,50,0,0
38759,-100,4,2,5,65,0,0
49425,-100,4,2,5,50,0,0
54092,-100,4,2,5,50,0,0
54759,-100,4,2,5,65,0,0
57425,-100,4,2,5,65,0,0
59925,-95.2380952380952,4,2,5,80,0,1
82759,-100,4,2,5,65,0,0
104092,-100,4,2,5,50,0,0
109425,-100,4,2,5,65,0,0
112092,-100,4,2,5,65,0,0
114592,-95.2380952380952,4,2,5,80,0,1
137425,-100,4,2,5,70,0,0
158759,-100,4,2,5,50,0,0
164092,-100,4,2,5,60,0,0
166759,-100,4,2,5,65,0,0
169425,-100,4,2,5,65,0,0
170259,-100,4,2,5,5,0,0
170592,-95.2380952380952,4,2,5,80,0,1
191925,-95.2380952380952,4,2,5,80,0,0
192425,-95.2380952380952,4,2,5,80,0,1
214759,-100,4,2,5,80,0,0
228092,-100,4,2,5,50,0,0
230759,-100,4,2,5,30,0,0
233425,-100,4,2,5,20,0,0
235425,-100,4,2,5,10,0,0
236759,-100,4,2,5,5,0,0

[Colours]
Combo1 : 192,192,192
Combo2 : 128,128,192
Combo3 : 0,0,225
Combo4 : 255,72,164

[HitObjects]
349,190,17426,6,0,L|359:69,2,100,6|0|0,0:0|1:0|1:0,0:0:0:0:
332,288,18426,1,0,1:0:0:0:
245,338,18759,2,0,P|180:348|141:338,1,100,0|0,1:0|1:0,0:0:0:0:
62,287,19426,2,0,P|52:222|62:183,1,100,0|0,1:0|1:0,0:0:0:0:
83,147,19926,1,2,0:0:0:0:
83,147,20092,6,0,P|148:157|187:147,1,100,6|0,0:0|1:0,0:0:0:0:
268,100,20759,2,0,P|333:90|372:100,1,100,0|0,1:0|1:0,0:0:0:0:
408,122,21259,2,0,L|403:227,1,100,6|6,0:0|0:0,0:0:0:0:
372,261,21759,2,0,L|377:366,2,100,0|0|0,1:0|1:0|1:0,0:0:0:0:
279,223,22759,6,0,P|229:239|176:232,2,100,6|0|0,0:0|1:0|1:0,0:0:0:0:
320,131,23759,1,0,1:0:0:0:
268,45,24092,2,0,L|147:50,1,100,0|0,1:0|1:0,0:0:0:0:
75,86,24759,2,0,P|59:133|63:182,1,100,0|0,1:0|1:0,0:0:0:0:
92,230,25259,1,2,0:0:0:0:
92,230,25426,6,0,P|139:214|188:218,1,100,6|0,0:0|1:0,0:0:0:0:
274,269,26092,2,0,L|383:261,1,100,0|0,1:0|1:0,0:0:0:0:
422,248,26592,2,0,P|430:194|419:146,1,100,6|6,0:0|0:0,0:0:0:0:
385,114,27092,2,0,L|387:6,2,100,0|0|0,1:0|1:0|1:0,0:0:0:0:
321,177,28092,6,0,L|324:236,1,44.999998626709,6|2,0:0|0:0,0:0:0:0:
321,177,30759,6,0,L|324:236,1,44.999998626709,6|2,0:0|0:0,0:0:0:0:
215,303,31426,2,2,P|151:316|86:275,1,134.999995880127,0|0,0:3|0:3,0:3:0:0:
69,244,32092,6,0,L|66:199,1,44.999998626709,6|2,0:0|0:0,0:0:0:0:
69,244,33426,6,0,L|66:199,1,44.999998626709,6|2,0:0|0:0,0:0:0:0:
157,99,34092,2,0,P|222:129|319:87,2,179.999994506836,2|2|2,0:0|0:0|0:0,0:0:0:0:
96,31,35759,1,0,0:0:0:0:
18,76,36092,6,0,L|20:135,1,44.999998626709,6|2,0:0|0:0,0:0:0:0:
42,254,36759,2,0,P|85:267|144:257,1,89.9999972534181,2|0,0:0|0:0,0:0:0:0:
217,215,37426,2,0,L|212:153,1,50,6|2,0:0|0:0,0:0:0:0:
211,115,37759,1,8,0:0:0:0:
288,52,38092,1,2,0:0:0:0:
379,93,38426,2,0,L|374:155,1,50,8|8,0:0|0:0,0:0:0:0:
356,189,38759,6,0,L|366:306,1,100,6|8,0:0|0:0,0:0:0:0:
295,360,39425,2,0,P|244:372|186:360,1,100,2|8,0:0|0:0,0:0:0:0:
153,341,39925,2,0,L|144:241,1,100,2|2,0:0|0:0,0:0:0:0:
144,195,40425,1,8,0:0:0:0:
144,195,40592,2,0,P|196:204|279:154,1,150,2|8,0:0|0:0,0:0:0:0:
246,61,41425,6,0,L|141:52,1,100,6|8,0:0|0:0,0:0:0:0:
46,38,42092,2,0,P|28:83|35:155,1,100,2|8,0:0|0:0,0:0:0:0:
54,176,42592,2,0,P|72:221|55:326,1,150,0|0,0:0|0:0,0:0:0:0:
143,372,43425,2,0,L|247:365,1,100,2|2,0:0|0:0,0:0:0:0:
292,348,43925,1,8,0:0:0:0:
292,348,44092,6,0,L|396:355,1,100,6|8,0:0|0:0,0:0:0:0:
485,320,44759,2,0,P|497:252|482:208,1,100,2|8,0:0|0:0,0:0:0:0:
461,181,45259,2,0,P|393:193|349:178,1,100,2|2,0:0|0:0,0:0:0:0:
325,164,45759,1,8,0:0:0:0:
325,164,45925,2,0,L|168:174,1,150,8|8,0:0|0:0,0:0:0:0:
75,173,46759,6,0,P|61:120|79:59,1,100,6|8,0:0|0:0,0:0:0:0:
156,27,47425,2,0,L|265:34,1,100,2|8,0:0|0:0,0:0:0:0:
299,57,47925,2,0,L|408:50,1,100,2|2,0:0|0:0,0:0:0:0:
448,45,48425,1,8,0:0:0:0:
506,125,48759,1,2,0:0:0:0:
480,221,49092,1,8,0:0:0:0:
383,244,49425,5,6,0:0:0:0:
383,244,54092,6,0,P|333:230|269:245,1,100,2|2,0:0|0:0,0:0:0:0:
211,304,54759,2,0,L|47:296,2,150,6|2|2,0:0|0:0|0:0,0:0:0:0:
286,237,56092,1,0,1:0:0:0:
366,177,56425,2,0,L|469:182,2,100,0|0|0,3:0|3:0|3:0,0:0:0:0:
276,131,57425,6,0,P|225:141|162:127,1,100,6|8,0:0|0:0,0:0:0:0:
90,85,58092,2,0,L|85:196,1,100,2|8,0:0|0:0,0:0:0:0:
47,217,58592,2,0,L|52:328,1,100,6|2,0:0|0:0,0:0:0:0:
54,366,59092,1,8,0:0:0:0:
249,195,59925,6,0,P|296:181|355:198,1,104.999996795654,6|2,0:0|0:0,0:0:0:0:
392,224,60425,1,8,0:0:0:0:
446,314,60759,2,0,L|517:310,2,52.4999983978272,2|2|8,0:0|0:0|0:0,0:0:0:0:
413,355,61259,2,0,L|293:348,1,104.999996795654,6|2,0:0|0:0,0:0:0:0:
264,332,61759,1,8,0:0:0:0:
264,332,61925,2,0,L|159:338,1,104.999996795654,2|2,0:0|0:0,0:0:0:0:
111,346,62425,1,8,0:0:0:0:
111,346,62592,6,0,P|88:284|92:233,1,104.999996795654,6|2,0:0|0:0,0:0:0:0:
108,196,63092,1,8,0:0:0:0:
183,123,63425,2,0,L|175:59,2,52.4999983978272,2|2|8,0:0|0:0|0:0,0:0:0:0:
213,165,63925,2,0,P|265:173|322:157,1,104.999996795654,6|2,0:0|0:0,0:0:0:0:
366,140,64425,1,8,0:0:0:0:
366,140,64592,2,0,P|390:182|387:257,1,104.999996795654,6|2,0:0|0:0,0:0:0:0:
376,290,65092,1,8,0:0:0:0:
376,290,65259,6,0,L|247:281,1,104.999996795654,6|2,0:0|0:0,0:0:0:0:
218,278,65759,1,8,0:0:0:0:
133,216,66092,2,0,L|68:220,2,52.4999983978272,2|2|8,0:0|0:0|0:0,0:0:0:0:
174,183,66592,2,0,P|185:122|182:78,1,104.999996795654,6|2,0:0|0:0,0:0:0:0:
175,32,67092,1,8,0:0:0:0:
175,32,67259,2,0,L|302:40,1,104.999996795654,2|2,0:0|0:0,0:0:0:0:
331,67,67759,1,8,0:0:0:0:
331,67,67925,6,0,L|458:59,1,104.999996795654,6|2,0:0|0:0,0:0:0:0:
447,164,68592,2,0,L|320:172,1,104.999996795654,2|2,0:0|0:0,0:0:0:0:
303,205,69092,1,8,0:0:0:0:
303,205,69259,2,0,L|176:197,1,104.999996795654,6|2,0:0|0:0,0:0:0:0:
145,193,69759,1,8,0:0:0:0:
66,123,70092,2,0,L|71:52,2,52.4999983978272,2|8|8,0:0|0:0|0:0,0:0:0:0:
20,150,70592,6,0,P|9:205|22:260,1,104.999996795654,6|2,0:0|0:0,0:0:0:0:
51,293,71092,1,8,0:0:0:0:
151,322,71425,2,0,L|155:374,2,52.4999983978272,2|2|8,0:0|0:0|0:0,0:0:0:0:
170,273,71925,2,0,P|217:257|286:262,1,104.999996795654,6|2,0:0|0:0,0:0:0:0:
322,273,72425,1,8,0:0:0:0:
414,323,72759,2,0,L|409:375,2,52.4999983978272,2|2|8,0:0|0:0|0:0,0:0:0:0:
454,289,73259,6,0,B|450:250|450:250|459:229|459:229|454:208|455:169,1,104.999996795654,6|2,0:0|0:0,0:0:0:0:
455,133,73759,1,8,0:0:0:0:
377,62,74092,2,0,P|320:60|269:87,1,104.999996795654,2|8,0:0|0:0,0:0:0:0:
236,113,74592,2,0,P|188:92|136:95,1,104.999996795654,6|2,0:0|0:0,0:0:0:0:
95,128,75092,1,8,0:0:0:0:
95,128,75259,2,0,L|101:236,1,104.999996795654,6|2,0:0|0:0,0:0:0:0:
108,289,75759,1,8,0:0:0:0:
108,289,75925,6,0,P|155:309|207:306,1,104.999996795654,6|2,0:0|0:0,0:0:0:0:
256,287,76425,1,8,0:0:0:0:
311,197,76759,2,0,L|319:83,1,104.999996795654,2|8,0:0|0:0,0:0:0:0:
349,50,77259,2,0,P|400:42|449:58,1,104.999996795654,6|2,0:0|0:0,0:0:0:0:
491,100,77759,1,8,0:0:0:0:
491,100,77925,2,0,L|483:204,1,104.999996795654,2|2,0:0|0:0,0:0:0:0:
481,261,78425,1,8,0:0:0:0:
481,261,78592,6,0,P|429:268|380:252,1,104.999996795654,6|2,0:0|0:0,0:0:0:0:
334,226,79092,1,8,0:0:0:0:
264,146,79425,2,0,L|272:76,2,52.4999983978272,2|2|8,0:0|0:0|0:0,0:0:0:0:
226,182,79925,2,0,P|174:174|125:190,1,104.999996795654,6|2,0:0|0:0,0:0:0:0:
88,228,80425,1,8,0:0:0:0:
97,332,80759,2,0,L|222:340,1,104.999996795654,2|8,0:0|0:0,0:0:0:0:
253,364,81259,1,2,0:0:0:0:
253,364,81425,6,0,L|378:356,1,104.999996795654,12|8,0:0|0:0,0:0:0:0:
454,314,82092,1,8,0:0:0:0:
497,218,82425,2,0,L|492:159,1,52.4999983978272,8|8,0:0|0:0,0:0:0:0:
484,115,82759,6,0,P|438:102|366:117,1,100,6|8,0:0|0:0,0:0:0:0:
347,139,83259,2,0,P|301:152|229:137,1,100,0|2,0:0|0:0,0:0:0:0:
150,137,83925,2,0,L|31:147,1,100,2|2,0:0|0:0,0:0:0:0:
14,178,84425,1,8,0:0:0:0:
14,178,84592,2,0,P|5:232|19:289,1,100,2|2,0:0|0:0,0:0:0:0:
28,323,85092,1,8,0:0:0:0:
118,365,85425,6,0,L|217:356,1,100,6|8,0:0|0:0,0:0:0:0:
262,334,85925,2,0,L|361:342,1,100,0|2,0:0|0:0,0:0:0:0:
416,351,86425,1,0,0:0:0:0:
416,351,86592,2,0,P|433:277|398:195,1,150,8|8,0:0|0:0,0:0:0:0:
334,142,87425,1,2,0:0:0:0:
241,176,87759,2,0,L|239:248,1,50,8|8,0:0|0:0,0:0:0:0:
229,274,88092,6,0,P|183:297|119:289,1,100,6|8,0:0|0:0,0:0:0:0:
87,281,88592,1,8,0:0:0:0:
9,218,88925,2,0,L|7:168,1,50,0|8,0:0|0:0,0:0:0:0:
1,118,89259,2,0,P|44:109|110:99,1,100,2|2,0:0|0:0,0:0:0:0:
150,88,89759,1,8,0:0:0:0:
150,88,89925,2,0,P|193:97|259:107,1,100,2|2,0:0|0:0,0:0:0:0:
298,111,90425,1,8,0:0:0:0:
398,114,90759,6,0,P|412:170|397:226,1,100,2|8,0:0|0:0,0:0:0:0:
370,247,91259,2,0,P|314:233|258:248,1,100,0|2,3:0|0:0,0:0:0:0:
233,270,91759,1,0,0:0:0:0:
233,270,91925,2,0,L|75:257,1,150,8|8,0:0|0:0,0:0:0:0:
19,180,92759,1,2,0:0:0:0:
57,87,93092,2,0,L|120:81,1,50,0|8,0:0|0:0,0:0:0:0:
155,72,93425,6,0,P|199:89|257:80,1,100,6|8,0:0|0:0,0:0:0:0:
298,69,93925,2,0,P|342:52|400:61,1,100,0|2,3:0|0:0,0:0:0:0:
436,148,94592,2,0,L|428:262,1,100,2|2,0:0|0:0,0:0:0:0:
422,301,95092,1,8,0:0:0:0:
422,301,95259,2,0,P|350:338|265:324,1,150,0|8,0:0|0:0,0:0:0:0:
192,288,96092,6,0,L|199:188,1,100,2|8,0:0|0:0,0:0:0:0:
201,138,96592,2,0,P|255:132|315:152,1,100,0|2,3:0|0:0,0:0:0:0:
343,176,97092,1,0,0:0:0:0:
343,176,97259,2,0,B|390:200|390:200|504:188,1,150,8|8,0:0|0:0,0:0:0:0:
509,92,98092,1,2,0:0:0:0:
438,20,98425,2,0,L|377:15,1,50,0|8,0:0|0:0,0:0:0:0:
339,29,98759,6,0,P|292:46|234:39,1,100,6|2,0:0|0:0,0:0:0:0:
194,28,99259,2,0,L|80:35,1,100,8|0,0:0|3:0,0:0:0:0:
20,101,99925,2,0,P|11:153|22:204,1,100,2|2,0:0|0:0,0:0:0:0:
49,247,100425,1,8,0:0:0:0:
49,247,100592,2,0,B|136:231|117:289|209:268,1,150,0|8,3:0|0:0,0:0:0:0:
265,202,101425,6,0,L|379:197,1,100,2|8,0:0|0:0,0:0:0:0:
414,205,101925,2,0,P|430:258|427:303,1,100,0|0,0:0|0:0,0:0:0:0:
406,349,102425,1,0,0:0:0:0:
406,349,102592,2,0,P|352:327|252:344,1,150,8|8,0:0|0:0,0:0:0:0:
168,369,103425,1,2,0:0:0:0:
75,330,103759,1,0,0:0:0:0:
58,231,104092,5,6,0:0:0:0:
134,175,108759,6,0,L|246:172,1,100,2|8,0:0|0:0,0:0:0:0:
333,165,109425,2,0,P|410:195|477:181,2,150,6|2|6,0:0|0:0|0:0,0:0:0:0:
175,41,111092,2,0,L|71:50,2,100,2|2|2,0:0|0:0|0:0,0:0:0:0:
275,41,112092,6,0,L|379:50,1,100,6|8,0:0|0:0,0:0:0:0:
468,84,112759,2,0,P|484:140|472:185,1,100,2|8,0:0|0:0,0:0:0:0:
437,213,113259,2,0,P|421:269|433:314,1,100,6|2,0:0|0:0,0:0:0:0:
447,355,113759,1,8,0:0:0:0:
208,245,114592,6,0,L|213:131,1,104.999996795654,6|2,0:0|0:0,0:0:0:0:
217,87,115092,1,8,0:0:0:0:
304,29,115425,2,0,P|363:21|426:42,1,104.999996795654,2|8,0:0|0:0,0:0:0:0:
443,68,115925,2,0,P|435:127|456:190,1,104.999996795654,6|2,0:0|0:0,0:0:0:0:
481,217,116425,1,8,0:0:0:0:
481,217,116592,2,0,L|475:325,1,104.999996795654,2|2,0:0|0:0,0:0:0:0:
449,368,117092,1,8,0:0:0:0:
449,368,117259,6,0,P|400:374|334:358,1,104.999996795654,6|2,0:0|0:0,0:0:0:0:
300,336,117759,1,8,0:0:0:0:
246,245,118092,2,0,L|178:250,2,52.4999983978272,2|2|8,0:0|0:0|0:0,0:0:0:0:
286,211,118592,2,0,L|396:218,1,104.999996795654,6|2,0:0|0:0,0:0:0:0:
447,226,119092,1,8,0:0:0:0:
447,226,119259,2,0,P|458:179|445:111,1,104.999996795654,6|2,0:0|0:0,0:0:0:0:
421,86,119759,1,8,0:0:0:0:
421,86,119925,6,0,L|311:93,1,104.999996795654,6|2,0:0|0:0,0:0:0:0:
263,96,120425,1,8,0:0:0:0:
174,152,120759,2,0,L|105:147,2,52.4999983978272,2|2|8,0:0|0:0|0:0,0:0:0:0:
213,186,121259,2,0,P|226:248|212:295,1,104.999996795654,6|2,0:0|0:0,0:0:0:0:
177,322,121759,1,8,0:0:0:0:
177,322,121925,2,0,P|115:309|68:323,1,104.999996795654,2|2,0:0|0:0,0:0:0:0:
31,343,122425,1,8,0:0:0:0:
31,343,122592,6,0,L|25:226,1,104.999996795654,6|2,0:0|0:0,0:0:0:0:
16,133,123259,2,0,P|61:116|126:117,1,104.999996795654,2|2,0:0|0:0,0:0:0:0:
171,135,123759,1,8,0:0:0:0:
171,135,123925,2,0,P|216:152|281:151,1,104.999996795654,6|2,0:0|0:0,0:0:0:0:
322,136,124425,1,8,0:0:0:0:
410,78,124759,2,0,L|406:20,2,52.4999983978272,2|8|8,0:0|0:0|0:0,0:0:0:0:
435,123,125259,6,0,L|428:252,1,104.999996795654,6|2,0:0|0:0,0:0:0:0:
424,280,125759,1,8,0:0:0:0:
326,319,126092,2,0,L|328:371,2,52.4999983978272,2|2|8,0:0|0:0|0:0,0:0:0:0:
289,281,126592,2,0,P|272:222|278:170,1,104.999996795654,6|2,0:0|0:0,0:0:0:0:
290,128,127092,1,8,0:0:0:0:
354,44,127425,2,0,L|422:48,2,52.4999983978272,2|2|8,0:0|0:0|0:0,0:0:0:0:
301,37,127925,6,0,B|271:36|250:25|250:25|231:21|198:29,1,104.999996795654,6|2,0:0|0:0,0:0:0:0:
153,57,128425,1,8,0:0:0:0:
105,150,128759,2,0,L|110:259,1,104.999996795654,2|8,0:0|0:0,0:0:0:0:
112,307,129259,2,0,P|167:299|224:323,1,104.999996795654,6|2,0:0|0:0,0:0:0:0:
259,349,129759,1,8,0:0:0:0:
259,349,129925,2,0,P|308:332|359:341,1,104.999996795654,6|2,0:0|0:0,0:0:0:0:
412,365,130425,1,8,0:0:0:0:
412,365,130592,6,0,L|417:254,1,104.999996795654,6|2,0:0|0:0,0:0:0:0:
421,207,131092,1,8,0:0:0:0:
380,110,131425,2,0,P|311:100|259:116,1,104.999996795654,2|8,0:0|0:0,0:0:0:0:
229,130,131925,2,0,P|177:138|126:127,1,104.999996795654,6|2,0:0|0:0,0:0:0:0:
80,115,132425,1,8,0:0:0:0:
80,115,132592,2,0,L|74:226,1,104.999996795654,2|2,0:0|0:0,0:0:0:0:
75,276,133092,1,8,0:0:0:0:
75,276,133259,6,0,P|121:297|174:300,1,104.999996795654,6|2,0:0|0:0,0:0:0:0:
225,286,133759,1,8,0:0:0:0:
307,221,134092,2,0,L|368:225,2,52.4999983978272,2|2|8,0:0|0:0|0:0,0:0:0:0:
261,194,134592,2,0,P|252:145|266:81,1,104.999996795654,6|2,0:0|0:0,0:0:0:0:
286,44,135092,1,8,0:0:0:0:
389,24,135425,2,0,P|435:40|484:84,1,104.999996795654,2|8,0:0|0:0,0:0:0:0:
499,130,135925,1,2,0:0:0:0:
499,130,136092,6,0,L|492:246,1,104.999996795654,12|8,0:0|0:0,0:0:0:0:
429,318,136759,2,0,L|367:322,1,52.4999983978272,8|8,0:0|0:0,0:0:0:0:
329,344,137092,2,0,L|267:340,1,52.4999983978272,8|8,0:0|0:0,0:0:0:0:
226,337,137425,5,6,0:0:0:0:
256,192,137592,12,2,142092,0:0:0:0:
210,249,142759,6,0,P|154:236|95:249,2,100,6|2|2,0:0|0:0|0:0,0:0:0:0:
296,299,143759,2,0,P|351:311|411:299,2,100,6|2|2,0:0|0:0|0:0,0:0:0:0:
210,249,144759,2,0,L|213:188,1,50,2|8,0:0|0:0,0:0:0:0:
217,149,145092,1,6,0:0:0:0:
283,74,145425,6,0,P|338:61|398:74,2,100,6|2|2,0:0|0:0|0:0,0:0:0:0:
217,149,146425,2,0,P|161:161|102:149,2,100,6|2|2,0:0|0:0|0:0,0:0:0:0:
283,74,147425,2,0,L|279:19,1,50,2|8,0:0|0:0,0:0:0:0:
286,106,158759,6,0,P|201:87|114:161,1,200,6|2,0:0|0:0,0:0:0:0:
76,243,159759,1,8,0:0:0:0:
133,324,160092,2,0,L|339:300,1,200,6|8,0:0|0:0,0:0:0:0:
482,169,161425,6,0,P|479:66|392:12,1,200,6|8,0:0|0:0,0:0:0:0:
305,18,162425,1,0,3:0:0:0:
221,73,162759,2,0,L|228:172,1,100,2|0,0:0|3:0,0:0:0:0:
301,240,163425,2,0,L|294:339,1,100,2|2,0:0|0:0,0:0:0:0:
197,365,164092,6,0,P|145:364|89:340,2,100,6|2|2,0:0|0:0|0:0,0:0:0:0:
294,340,165092,1,2,0:0:0:0:
388,309,165425,2,0,P|440:310|496:334,2,100,2|2|2,0:0|0:0|0:0,0:0:0:0:
294,340,166425,1,2,0:0:0:0:
216,276,166759,6,0,L|208:166,1,100,6|0,0:0|3:0,0:0:0:0:
178,81,167425,2,0,P|130:60|68:65,1,100,0|0,3:0|1:0,0:0:0:0:
12,131,168092,1,8,0:0:0:0:
12,230,168425,1,8,0:0:0:0:
82,300,168759,1,8,0:0:0:0:
181,300,169092,1,8,0:0:0:0:
251,229,169425,6,0,B|290:181|373:202|373:202|341:260|378:316,1,250,0|0,0:0|0:0,0:0:0:0:
481,313,170592,6,0,P|498:256|491:211,1,104.999996795654,6|2,0:0|0:0,0:0:0:0:
471,163,171092,1,8,0:0:0:0:
384,103,171425,2,0,L|272:109,1,104.999996795654,2|8,0:0|0:0,0:0:0:0:
230,129,171925,2,0,L|118:123,1,104.999996795654,6|2,0:0|0:0,0:0:0:0:
76,122,172425,1,8,0:0:0:0:
76,122,172592,2,0,P|61:181|76:240,1,104.999996795654,2|2,0:0|0:0,0:0:0:0:
99,273,173092,1,8,0:0:0:0:
99,273,173259,6,0,P|148:253|219:261,1,104.999996795654,6|2,0:0|0:0,0:0:0:0:
250,264,173759,1,8,0:0:0:0:
346,305,174092,2,0,L|342:365,2,52.4999983978272,2|2|8,0:0|0:0|0:0,0:0:0:0:
368,257,174592,2,0,L|362:131,1,104.999996795654,6|2,0:0|0:0,0:0:0:0:
361,104,175092,1,8,0:0:0:0:
361,104,175259,2,0,P|310:89|252:96,1,104.999996795654,6|2,0:0|0:0,0:0:0:0:
216,122,175759,1,8,0:0:0:0:
216,122,175925,6,0,L|211:226,1,104.999996795654,6|2,0:0|0:0,0:0:0:0:
207,279,176425,1,8,0:0:0:0:
112,324,176759,2,0,L|116:376,2,52.4999983978272,2|2|8,0:0|0:0|0:0,0:0:0:0:
75,286,177259,2,0,P|59:235|70:168,1,104.999996795654,6|2,0:0|0:0,0:0:0:0:
99,145,177759,1,8,0:0:0:0:
99,145,177925,2,0,P|150:161|217:150,1,104.999996795654,2|2,0:0|0:0,0:0:0:0:
249,132,178425,1,8,0:0:0:0:
249,132,178592,6,0,L|356:137,1,104.999996795654,6|2,0:0|0:0,0:0:0:0:
392,234,179259,2,0,L|285:239,1,104.999996795654,2|2,0:0|0:0,0:0:0:0:
245,268,179759,1,8,0:0:0:0:
245,268,179925,2,0,P|196:278|138:263,1,104.999996795654,6|2,0:0|0:0,0:0:0:0:
105,229,180425,1,8,0:0:0:0:
53,137,180759,2,0,L|0:141,2,52.4999983978272,2|8|8,0:0|0:0|0:0,0:0:0:0:
98,110,181259,6,0,P|150:112|211:114,1,104.999996795654,6|2,0:0|0:0,0:0:0:0:
255,117,181759,1,8,0:0:0:0:
350,74,182092,2,0,L|346:12,2,52.4999983978272,2|2|8,0:0|0:0|0:0,0:0:0:0:
383,114,182592,2,0,P|398:166|385:224,1,104.999996795654,6|2,0:0|0:0,0:0:0:0:
356,256,183092,1,8,0:0:0:0:
259,296,183425,2,0,L|264:361,2,52.4999983978272,2|2|8,0:0|0:0|0:0,0:0:0:0:
242,246,183925,6,0,B|215:229|192:229|192:229|175:244|137:252,1,104.999996795654,6|2,0:0|0:0,0:0:0:0:
93,254,184425,1,8,0:0:0:0:
11,187,184759,2,0,L|14:72,1,104.999996795654,2|8,0:0|0:0,0:0:0:0:
17,29,185259,2,0,P|60:43|138:32,1,104.999996795654,6|2,0:0|0:0,0:0:0:0:
173,25,185759,1,8,0:0:0:0:
173,25,185925,2,0,L|290:29,1,104.999996795654,6|2,0:0|0:0,0:0:0:0:
334,34,186425,1,8,0:0:0:0:
334,34,186592,6,0,P|348:77|337:155,1,104.999996795654,6|2,0:0|0:0,0:0:0:0:
316,180,187092,1,8,0:0:0:0:
216,214,187425,2,0,L|100:206,1,104.999996795654,2|8,0:0|0:0,0:0:0:0:
58,209,187925,2,0,P|41:264|56:324,1,104.999996795654,6|2,0:0|0:0,0:0:0:0:
79,359,188425,1,8,0:0:0:0:
79,359,188592,2,0,P|134:342|201:353,1,104.999996795654,2|2,0:0|0:0,0:0:0:0:
234,369,189092,1,8,0:0:0:0:
234,369,189259,6,0,L|355:364,1,104.999996795654,6|2,0:0|0:0,0:0:0:0:
391,360,189759,1,8,0:0:0:0:
458,279,190092,2,0,L|515:283,2,52.4999983978272,2|2|8,0:0|0:0|0:0,0:0:0:0:
419,243,190592,2,0,P|427:182|415:133,1,104.999996795654,6|0,0:0|0:0,0:0:0:0:
390,94,191092,1,8,0:0:0:0:
284,111,191425,2,0,L|287:166,2,52.4999983978272,2|8|8,0:0|0:0|0:0,0:0:0:0:
250,70,191925,2,0,P|194:66|145:90,1,104.999996795654,0|2,0:0|0:0,0:0:0:0:
114,123,192425,5,12,0:0:0:0:
65,216,192759,2,0,L|1:212,2,52.4999983978272,2|0|8,0:0|0:0|0:0,0:0:0:0:
110,241,193259,2,0,P|171:232|233:256,1,104.999996795654,6|2,0:0|0:0,0:0:0:0:
253,285,193759,1,8,0:0:0:0:
253,285,193925,2,0,P|312:304|376:290,1,104.999996795654,2|2,0:0|0:0,0:0:0:0:
407,285,194425,1,8,0:0:0:0:
407,285,194592,6,0,L|400:175,1,104.999996795654,6|2,0:0|0:0,0:0:0:0:
393,127,195092,1,8,0:0:0:0:
308,64,195425,2,0,L|312:6,2,52.4999983978272,2|2|8,0:0|0:0|0:0,0:0:0:0:
282,109,195925,2,0,P|263:162|277:225,1,104.999996795654,6|2,0:0|0:0,0:0:0:0:
290,263,196425,1,8,0:0:0:0:
290,263,196592,2,0,P|237:251|183:269,1,104.999996795654,6|2,0:0|0:0,0:0:0:0:
145,289,197092,1,8,0:0:0:0:
145,289,197259,6,0,L|150:178,1,104.999996795654,6|2,0:0|0:0,0:0:0:0:
157,132,197759,1,8,0:0:0:0:
236,63,198092,2,0,L|230:10,2,52.4999983978272,2|2|8,0:0|0:0|0:0,0:0:0:0:
268,104,198592,2,0,P|320:117|383:101,1,104.999996795654,6|2,0:0|0:0,0:0:0:0:
421,88,199092,1,8,0:0:0:0:
421,88,199259,2,0,L|429:199,1,104.999996795654,2|2,0:0|0:0,0:0:0:0:
457,243,199759,1,8,0:0:0:0:
457,243,199925,6,0,L|449:354,1,104.999996795654,6|2,0:0|0:0,0:0:0:0:
344,347,200592,2,0,L|336:242,1,104.999996795654,2|2,0:0|0:0,0:0:0:0:
315,200,201092,1,8,0:0:0:0:
315,200,201259,2,0,P|259:187|205:202,1,104.999996795654,6|2,0:0|0:0,0:0:0:0:
169,226,201759,1,8,0:0:0:0:
89,295,202092,2,0,L|92:361,2,52.4999983978272,2|8|8,0:0|0:0|0:0,0:0:0:0:
49,259,202592,6,0,P|35:201|52:141,1,104.999996795654,6|2,0:0|0:0,0:0:0:0:
70,112,203092,1,8,0:0:0:0:
162,62,203425,2,0,L|156:0,2,52.4999983978272,2|2|8,0:0|0:0|0:0,0:0:0:0:
202,96,203925,2,0,P|215:146|207:197,1,104.999996795654,6|2,0:0|0:0,0:0:0:0:
182,244,204425,1,8,0:0:0:0:
91,296,204759,2,0,L|24:291,2,52.4999983978272,2|2|8,0:0|0:0|0:0,0:0:0:0:
130,331,205259,6,0,B|162:335|162:335|181:346|181:346|206:344|235:326,1,104.999996795654,6|2,0:0|0:0,0:0:0:0:
271,300,205759,1,8,0:0:0:0:
313,204,206092,2,0,L|305:78,1,104.999996795654,2|8,0:0|0:0,0:0:0:0:
305,46,206592,2,0,P|360:37|421:51,1,104.999996795654,6|2,0:0|0:0,0:0:0:0:
462,67,207092,1,8,0:0:0:0:
462,67,207259,2,0,L|454:173,1,104.999996795654,6|2,0:0|0:0,0:0:0:0:
450,224,207759,1,8,0:0:0:0:
450,224,207925,6,0,P|393:209|334:219,1,104.999996795654,6|2,0:0|0:0,0:0:0:0:
301,239,208425,1,8,0:0:0:0:
215,299,208759,2,0,L|99:293,1,104.999996795654,2|8,0:0|0:0,0:0:0:0:
58,286,209259,2,0,P|47:227|63:176,1,104.999996795654,6|2,0:0|0:0,0:0:0:0:
89,143,209759,1,8,0:0:0:0:
89,143,209925,2,0,P|148:154|199:138,1,104.999996795654,2|2,0:0|0:0,0:0:0:0:
232,110,210425,1,8,0:0:0:0:
232,110,210592,6,0,L|350:117,1,104.999996795654,6|2,0:0|0:0,0:0:0:0:
388,123,211092,1,8,0:0:0:0:
454,203,211425,2,0,L|513:199,2,52.4999983978272,2|2|8,0:0|0:0|0:0,0:0:0:0:
410,233,211925,2,0,P|360:245|296:235,1,104.999996795654,6|2,0:0|0:0,0:0:0:0:
262,211,212425,1,8,0:0:0:0:
232,110,212759,2,0,P|182:98|118:108,1,104.999996795654,2|8,0:0|0:0,0:0:0:0:
88,135,213259,1,2,0:0:0:0:
88,135,213425,6,0,L|98:257,1,104.999996795654,12|8,0:0|0:0,0:0:0:0:
164,319,214092,2,0,L|217:322,1,52.4999983978272,8|8,0:0|0:0,0:0:0:0:
262,347,214425,2,0,L|315:344,1,52.4999983978272,8|8,0:0|0:0,0:0:0:0:
364,337,214759,5,6,0:0:0:0:
256,192,214925,12,2,219425,0:0:0:0:
210,135,220092,6,0,P|154:148|95:135,2,100,6|2|2,0:0|0:0|0:0,0:0:0:0:
296,85,221092,2,0,P|351:73|411:85,2,100,6|2|2,0:0|0:0|0:0,0:0:0:0:
210,135,222092,2,0,L|213:196,1,50,2|8,0:0|0:0,0:0:0:0:
217,235,222425,1,6,0:0:0:0:
152,310,222758,6,0,P|97:323|37:310,2,100,6|2|2,0:0|0:0|0:0,0:0:0:0:
217,235,223758,2,0,P|273:247|332:235,2,100,6|2|2,0:0|0:0|0:0,0:0:0:0:
125,194,224758,2,0,L|121:139,1,50,8|8,0:0|0:0,0:0:0:0:
90,104,225092,2,0,L|94:49,1,50,8|8,0:0|0:0,0:0:0:0:
125,15,225425,5,6,0:0:0:0:
256,192,225592,12,0,236759,0:0:0:0:
