osu file format v14

[General]
AudioFilename: audio.mp3
AudioLeadIn: 0
PreviewTime: 59082
Countdown: 0
SampleSet: Soft
StackLeniency: 0.7
Mode: 0
LetterboxInBreaks: 0
WidescreenStoryboard: 1

[Editor]
DistanceSpacing: 2
BeatDivisor: 4
GridSize: 32
TimelineZoom: 0.9

[Metadata]
Title:Jitter Doll
TitleUnicode:ジッタードール
Artist:Yuaru
ArtistUnicode:ゆある
Creator:-Laura-
Version:Insane
Source:
Tags:Akitoshi Corinn niki Nyun 歌い手 utaite cover
BeatmapID:1630936
BeatmapSetID:773512

[Difficulty]
HPDrainRate:6
CircleSize:3.8
OverallDifficulty:7.5
ApproachRate:9
SliderMultiplier:1.5
SliderTickRate:1

[Events]
//Background and Video events
0,0,"doll.jpg",0,0
//Break Periods
//Storyboard Layer 0 (Background)
//Storyboard Layer 1 (Fail)
//Storyboard Layer 2 (Pass)
//Storyboard Layer 3 (Foreground)
//Storyboard Sound Samples

[TimingPoints]
16092,333.333333333333,4,2,5,40,1,0
17258,-100,4,2,5,5,0,0
17426,333.333333333333,4,2,5,40,1,0
17426,-125,4,2,5,40,0,0
28092,-200,4,2,5,40,0,0
32009,-200,4,2,5,5,0,0
32092,-200,4,2,5,40,0,0
37426,-111.111111111111,4,2,5,50,0,0
38759,-100,4,2,5,65,0,0
49425,-200,4,2,5,50,0,0
54092,-125,4,2,5,50,0,0
54759,-111.111111111111,4,2,5,65,0,0
57425,-100,4,2,5,65,0,0
59925,-90.9090909090909,4,2,5,80,0,1
73259,-71.4285714285714,4,2,5,80,0,1
73759,-90.9090909090909,4,2,5,80,0,1
82759,-100,4,2,5,65,0,0
104092,-153.846153846154,4,2,5,50,0,0
108759,-125,4,2,5,50,0,0
109425,-111.111111111111,4,2,5,65,0,0
112092,-100,4,2,5,65,0,0
114592,-90.9090909090909,4,2,5,80,0,1
127925,-71.4285714285714,4,2,5,80,0,1
128425,-90.9090909090909,4,2,5,80,0,1
137425,-90.9090909090909,4,2,5,70,0,0
148092,-200,4,2,5,50,0,0
148425,-200,4,2,5,20,0,0
149425,-200,4,2,5,30,0,0
149759,-200,4,2,5,20,0,0
150759,-200,4,2,5,30,0,0
151092,-200,4,2,5,20,0,0
152092,-200,4,2,5,30,0,0
152425,-200,4,2,5,20,0,0
153425,-200,4,2,5,30,0,0
153759,-200,4,2,5,20,0,0
154759,-200,4,2,5,30,0,0
155092,-200,4,2,5,20,0,0
156092,-200,4,2,5,30,0,0
156425,-200,4,2,5,20,0,0
157425,-200,4,2,5,30,0,0
157759,-200,4,2,5,20,0,0
158759,-125,4,2,5,50,0,0
161092,-125,4,2,5,5,0,0
161175,-125,4,2,5,50,0,0
161342,-125,4,2,5,5,0,0
161425,-125,4,2,5,50,0,0
164092,-111.111111111111,4,2,5,60,0,0
166759,-100,4,2,5,65,0,0
169425,-166.666666666667,4,2,5,65,0,0
170425,-166.666666666667,4,2,5,5,0,0
170592,-90.9090909090909,4,2,5,80,0,1
183925,-71.4285714285714,4,2,5,80,0,1
184425,-90.9090909090909,4,2,5,80,0,1
191925,-166.666666666667,4,2,5,80,0,0
192425,-90.9090909090909,4,2,5,80,0,1
205259,-71.4285714285714,4,2,5,80,0,1
205759,-90.9090909090909,4,2,5,80,0,1
214759,-90.9090909090909,4,2,5,80,0,0
228092,-83.3333333333333,4,2,5,50,0,0
230759,-83.3333333333333,4,2,5,30,0,0
233425,-83.3333333333333,4,2,5,20,0,0
235425,-83.3333333333333,4,2,5,10,0,0
236759,-83.3333333333333,4,2,5,5,0,0

[Colours]
Combo1 : 192,192,192
Combo2 : 128,128,192
Combo3 : 0,0,225
Combo4 : 255,72,164

[HitObjects]
256,192,16091,12,0,17258,0:0:0:0:
66,209,17426,6,0,L|198:193,1,120,6|0,0:0|1:0,0:0:0:0:
185,194,18092,1,0,1:0:0:0:
185,194,18426,1,0,1:0:0:0:
323,78,18759,5,0,1:0:0:0:
323,78,19092,1,0,1:0:0:0:
323,78,19426,1,0,1:0:0:0:
323,78,19759,1,0,1:0:0:0:
236,52,19926,1,2,0:0:0:0:
151,81,20092,6,0,L|22:72,1,120,6|0,0:0|1:0,0:0:0:0:
31,72,20759,1,0,1:0:0:0:
31,72,21092,1,0,1:0:0:0:
4,158,21259,2,0,L|7:230,1,60,6|0,0:0|0:0,0:0:0:0:
76,274,21592,1,6,0:0:0:0:
146,218,21759,6,0,P|185:206|268:226,1,120,0|0,1:0|1:0,0:0:0:0:
261,221,22426,1,0,1:0:0:0:
438,192,22759,6,0,P|443:128|408:61,1,120,6|0,0:0|1:0,0:0:0:0:
421,77,23426,1,0,1:0:0:0:
421,77,23759,1,0,1:0:0:0:
255,146,24092,5,0,1:0:0:0:
255,146,24426,1,0,1:0:0:0:
255,146,24759,1,0,1:0:0:0:
255,146,25092,1,0,1:0:0:0:
174,119,25259,1,2,0:0:0:0:
93,158,25426,6,0,L|100:280,1,120,6|0,0:0|1:0,0:0:0:0:
99,277,26092,1,0,1:0:0:0:
99,277,26426,1,0,1:0:0:0:
183,332,26592,2,0,P|222:331|260:324,1,60,6|0,0:0|0:0,0:0:0:0:
313,270,26926,1,6,0:0:0:0:
264,194,27092,6,0,P|245:127|266:77,1,120,0|0,1:0|1:0,0:0:0:0:
262,82,27759,1,0,1:0:0:0:
262,82,28092,5,6,0:0:0:0:
124,141,28259,1,2,0:0:0:0:
124,141,30759,5,6,0:0:0:0:
262,200,30926,1,2,0:0:0:0:
262,200,31426,2,2,L|255:337,1,131.25,0|0,0:3|0:3,0:3:0:0:
255,331,32092,5,6,0:0:0:0:
387,259,32259,1,2,0:0:0:0:
387,259,33426,5,6,0:0:0:0:
314,127,33593,1,2,0:0:0:0:
314,127,34092,5,2,0:0:0:0:
314,127,34759,1,2,0:0:0:0:
314,127,35426,1,2,0:0:0:0:
314,127,36092,5,6,0:0:0:0:
259,267,36259,1,2,0:0:0:0:
259,267,36759,1,2,0:0:0:0:
259,267,37426,5,6,0:0:0:0:
173,162,37592,1,2,0:0:0:0:
94,286,37759,2,0,L|98:368,1,67.4999979400635,8|0,0:0|0:0,0:0:0:0:
237,285,38092,1,2,0:0:0:0:
96,259,38259,1,0,0:0:0:0:
191,144,38426,1,8,0:0:0:0:
215,133,38509,1,8,0:0:0:0:
242,128,38592,1,8,0:0:0:0:
269,131,38676,1,8,0:0:0:0:
294,140,38759,6,0,P|300:196|303:231,1,75,6|0,0:0|0:0,0:0:0:0:
398,81,39092,1,8,0:0:0:0:
285,38,39259,1,2,0:0:0:0:
285,38,39342,1,2,0:0:0:0:
285,38,39425,2,0,P|246:30|194:42,1,75,2|0,0:0|0:0,0:0:0:0:
106,121,39759,1,8,0:0:0:0:
153,231,39925,6,0,P|233:221|322:213,1,150,2|2,0:0|0:0,0:0:0:0:
433,245,40425,1,8,0:0:0:0:
341,321,40592,2,0,P|304:329|267:322,1,75,2|0,0:0|0:0,0:0:0:0:
146,261,40925,1,2,0:0:0:0:
146,261,41009,1,2,0:0:0:0:
146,261,41092,1,8,0:0:0:0:
273,216,41259,1,8,0:0:0:0:
132,146,41425,6,0,P|88:148|36:149,1,75,6|0,0:0|0:0,0:0:0:0:
162,20,41759,1,8,0:0:0:0:
284,53,41925,1,2,0:0:0:0:
284,53,42009,1,2,0:0:0:0:
284,53,42092,2,0,P|292:92|281:143,1,75,2|0,0:0|0:0,0:0:0:0:
224,246,42425,1,8,0:0:0:0:
328,332,42592,6,0,B|437:343|437:343|492:315,1,150,2|0,0:0|0:0,0:0:0:0:
398,211,43092,1,2,0:0:0:0:
398,211,43175,1,2,0:0:0:0:
398,211,43259,1,8,0:0:0:0:
289,161,43425,2,0,P|280:196|283:242,1,75,2|2,0:0|0:0,0:0:0:0:
328,332,43759,1,2,0:0:0:0:
398,211,43925,1,8,0:0:0:0:
292,126,44092,6,0,L|206:121,1,75,6|0,0:0|0:0,0:0:0:0:
328,10,44425,1,8,0:0:0:0:
424,104,44592,1,2,0:0:0:0:
424,104,44675,1,2,0:0:0:0:
424,104,44759,2,0,P|462:102|498:100,1,75,2|2,0:0|0:0,0:0:0:0:
450,226,45092,1,8,0:0:0:0:
324,174,45259,6,0,P|255:171|197:237,1,150,2|2,0:0|0:0,0:0:0:0:
196,360,45759,1,8,0:0:0:0:
286,260,45925,1,8,0:0:0:0:
364,370,46092,1,2,0:0:0:0:
364,370,46175,1,2,0:0:0:0:
364,370,46259,1,2,0:0:0:0:
454,270,46425,1,8,0:0:0:0:
311,276,46592,1,8,0:0:0:0:
472,242,46759,6,0,P|469:202|464:154,1,75,6|0,0:0|0:0,0:0:0:0:
371,49,47092,1,8,0:0:0:0:
281,129,47259,1,2,0:0:0:0:
281,129,47342,1,2,0:0:0:0:
281,129,47425,1,2,0:0:0:0:
356,222,47592,1,2,0:0:0:0:
446,142,47759,1,8,0:0:0:0:
341,249,47925,6,0,P|265:242|184:236,1,150,2|2,0:0|0:0,0:0:0:0:
41,226,48425,1,2,0:0:0:0:
41,226,48509,1,2,0:0:0:0:
41,226,48592,1,8,0:0:0:0:
126,111,48759,1,2,0:0:0:0:
149,99,48842,1,2,0:0:0:0:
174,96,48925,1,2,0:0:0:0:
200,99,49009,1,2,0:0:0:0:
223,110,49092,1,8,0:0:0:0:
268,241,49259,1,8,0:0:0:0:
159,320,49425,5,6,0:0:0:0:
159,320,49759,1,2,0:0:0:0:
159,320,50092,2,0,L|76:324,1,75,2|2,0:0|0:0,0:0:0:0:
52,115,50759,5,2,0:0:0:0:
52,115,51093,1,2,0:0:0:0:
52,115,51426,2,0,L|135:111,1,75,2|2,0:0|0:0,0:0:0:0:
340,40,52092,5,6,0:0:0:0:
340,40,52425,1,2,0:0:0:0:
340,40,52759,1,2,0:0:0:0:
340,40,53092,1,2,0:0:0:0:
342,234,53425,5,2,0:0:0:0:
342,234,53758,1,2,0:0:0:0:
342,234,54092,2,0,L|346:280,3,30,2|0|0|0,0:0|0:0|0:0|0:0,0:0:0:0:
370,293,54425,2,0,L|366:339,3,30,2|0|0|0,0:0|0:0|0:0|0:0,0:0:0:0:
344,361,54759,6,0,P|287:338|214:340,1,134.999995880127,6|0,0:0|0:0,0:0:0:0:
102,364,55259,2,0,P|79:307|81:234,1,134.999995880127,2|0,0:0|0:0,0:0:0:0:
110,123,55759,2,0,L|33:115,1,67.4999979400635,2|0,0:0|0:0,0:0:0:0:
170,27,56092,5,0,1:0:0:0:
170,27,56425,2,0,L|247:19,1,67.4999979400635,0|0,3:0|0:0,0:0:0:0:
267,129,56759,2,0,L|200:136,1,67.4999979400635,0|0,3:0|0:0,0:0:0:0:
230,245,57092,2,0,L|307:237,1,67.4999979400635,0|0,3:0|0:0,0:0:0:0:
469,224,57425,5,6,0:0:0:0:
469,224,57509,1,2,0:0:0:0:
469,224,57592,1,2,0:0:0:0:
341,129,57759,2,0,P|283:125|257:132,1,75,8|0,0:0|0:0,0:0:0:0:
131,193,58092,1,2,0:0:0:0:
185,52,58259,1,2,0:0:0:0:
185,52,58342,1,8,0:0:0:0:
185,52,58425,1,8,0:0:0:0:
225,212,58592,6,0,L|220:294,1,75,6|0,0:0|0:0,0:0:0:0:
48,362,58925,1,2,0:0:0:0:
103,182,59092,1,8,0:0:0:0:
103,182,59925,6,0,B|157:171|157:171|205:194|205:194|269:180,1,165.000005035401,6|2,0:0|0:0,0:0:0:0:
350,300,60425,2,0,P|303:296|252:293,1,82.5000025177003,8|0,0:0|0:0,0:0:0:0:
426,221,60759,1,2,0:0:0:0:
374,332,60925,1,2,0:0:0:0:
296,176,61092,1,8,0:0:0:0:
235,302,61259,6,0,P|152:324|76:291,1,165.000005035401,6|2,0:0|0:0,0:0:0:0:
24,166,61759,1,8,0:0:0:0:
156,116,61925,2,0,P|165:157|161:198,1,82.5000025177003,2|0,0:0|0:0,0:0:0:0:
78,34,62259,1,2,0:0:0:0:
239,63,62425,1,8,0:0:0:0:
129,208,62592,6,0,P|108:295|146:377,1,165.000005035401,6|2,0:0|0:0,0:0:0:0:
315,288,63092,2,0,P|274:285|233:281,1,82.5000025177003,8|0,0:0|0:0,0:0:0:0:
346,99,63425,1,2,0:0:0:0:
427,235,63592,2,0,P|467:243|507:237,1,82.5000025177003,2|8,0:0|0:0,0:0:0:0:
318,107,63925,6,0,B|272:99|229:115|253:127|209:146|154:131,1,165.000005035401,6|2,0:0|0:0,0:0:0:0:
187,11,64425,1,8,0:0:0:0:
71,54,64592,2,0,P|40:129|67:206,1,165.000005035401,6|2,0:0|0:0,0:0:0:0:
164,283,65092,1,8,0:0:0:0:
276,231,65259,6,0,B|404:220|404:220|365:257,1,165.000005035401,6|2,0:0|0:0,0:0:0:0:
289,135,65759,2,0,L|401:125,1,82.5000025177003,8|0,0:0|0:0,0:0:0:0:
228,44,66092,1,2,0:0:0:0:
198,164,66259,1,2,0:0:0:0:
111,44,66425,1,8,0:0:0:0:
33,170,66592,6,0,P|23:206|30:253,1,82.5000025177003,6|0,0:0|0:0,0:0:0:0:
186,258,66925,2,0,P|157:229|119:215,1,82.5000025177003,2|8,0:0|0:0,0:0:0:0:
34,348,67259,2,0,P|73:337|105:311,1,82.5000025177003,2|0,0:0|0:0,0:0:0:0:
237,175,67592,1,2,0:0:0:0:
272,353,67759,1,8,0:0:0:0:
119,215,67925,6,0,L|128:112,1,82.5000025177003,6|0,0:0|0:0,0:0:0:0:
225,9,68259,2,0,L|234:112,1,82.5000025177003,2|8,0:0|0:0,0:0:0:0:
351,193,68592,2,0,P|395:180|445:182,1,82.5000025177003,2|0,0:0|0:0,0:0:0:0:
366,340,68925,2,0,P|324:339|285:326,1,82.5000025177003,2|8,0:0|0:0,0:0:0:0:
201,173,69259,6,0,B|145:168|145:168|98:190|98:190|38:184,1,165.000005035401,6|2,0:0|0:0,0:0:0:0:
117,56,69759,2,0,L|215:44,1,82.5000025177003,8|0,0:0|0:0,0:0:0:0:
342,85,70092,1,2,0:0:0:0:
290,224,70259,1,8,0:0:0:0:
269,249,70342,1,8,0:0:0:0:
241,267,70425,1,8,0:0:0:0:
210,275,70508,1,8,0:0:0:0:
177,273,70592,6,0,P|238:264|323:336,1,165.000005035401,6|2,0:0|0:0,0:0:0:0:
455,378,71092,2,0,P|459:335|463:281,1,82.5000025177003,8|0,0:0|0:0,0:0:0:0:
475,147,71425,1,2,0:0:0:0:
360,193,71592,1,2,0:0:0:0:
505,132,71759,1,8,0:0:0:0:
363,66,71925,6,0,B|317:50|284:58|284:58|249:89|182:80,1,165.000005035401,6|2,0:0|0:0,0:0:0:0:
49,59,72425,2,0,P|38:98|46:156,1,82.5000025177003,8|0,0:0|0:0,0:0:0:0:
73,295,72759,1,2,0:0:0:0:
168,217,72925,1,2,0:0:0:0:
0,233,73092,1,8,0:0:0:0:
190,323,73259,6,0,B|245:342|245:342|345:317|345:317|284:288,1,209.999993591309,6|2,0:0|0:0,0:0:0:0:
168,217,73759,2,0,P|161:173|174:128,1,82.5000025177003,8|0,0:0|0:0,0:0:0:0:
272,40,74092,1,2,0:0:0:0:
262,180,74259,1,2,0:0:0:0:
167,25,74425,1,8,0:0:0:0:
344,113,74592,6,0,B|470:101|470:101|430:140,1,165.000005035401,6|2,0:0|0:0,0:0:0:0:
331,250,75092,1,8,0:0:0:0:
168,217,75259,2,0,B|119:203|119:203|59:225|59:225|-1:210,1,165.000005035401,6|2,0:0|0:0,0:0:0:0:
122,334,75759,1,8,0:0:0:0:
286,332,75925,6,0,B|314:253|251:256|282:160,1,165.000005035401,6|2,0:0|0:0,0:0:0:0:
323,55,76425,2,0,L|224:48,1,82.5000025177003,8|0,0:0|0:0,0:0:0:0:
133,113,76759,1,2,0:0:0:0:
245,162,76925,1,2,0:0:0:0:
138,14,77092,1,8,0:0:0:0:
35,164,77259,6,0,P|8:241|47:340,1,165.000005035401,6|2,0:0|0:0,0:0:0:0:
170,367,77759,1,8,0:0:0:0:
224,255,77925,2,0,P|185:243|144:244,1,82.5000025177003,2|0,0:0|0:0,0:0:0:0:
283,364,78259,1,2,0:0:0:0:
324,205,78425,1,8,0:0:0:0:
461,296,78592,6,0,B|485:258|485:258|464:120,1,165.000005035401,6|2,0:0|0:0,0:0:0:0:
325,93,79092,2,0,L|315:194,1,82.5000025177003,8|0,0:0|0:0,0:0:0:0:
222,39,79425,1,2,0:0:0:0:
366,3,79592,2,0,P|400:29|420:72,1,82.5000025177003,2|8,0:0|0:0,0:0:0:0:
396,227,79925,6,0,B|333:218|333:218|294:232|294:232|215:218,1,165.000005035401,6|2,0:0|0:0,0:0:0:0:
113,135,80425,2,0,P|157:129|201:123,1,82.5000025177003,8|0,0:0|0:0,0:0:0:0:
6,89,80759,1,2,0:0:0:0:
66,214,80925,1,2,0:0:0:0:
145,41,81092,2,0,P|186:28|243:40,1,82.5000025177003,8|2,0:0|0:0,0:0:0:0:
341,190,81425,5,12,0:0:0:0:
194,123,81592,1,2,0:0:0:0:
276,259,81759,1,8,0:0:0:0:
291,102,81925,1,2,0:0:0:0:
291,102,82009,1,2,0:0:0:0:
291,102,82092,1,8,0:0:0:0:
187,222,82259,1,8,0:0:0:0:
341,190,82425,1,8,0:0:0:0:
377,184,82508,1,8,0:0:0:0:
414,190,82591,1,8,0:0:0:0:
446,208,82674,1,8,0:0:0:0:
472,234,82759,6,0,P|435:289|349:305,1,150,6|8,0:0|0:0,0:0:0:0:
235,246,83259,2,0,L|228:165,1,75,0|2,0:0|0:0,0:0:0:0:
165,77,83592,1,2,0:0:0:0:
124,206,83759,1,8,0:0:0:0:
31,108,83925,6,0,P|20:72|25:22,1,75,2|0,0:0|0:0,0:0:0:0:
155,3,84259,2,0,P|165:38|164:76,1,75,2|8,0:0|0:0,0:0:0:0:
157,202,84592,2,0,P|232:196|307:191,1,150,2|2,0:0|0:0,0:0:0:0:
412,299,85092,2,0,P|348:294|297:290,1,112.5,8|8,0:0|0:0,0:0:0:0:
262,294,85425,6,0,P|212:317|114:297,1,150,6|8,0:0|0:0,0:0:0:0:
33,198,85925,1,0,0:0:0:0:
33,198,86009,1,0,0:0:0:0:
33,198,86092,2,0,L|24:106,2,75,2|2|0,0:0|0:0|0:0,0:0:0:0:
183,200,86592,6,0,B|192:152|192:152|177:104|177:104|188:41,1,150,8|2,0:0|0:0,0:0:0:0:
316,19,87092,2,0,L|328:100,1,75,8|0,0:0|0:0,0:0:0:0:
350,203,87425,1,2,0:0:0:0:
420,115,87592,1,2,0:0:0:0:
262,166,87759,1,8,0:0:0:0:
243,194,87842,1,8,0:0:0:0:
234,226,87925,1,8,0:0:0:0:
236,260,88008,1,8,0:0:0:0:
248,291,88092,6,0,P|185:266|91:287,1,150,6|0,0:0|3:0,0:0:0:0:
3,190,88592,2,0,P|12:148|13:104,1,75,8|2,0:0|0:0,0:0:0:0:
129,45,88925,2,0,P|131:82|139:118,1,75,0|8,0:0|0:0,0:0:0:0:
278,179,89259,6,0,L|377:172,1,75,2|0,0:0|0:0,0:0:0:0:
451,286,89592,2,0,L|352:279,1,75,2|8,0:0|0:0,0:0:0:0:
263,206,89925,2,0,P|234:144|264:61,1,150,2|2,0:0|0:0,0:0:0:0:
361,28,90425,2,0,P|405:46|483:34,1,112.5,8|8,0:0|0:0,0:0:0:0:
506,36,90759,6,0,L|501:120,1,75,2|0,0:0|0:0,0:0:0:0:
489,245,91092,1,8,0:0:0:0:
378,197,91259,1,0,3:0:0:0:
378,197,91342,1,8,0:0:0:0:
378,197,91425,2,0,P|344:184|296:187,2,75,2|2|0,0:0|0:0|0:0,0:0:0:0:
419,325,91925,6,0,B|377:345|377:345|276:327,1,150,8|2,0:0|0:0,0:0:0:0:
190,216,92425,2,0,P|183:172|194:127,1,75,8|0,0:0|0:0,0:0:0:0:
242,42,92759,1,2,0:0:0:0:
300,137,92925,1,2,0:0:0:0:
355,38,93092,1,0,0:0:0:0:
285,162,93259,1,8,0:0:0:0:
212,40,93425,6,0,L|111:28,1,75,6|0,0:0|0:0,0:0:0:0:
23,105,93759,1,8,0:0:0:0:
125,191,93925,1,0,3:0:0:0:
125,191,94009,1,0,3:0:0:0:
125,191,94092,2,0,L|226:179,1,75,2|2,0:0|0:0,0:0:0:0:
316,113,94425,1,8,0:0:0:0:
439,169,94592,6,0,P|465:235|445:315,1,150,2|2,0:0|0:0,0:0:0:0:
324,364,95092,1,8,0:0:0:0:
214,284,95259,1,0,0:0:0:0:
214,284,95342,1,0,0:0:0:0:
214,284,95425,2,0,P|171:286|129:289,1,75,2|2,0:0|0:0,0:0:0:0:
207,153,95759,1,8,0:0:0:0:
343,212,95925,1,0,3:0:0:0:
343,212,96009,1,8,0:0:0:0:
343,212,96092,6,0,P|352:155|345:124,1,75,2|0,0:0|0:0,0:0:0:0:
263,15,96425,1,8,0:0:0:0:
144,83,96592,1,0,3:0:0:0:
144,83,96675,1,8,0:0:0:0:
144,83,96759,2,0,L|61:78,1,75,2|2,0:0|0:0,0:0:0:0:
113,206,97092,1,0,0:0:0:0:
238,155,97259,6,0,P|285:142|387:190,1,150,8|2,0:0|0:0,0:0:0:0:
445,293,97759,1,8,0:0:0:0:
333,367,97925,1,0,3:0:0:0:
333,367,98009,1,0,3:0:0:0:
333,367,98092,2,0,L|244:360,1,75,2|2,0:0|0:0,0:0:0:0:
122,358,98425,1,0,0:0:0:0:
15,275,98591,1,8,0:0:0:0:
15,275,98674,1,8,0:0:0:0:
15,275,98759,6,0,P|10:235|22:180,1,75,6|0,0:0|0:0,0:0:0:0:
51,70,99092,1,2,0:0:0:0:
156,154,99259,2,0,P|192:159|251:143,1,75,8|2,0:0|0:0,0:0:0:0:
330,59,99592,1,0,3:0:0:0:
330,59,99675,1,0,0:0:0:0:
330,59,99759,1,8,0:0:0:0:
427,151,99925,6,0,B|436:211|436:211|423:240|423:240|436:311,1,150,2|2,0:0|0:0,0:0:0:0:
325,378,100425,1,8,0:0:0:0:
263,283,100592,2,0,P|297:267|357:270,1,75,0|2,3:0|0:0,0:0:0:0:
183,364,100925,1,2,0:0:0:0:
183,364,101009,1,0,0:0:0:0:
183,364,101092,2,0,P|145:361|112:345,1,75,8|0,0:0|0:0,0:0:0:0:
8,257,101425,5,2,0:0:0:0:
143,222,101592,1,0,3:0:0:0:
143,222,101675,1,0,3:0:0:0:
143,222,101759,1,8,0:0:0:0:
263,283,101925,2,0,P|336:271|430:260,1,150,0|0,0:0|0:0,0:0:0:0:
504,163,102425,1,0,0:0:0:0:
420,87,102592,6,0,B|339:70|359:121|268:100,1,150,8|2,0:0|0:0,0:0:0:0:
147,53,103092,2,0,P|138:91|147:143,1,75,8|0,0:0|0:0,0:0:0:0:
168,235,103425,1,2,0:0:0:0:
83,309,103592,2,0,L|2:303,1,75,2|0,0:0|0:0,0:0:0:0:
183,218,103925,1,8,0:0:0:0:
287,313,104092,6,0,P|336:325|389:319,1,97.4999955368044,6|0,0:0|1:0,0:0:0:0:
464,244,104592,2,0,L|459:184,1,48.7499977684022,0|0,0:0|0:0,0:0:0:0:
397,102,104925,1,2,0:0:0:0:
397,102,105009,1,0,0:0:0:0:
397,102,105092,1,0,1:0:0:0:
301,160,105259,6,0,P|251:156|191:151,1,97.4999955368044,2|2,0:0|0:0,0:0:0:0:
95,121,105759,2,0,P|70:123|40:125,1,48.7499977684022,8|0,0:0|0:0,0:0:0:0:
114,17,106092,1,2,0:0:0:0:
114,17,106259,1,2,0:0:0:0:
222,44,106425,2,0,P|247:46|277:48,1,48.7499977684022,8|0,0:0|0:0,0:0:0:0:
370,100,106759,6,0,P|383:154|368:211,1,97.4999955368044,6|8,0:0|0:0,0:0:0:0:
335,299,107259,2,0,L|400:306,1,48.7499977684022,2|0,0:0|0:0,0:0:0:0:
257,379,107592,1,2,0:0:0:0:
257,379,107675,1,0,0:0:0:0:
257,379,107759,1,8,0:0:0:0:
158,326,107925,6,0,P|150:278|163:231,1,97.4999955368044,2|2,0:0|0:0,0:0:0:0:
231,141,108425,2,0,L|225:74,1,48.7499977684022,8|0,0:0|0:0,0:0:0:0:
160,13,108759,1,2,0:0:0:0:
67,53,108925,1,8,0:0:0:0:
127,137,109092,1,8,0:0:0:0:
152,147,109175,1,8,0:0:0:0:
179,151,109258,1,8,0:0:0:0:
205,149,109341,1,8,0:0:0:0:
231,141,109425,6,0,P|297:145|381:153,1,134.999995880127,6|0,0:0|0:0,0:0:0:0:
425,257,109925,2,0,P|372:265|352:268,1,67.4999979400635,2|0,0:0|0:0,0:0:0:0:
240,301,110259,1,0,3:0:0:0:
240,301,110342,1,0,3:0:0:0:
240,301,110425,6,0,B|172:277|114:320|114:320|77:317|37:281,1,202.499993820191,6|0,0:0|0:0,0:0:0:0:
20,174,111092,2,0,L|91:171,1,67.4999979400635,2|0,0:0|0:0,0:0:0:0:
109,37,111425,2,0,L|147:96,1,67.4999979400635,2|0,0:0|3:0,0:0:0:0:
274,50,111759,2,0,L|241:112,1,67.4999979400635,2|0,0:0|0:0,0:0:0:0:
178,245,112092,5,6,0:0:0:0:
178,245,112175,1,0,3:0:0:0:
178,245,112259,1,0,3:0:0:0:
310,224,112425,2,0,P|359:231|388:245,1,75,8|0,0:0|0:0,0:0:0:0:
234,333,112759,1,2,0:0:0:0:
233,154,112925,1,2,0:0:0:0:
233,154,113009,1,8,0:0:0:0:
233,154,113092,1,8,0:0:0:0:
385,265,113259,6,0,B|379:346,1,75,6|0,0:0|0:0,0:0:0:0:
506,204,113592,1,2,0:0:0:0:
329,138,113759,1,8,0:0:0:0:
329,138,114592,6,0,B|205:125|205:125|243:165,1,165.000005035401,6|2,0:0|0:0,0:0:0:0:
421,178,115092,2,0,P|430:134|415:84,1,82.5000025177003,8|0,0:0|0:0,0:0:0:0:
344,243,115425,1,2,0:0:0:0:
492,245,115592,1,2,0:0:0:0:
329,138,115759,1,8,0:0:0:0:
244,279,115925,6,0,P|159:267|72:256,1,165.000005035401,6|2,0:0|0:0,0:0:0:0:
13,123,116425,1,8,0:0:0:0:
148,62,116592,2,0,P|161:109|157:155,1,82.5000025177003,2|0,0:0|0:0,0:0:0:0:
72,5,116925,1,2,0:0:0:0:
243,29,117092,1,8,0:0:0:0:
140,168,117259,6,0,P|145:249|151:342,1,165.000005035401,6|2,0:0|0:0,0:0:0:0:
294,370,117759,2,0,P|308:329|305:277,1,82.5000025177003,8|0,0:0|0:0,0:0:0:0:
255,111,118092,1,2,0:0:0:0:
429,208,118259,2,0,L|522:199,1,82.5000025177003,2|8,0:0|0:0,0:0:0:0:
333,16,118592,6,0,B|277:11|277:11|225:30|225:30|160:24,1,165.000005035401,6|2,0:0|0:0,0:0:0:0:
22,18,119092,1,8,0:0:0:0:
80,159,119259,2,0,B|194:178|194:178|247:157,1,165.000005035401,6|2,0:0|0:0,0:0:0:0:
374,91,119759,1,8,0:0:0:0:
488,185,119925,6,0,B|482:311|482:311|440:277,1,165.000005035401,6|2,0:0|0:0,0:0:0:0:
323,211,120425,2,0,P|308:249|306:297,1,82.5000025177003,8|0,0:0|0:0,0:0:0:0:
398,141,120759,1,2,0:0:0:0:
241,153,120925,1,2,0:0:0:0:
419,118,121092,1,8,0:0:0:0:
248,53,121259,6,0,B|147:42|147:42|109:51|84:81,1,165.000005035401,6|2,0:0|0:0,0:0:0:0:
17,201,121759,1,8,0:0:0:0:
152,259,121925,2,0,L|255:250,1,82.5000025177003,2|0,0:0|0:0,0:0:0:0:
344,150,122259,1,2,0:0:0:0:
196,158,122425,1,8,0:0:0:0:
341,253,122592,6,0,P|356:304|361:340,1,82.5000025177003,6|0,0:0|0:0,0:0:0:0:
493,221,122925,2,0,P|499:180|512:141,1,82.5000025177003,2|8,0:0|0:0,0:0:0:0:
424,19,123259,2,0,L|313:26,1,82.5000025177003,2|0,0:0|0:0,0:0:0:0:
158,76,123592,2,0,L|269:83,1,82.5000025177003,2|8,0:0|0:0,0:0:0:0:
117,227,123925,6,0,B|0:244|0:244|38:206,1,165.000005035401,6|2,0:0|0:0,0:0:0:0:
158,76,124425,1,8,0:0:0:0:
237,201,124592,1,0,0:0:0:0:
307,69,124759,1,2,0:0:0:0:
217,226,124925,1,8,0:0:0:0:
203,255,125008,1,8,0:0:0:0:
198,288,125091,1,8,0:0:0:0:
201,320,125174,1,8,0:0:0:0:
213,350,125259,6,0,P|296:343|395:335,1,165.000005035401,6|2,0:0|0:0,0:0:0:0:
481,187,125759,2,0,P|442:183|380:180,1,82.5000025177003,8|0,0:0|0:0,0:0:0:0:
250,174,126092,1,2,0:0:0:0:
359,73,126259,1,2,0:0:0:0:
318,249,126425,1,8,0:0:0:0:
182,104,126592,6,0,B|63:91|63:91|8:119,1,165.000005035401,6|2,0:0|0:0,0:0:0:0:
113,259,127092,2,0,L|202:248,1,82.5000025177003,8|0,0:0|0:0,0:0:0:0:
342,230,127425,1,2,0:0:0:0:
268,329,127592,1,2,0:0:0:0:
261,147,127759,1,8,0:0:0:0:
418,300,127925,6,0,B|445:321|458:342|458:342|508:284|468:186,1,209.999993591309,6|2,0:0|0:0,0:0:0:0:
423,40,128425,2,0,P|466:37|513:33,1,82.5000025177003,8|0,0:0|0:0,0:0:0:0:
371,158,128759,1,2,0:0:0:0:
316,47,128925,1,2,0:0:0:0:
238,174,129092,1,8,0:0:0:0:
141,60,129259,6,0,P|68:51|8:143,1,165.000005035401,6|2,0:0|0:0,0:0:0:0:
80,246,129759,1,8,0:0:0:0:
216,189,129925,2,0,B|271:182|271:182|321:200|321:200|389:188,1,165.000005035401,6|2,0:0|0:0,0:0:0:0:
259,295,130425,1,8,0:0:0:0:
324,98,130592,6,0,P|384:85|478:160,1,165.000005035401,6|2,0:0|0:0,0:0:0:0:
385,272,131092,2,0,P|380:231|376:191,1,82.5000025177003,8|0,0:0|0:0,0:0:0:0:
274,330,131425,1,2,0:0:0:0:
409,296,131592,1,2,0:0:0:0:
251,218,131759,1,8,0:0:0:0:
398,172,131925,6,0,B|413:54|413:54|394:8,1,165.000005035401,6|2,0:0|0:0,0:0:0:0:
281,108,132425,1,8,0:0:0:0:
389,209,132592,2,0,P|428:219|483:204,1,82.5000025177003,2|0,0:0|0:0,0:0:0:0:
284,138,132925,1,2,0:0:0:0:
252,283,133092,1,8,0:0:0:0:
126,175,133259,6,0,B|134:114|134:114|118:70|118:70|127:14,1,165.000005035401,6|2,0:0|0:0,0:0:0:0:
297,49,133759,2,0,P|251:53|200:58,1,82.5000025177003,8|0,0:0|0:0,0:0:0:0:
314,178,134092,1,2,0:0:0:0:
453,105,134259,2,0,P|465:63|460:16,1,82.5000025177003,2|8,0:0|0:0,0:0:0:0:
340,191,134592,6,0,P|345:266|352:373,1,165.000005035401,6|2,0:0|0:0,0:0:0:0:
210,240,135092,2,0,P|212:198|215:157,1,82.5000025177003,8|0,0:0|0:0,0:0:0:0:
75,208,135425,1,2,0:0:0:0:
206,276,135592,1,2,0:0:0:0:
123,123,135759,2,0,P|83:111|26:123,1,82.5000025177003,8|2,0:0|0:0,0:0:0:0:
203,304,136092,5,12,0:0:0:0:
307,165,136259,1,2,0:0:0:0:
412,269,136425,2,0,P|454:264|507:258,1,82.5000025177003,8|0,0:0|0:0,0:0:0:0:
506,77,136759,1,8,0:0:0:0:
482,54,136842,1,8,0:0:0:0:
455,35,136925,1,8,0:0:0:0:
424,22,137009,1,8,0:0:0:0:
392,14,137092,1,8,0:0:0:0:
359,12,137175,1,8,0:0:0:0:
327,16,137259,1,8,0:0:0:0:
295,26,137342,1,8,0:0:0:0:
266,41,137425,5,6,0:0:0:0:
256,192,137509,12,2,142425,0:0:0:0:
195,96,142759,6,0,P|132:81|44:137,2,165.000005035401,6|2|2,0:0|0:0|0:0,0:0:0:0:
195,96,143759,6,0,L|289:89,1,82.5000025177003,6|0,0:0|0:0,0:0:0:0:
364,210,144092,2,0,L|270:203,1,82.5000025177003,2|0,0:0|0:0,0:0:0:0:
195,325,144425,2,0,L|289:318,1,82.5000025177003,2|0,0:0|0:0,0:0:0:0:
139,212,144759,1,2,0:0:0:0:
87,350,144925,1,8,0:0:0:0:
18,218,145092,2,0,P|15:175|12:126,1,82.5000025177003,6|0,0:0|0:0,0:0:0:0:
148,41,145425,6,0,P|220:77|314:41,2,165.000005035401,6|2|2,0:0|0:0|0:0,0:0:0:0:
148,41,146425,6,0,P|135:94|141:135,1,82.5000025177003,6|0,0:0|0:0,0:0:0:0:
294,214,146759,2,0,P|254:176|216:160,1,82.5000025177003,2|0,0:0|0:0,0:0:0:0:
71,254,147092,2,0,P|123:238|155:213,1,82.5000025177003,2|0,0:0|0:0,0:0:0:0:
252,75,147425,1,2,0:0:0:0:
313,246,147592,1,8,0:0:0:0:
313,246,148092,6,0,B|462:228|462:228|405:281,1,225,6|0,0:0|0:0,0:0:0:0:
407,279,149425,6,0,B|437:204|390:136|390:136|352:160|305:148,1,225,0|0,3:0|0:0,0:0:0:0:
318,150,150759,6,0,B|246:109|175:148|175:148|214:147|252:171,1,225,0|0,3:0|0:0,0:0:0:0:
246,167,152092,6,0,B|203:238|262:305|262:305|222:326|217:380,1,225,0|0,3:0|0:0,0:0:0:0:
220,363,153425,6,0,B|71:374|71:374|55:335|84:294,1,225,0|0,3:0|0:0,0:0:0:0:
79,302,154759,6,0,B|34:237|84:163|84:163|125:179|139:215,1,225,0|0,3:0|0:0,0:0:0:0:
138,212,156092,6,0,B|287:228|287:228|255:158,1,225,0|0,3:0|0:0,0:0:0:0:
255,159,157425,6,0,B|308:107|394:146|394:146|366:177|373:222,1,225,0|0,3:0|0:0,0:0:0:0:
372,215,158759,6,0,P|405:217|448:220,1,60,6|0,0:0|0:0,0:0:0:0:
320,308,159092,1,2,0:0:0:0:
255,192,159259,1,8,0:0:0:0:
182,287,159425,2,0,P|179:318|186:348,1,60,2|0,0:0|0:0,0:0:0:0:
54,372,159759,2,0,P|60:342|57:313,1,60,8|0,0:0|0:0,0:0:0:0:
16,187,160092,5,6,0:0:0:0:
135,201,160259,2,0,P|137:173|139:137,1,60,2|0,0:0|0:0,0:0:0:0:
198,36,160592,1,8,0:0:0:0:
261,138,160759,1,8,0:0:0:0:
341,49,160925,2,0,P|372:42|415:49,1,60,2|0,0:0|0:0,0:0:0:0:
423,58,161175,2,0,P|454:65|497:58,1,60,2|0,0:0|0:0,0:0:0:0:
511,59,161425,6,0,L|502:195,1,120,6|0,0:0|0:0,0:0:0:0:
399,239,161925,1,0,1:0:0:0:
399,239,162009,1,0,1:0:0:0:
399,239,162092,2,0,P|332:224|272:251,1,120,8|0,0:0|3:0,0:0:0:0:
50,292,162759,6,0,L|46:218,1,60,2|0,0:0|0:0,0:0:0:0:
41,119,163092,1,0,3:0:0:0:
41,119,163175,1,0,3:0:0:0:
41,119,163259,1,0,1:0:0:0:
154,156,163425,2,0,P|181:157|221:150,1,60,2|0,0:0|0:0,0:0:0:0:
256,39,163759,2,0,P|226:34|196:35,1,60,2|0,0:0|0:0,0:0:0:0:
337,128,164092,6,0,L|421:123,1,67.4999979400635,6|0,0:0|0:0,0:0:0:0:
364,245,164425,1,2,0:0:0:0:
306,130,164592,1,0,3:0:0:0:
245,243,164759,2,0,P|240:279|249:326,1,67.4999979400635,2|0,0:0|3:0,0:0:0:0:
131,371,165092,2,0,P|134:337|129:304,1,67.4999979400635,2|0,0:0|3:0,0:0:0:0:
73,181,165425,6,0,L|5:185,1,67.4999979400635,2|0,0:0|0:0,0:0:0:0:
117,273,165759,1,2,0:0:0:0:
186,157,165925,1,8,0:0:0:0:
271,261,166092,2,0,P|281:300|281:337,1,67.4999979400635,2|0,0:0|0:0,0:0:0:0:
403,242,166425,2,0,P|404:208|413:175,1,67.4999979400635,2|0,0:0|0:0,0:0:0:0:
457,15,166759,6,0,L|377:19,1,75,6|0,0:0|0:0,0:0:0:0:
249,117,167092,2,0,L|329:121,1,75,0|0,3:0|0:0,0:0:0:0:
170,54,167425,5,0,3:0:0:0:
111,207,167592,1,0,1:0:0:0:
249,117,167759,1,0,1:0:0:0:
85,109,167925,1,0,1:0:0:0:
213,211,168092,5,8,0:0:0:0:
170,36,168259,1,8,0:0:0:0:
100,220,168426,1,8,0:0:0:0:
265,112,168593,1,8,0:0:0:0:
70,100,168759,5,0,1:0:0:0:
285,107,168925,1,8,0:0:0:0:
89,234,169093,1,8,0:0:0:0:
169,14,169260,1,8,0:0:0:0:
307,99,169425,6,0,B|337:85|368:87|368:87|407:102|442:88|442:88|478:90|509:115|509:115|488:133|477:169,1,269.999991760254
458,290,170592,6,0,B|410:308|410:308|274:289,1,165.000005035401,6|2,0:0|0:0,0:0:0:0:
184,195,171092,2,0,P|224:190|267:186,1,82.5000025177003,8|0,0:0|0:0,0:0:0:0:
94,125,171425,1,2,0:0:0:0:
126,270,171592,1,2,0:0:0:0:
1,188,171759,1,8,0:0:0:0:
117,96,171925,6,0,B|221:76|221:76|282:95,1,165.000005035401,6|2,0:0|0:0,0:0:0:0:
410,160,172425,1,8,0:0:0:0:
314,273,172592,2,0,P|320:315|326:361,1,82.5000025177003,2|0,0:0|0:0,0:0:0:0:
408,193,172925,1,2,0:0:0:0:
226,183,173092,1,8,0:0:0:0:
376,82,173259,6,0,P|457:89|516:153,1,165.000005035401,6|2,0:0|0:0,0:0:0:0:
402,275,173759,2,0,P|405:234|408:193,1,82.5000025177003,8|0,0:0|0:0,0:0:0:0:
482,376,174092,1,2,0:0:0:0:
310,323,174259,2,0,P|298:281|306:236,1,82.5000025177003,2|8,0:0|0:0,0:0:0:0:
353,68,174592,6,0,B|296:60|296:60|247:76|247:76|186:66,1,165.000005035401,6|2,0:0|0:0,0:0:0:0:
46,36,175092,1,8,0:0:0:0:
8,179,175259,2,0,B|24:303|24:303|64:268,1,165.000005035401,6|2,0:0|0:0,0:0:0:0:
173,188,175759,1,8,0:0:0:0:
315,270,175925,6,0,B|328:323|302:365|302:365|270:373|244:340,1,165.000005035401,6|2,0:0|0:0,0:0:0:0:
268,177,176425,2,0,P|314:165|355:173,1,82.5000025177003,8|0,0:0|0:0,0:0:0:0:
464,264,176759,1,2,0:0:0:0:
315,270,176925,1,2,0:0:0:0:
416,379,177092,1,8,0:0:0:0:
490,244,177259,6,0,P|485:203|480:162,1,82.5000025177003,6|0,0:0|0:0,0:0:0:0:
357,88,177592,2,0,P|352:129|347:169,1,82.5000025177003,2|8,0:0|0:0,0:0:0:0:
224,244,177925,2,0,P|219:203|214:162,1,82.5000025177003,2|0,0:0|0:0,0:0:0:0:
86,240,178259,1,2,0:0:0:0:
228,279,178425,1,8,0:0:0:0:
122,141,178592,6,0,P|75:135|26:152,1,82.5000025177003,6|0,0:0|0:0,0:0:0:0:
209,38,178925,2,0,P|248:47|289:40,1,82.5000025177003,2|8,0:0|0:0,0:0:0:0:
435,8,179259,2,0,P|433:48|431:99,1,82.5000025177003,2|0,0:0|0:0,0:0:0:0:
327,219,179592,2,0,P|325:177|323:136,1,82.5000025177003,2|8,0:0|0:0,0:0:0:0:
257,306,179925,6,0,P|321:331|417:282,1,165.000005035401,6|2,0:0|0:0,0:0:0:0:
227,209,180425,2,0,P|182:239|161:274,1,82.5000025177003,8|0,0:0|0:0,0:0:0:0:
61,368,180759,1,2,0:0:0:0:
0,232,180925,1,8,0:0:0:0:
2,199,181008,1,8,0:0:0:0:
5,166,181091,1,8,0:0:0:0:
8,133,181175,1,8,0:0:0:0:
11,99,181259,6,0,B|112:78|73:137|190:111,1,165.000005035401,6|2,0:0|0:0,0:0:0:0:
310,61,181759,2,0,L|399:66,1,82.5000025177003,8|0,0:0|0:0,0:0:0:0:
278,161,182092,1,2,0:0:0:0:
215,26,182259,1,2,0:0:0:0:
294,188,182425,1,8,0:0:0:0:
470,142,182592,6,0,B|493:178|493:178|475:300,1,165.000005035401,6|2,0:0|0:0,0:0:0:0:
330,379,183092,2,0,P|324:338|318:293,1,82.5000025177003,8|0,0:0|0:0,0:0:0:0:
197,210,183425,1,2,0:0:0:0:
221,356,183592,1,2,0:0:0:0:
294,188,183759,1,8,0:0:0:0:
118,304,183925,6,0,B|64:338|15:306|15:306|2:249|32:212,1,209.999993591309,6|2,0:0|0:0,0:0:0:0:
125,74,184425,2,0,P|81:70|31:66,1,82.5000025177003,8|0,0:0|0:0,0:0:0:0:
214,4,184759,1,2,0:0:0:0:
195,150,184925,1,2,0:0:0:0:
323,74,185092,1,8,0:0:0:0:
163,161,185259,6,0,B|152:212|152:212|174:263|174:263|158:343,1,165.000005035401,6|2,0:0|0:0,0:0:0:0:
20,276,185759,1,8,0:0:0:0:
73,120,185925,2,0,P|101:84|221:80,1,165.000005035401,6|2,0:0|0:0,0:0:0:0:
321,176,186425,1,8,0:0:0:0:
259,311,186592,6,0,B|297:335|297:335|445:316,1,165.000005035401,6|2,0:0|0:0,0:0:0:0:
431,171,187092,2,0,P|379:164|327:157,1,82.5000025177003,8|0,0:0|0:0,0:0:0:0:
210,104,187425,1,2,0:0:0:0:
325,58,187592,1,2,0:0:0:0:
241,200,187759,1,8,0:0:0:0:
117,92,187925,6,0,B|0:75|0:75|53:134,1,165.000005035401,6|2,0:0|0:0,0:0:0:0:
136,215,188425,1,8,0:0:0:0:
236,105,188592,2,0,P|246:54|236:11,1,82.5000025177003,2|0,0:0|0:0,0:0:0:0:
117,92,188925,1,2,0:0:0:0:
249,204,189092,1,8,0:0:0:0:
50,194,189259,6,0,B|19:247|19:247|36:362,1,165.000005035401,6|2,0:0|0:0,0:0:0:0:
197,376,189759,2,0,P|201:334|205:289,1,82.5000025177003,8|0,0:0|0:0,0:0:0:0:
334,220,190092,1,2,0:0:0:0:
442,322,190259,2,0,P|397:330|359:324,1,82.5000025177003,2|8,0:0|0:0,0:0:0:0:
262,175,190592,6,0,B|323:186|323:186|369:164|369:164|450:177,1,165.000005035401,6|0,0:0|0:0,0:0:0:0:
280,17,191092,1,8,0:0:0:0:
227,168,191259,1,0,0:0:0:0:
89,77,191425,1,2,0:0:0:0:
102,241,191592,1,8,0:0:0:0:
128,260,191675,1,8,0:0:0:0:
159,270,191758,1,8,0:0:0:0:
192,269,191842,1,8,0:0:0:0:
223,258,191925,6,0,L|227:155,1,89.9999972534181,0|2,0:0|0:0,0:0:0:0:
333,154,192425,6,0,P|293:164|252:159,1,82.5000025177003,12|0,0:0|0:0,0:0:0:0:
399,64,192759,1,2,0:0:0:0:
435,207,192925,1,0,0:0:0:0:
391,38,193092,1,8,0:0:0:0:
253,159,193259,6,0,B|200:180|200:180|83:160,1,165.000005035401,6|2,0:0|0:0,0:0:0:0:
187,46,193759,1,8,0:0:0:0:
328,87,193925,2,0,P|353:131|355:172,1,82.5000025177003,2|0,0:0|0:0,0:0:0:0:
298,300,194259,1,2,0:0:0:0:
253,159,194425,1,8,0:0:0:0:
422,244,194592,6,0,P|469:206|488:95,1,165.000005035401,6|2,0:0|0:0,0:0:0:0:
374,15,195092,2,0,P|331:12|279:9,1,82.5000025177003,8|0,0:0|0:0,0:0:0:0:
133,137,195425,1,2,0:0:0:0:
291,177,195592,2,0,B|304:135|304:135|292:86,1,82.5000025177003,2|8,0:0|0:0,0:0:0:0:
172,253,195925,6,0,B|226:249|226:249|272:273|272:273|355:265,1,165.000005035401,6|2,0:0|0:0,0:0:0:0:
206,349,196425,1,8,0:0:0:0:
64,302,196592,2,0,P|54:238|104:155,1,165.000005035401,6|2,0:0|0:0,0:0:0:0:
244,106,197092,1,8,0:0:0:0:
362,195,197259,6,0,B|381:325|381:325|424:283,1,165.000005035401,6|2,0:0|0:0,0:0:0:0:
430,121,197759,2,0,P|395:101|345:95,1,82.5000025177003,8|0,0:0|0:0,0:0:0:0:
214,183,198092,1,2,0:0:0:0:
362,195,198259,1,2,0:0:0:0:
234,78,198425,1,8,0:0:0:0:
284,252,198592,6,0,P|290:297|278:338,1,82.5000025177003,6|0,0:0|0:0,0:0:0:0:
117,219,198925,2,0,P|152:191|194:181,1,82.5000025177003,2|8,0:0|0:0,0:0:0:0:
174,380,199259,2,0,P|132:362|102:331,1,82.5000025177003,2|0,0:0|0:0,0:0:0:0:
25,202,199592,1,2,0:0:0:0:
189,281,199759,1,8,0:0:0:0:
131,100,199925,6,0,P|89:97|44:95,1,82.5000025177003,6|0,0:0|0:0,0:0:0:0:
245,27,200259,2,0,P|286:25|327:22,1,82.5000025177003,2|8,0:0|0:0,0:0:0:0:
466,111,200592,2,0,P|478:159|471:194,1,82.5000025177003,2|0,0:0|0:0,0:0:0:0:
314,239,200925,2,0,P|302:199|307:159,1,82.5000025177003,2|8,0:0|0:0,0:0:0:0:
407,341,201259,6,0,B|298:359|298:359|232:328,1,165.000005035401,6|2,0:0|0:0,0:0:0:0:
105,253,201759,2,0,L|11:266,1,82.5000025177003,8|0,0:0|0:0,0:0:0:0:
137,122,202092,1,2,0:0:0:0:
262,202,202259,1,8,0:0:0:0:
291,216,202342,1,8,0:0:0:0:
324,220,202425,1,8,0:0:0:0:
356,216,202509,1,8,0:0:0:0:
386,202,202592,6,0,B|395:85|395:85|346:120,1,165.000005035401,6|2,0:0|0:0,0:0:0:0:
237,188,203092,2,0,L|146:181,1,82.5000025177003,8|0,0:0|0:0,0:0:0:0:
30,99,203425,1,2,0:0:0:0:
153,84,203592,1,2,0:0:0:0:
56,197,203759,1,8,0:0:0:0:
172,58,203925,6,0,P|243:37|339:79,1,165.000005035401,6|2,0:0|0:0,0:0:0:0:
420,202,204425,2,0,P|377:205|327:210,1,82.5000025177003,8|0,0:0|0:0,0:0:0:0:
506,280,204759,1,2,0:0:0:0:
482,117,204925,1,2,0:0:0:0:
392,294,205092,1,8,0:0:0:0:
308,89,205259,6,0,B|249:77|249:77|206:101|206:101|143:88|143:88|168:126,1,209.999993591309,6|2,0:0|0:0,0:0:0:0:
258,253,205759,2,0,P|260:306|241:356,1,82.5000025177003,8|0,0:0|0:0,0:0:0:0:
162,215,206092,1,2,0:0:0:0:
322,174,206259,1,2,0:0:0:0:
162,118,206425,1,8,0:0:0:0:
326,63,206592,6,0,B|442:53|442:53|471:63|493:97,1,165.000005035401,6|2,0:0|0:0,0:0:0:0:
393,221,207092,1,8,0:0:0:0:
241,155,207259,2,0,B|183:148|183:148|142:165|142:165|63:156,1,165.000005035401,6|2,0:0|0:0,0:0:0:0:
207,52,207759,1,8,0:0:0:0:
295,228,207925,6,0,B|285:349|285:349|241:291,1,165.000005035401,6|2,0:0|0:0,0:0:0:0:
415,239,208425,2,0,L|408:335,1,82.5000025177003,8|0,0:0|0:0,0:0:0:0:
505,146,208759,2,0,L|498:50,1,82.5000025177003,2|2,0:0|0:0,0:0:0:0:
360,8,209092,1,8,0:0:0:0:
272,128,209259,6,0,B|248:213|303:206|284:295,1,165.000005035401,6|2,0:0|0:0,0:0:0:0:
373,164,209759,1,8,0:0:0:0:
262,31,209925,2,0,P|216:27|170:23,1,82.5000025177003,2|0,0:0|0:0,0:0:0:0:
272,128,210259,1,2,0:0:0:0:
389,38,210425,1,8,0:0:0:0:
246,150,210592,6,0,B|190:144|190:144|148:158|148:158|81:148,1,165.000005035401,6|2,0:0|0:0,0:0:0:0:
211,278,211092,2,0,L|307:269,1,82.5000025177003,8|0,0:0|0:0,0:0:0:0:
456,246,211425,1,2,0:0:0:0:
326,143,211592,2,0,P|285:139|246:150,1,82.5000025177003,2|8,0:0|0:0,0:0:0:0:
63,201,211925,6,0,B|35:160|35:160|51:39,1,165.000005035401,6|2,0:0|0:0,0:0:0:0:
230,69,212425,2,0,L|250:167,1,82.5000025177003,8|0,0:0|0:0,0:0:0:0:
388,64,212759,1,2,0:0:0:0:
222,36,212925,1,2,0:0:0:0:
349,170,213092,2,0,L|339:268,1,82.5000025177003,8|2,0:0|0:0,0:0:0:0:
186,363,213425,6,0,P|146:371|98:364,1,82.5000025177003,12|2,0:0|0:0,0:0:0:0:
87,175,213759,2,0,P|127:167|175:174,1,82.5000025177003,8|2,0:0|0:0,0:0:0:0:
340,252,214092,1,8,0:0:0:0:
369,267,214175,1,8,0:0:0:0:
402,272,214258,1,8,0:0:0:0:
434,268,214342,1,8,0:0:0:0:
464,253,214425,1,8,0:0:0:0:
488,231,214508,1,8,0:0:0:0:
503,202,214592,1,8,0:0:0:0:
509,169,214675,1,8,0:0:0:0:
505,137,214758,5,6,0:0:0:0:
256,192,214842,12,2,219759,0:0:0:0:
428,249,220092,6,0,P|373:274|245:243,2,165.000005035401,6|2|2,0:0|0:0|0:0,0:0:0:0:
428,249,221092,6,0,P|441:196|432:142,1,82.5000025177003,6|0,0:0|0:0,0:0:0:0:
280,121,221425,2,0,P|319:158|370:177,1,82.5000025177003,2|0,0:0|0:0,0:0:0:0:
467,58,221759,2,0,P|414:73|372:108,1,82.5000025177003,2|0,0:0|0:0,0:0:0:0:
264,229,222092,1,2,0:0:0:0:
196,51,222259,1,8,0:0:0:0:
344,170,222425,1,6,0:0:0:0:
98,147,222759,6,0,L|9:155,1,82.5000025177003,6|0,0:0|0:0,0:0:0:0:
131,305,223092,2,0,L|220:313,1,82.5000025177003,2|0,0:0|0:0,0:0:0:0:
344,170,223425,2,0,L|255:178,1,82.5000025177003,2|0,0:0|0:0,0:0:0:0:
468,200,223759,6,0,P|470:156|472:112,1,82.5000025177003,6|0,0:0|0:0,0:0:0:0:
321,0,224092,2,0,P|323:39|325:83,1,82.5000025177003,2|0,0:0|0:0,0:0:0:0:
176,200,224425,2,0,P|178:156|180:112,1,82.5000025177003,2|0,0:0|0:0,0:0:0:0:
268,286,224759,5,8,0:0:0:0:
243,307,224842,1,8,0:0:0:0:
213,321,224925,1,8,0:0:0:0:
181,327,225009,1,8,0:0:0:0:
148,324,225092,1,8,0:0:0:0:
117,313,225175,1,8,0:0:0:0:
90,294,225259,1,8,0:0:0:0:
69,268,225342,1,8,0:0:0:0:
56,238,225425,5,6,0:0:0:0:
256,192,225509,12,0,236759,0:0:0:0:
