osu file format v14

[General]
AudioFilename: audio.mp3
AudioLeadIn: 0
PreviewTime: 59082
Countdown: 0
SampleSet: Soft
StackLeniency: 0.7
Mode: 0
LetterboxInBreaks: 0
WidescreenStoryboard: 1

[Editor]
DistanceSpacing: 1.4
BeatDivisor: 4
GridSize: 32
TimelineZoom: 1.4

[Metadata]
Title:Jitter Doll
TitleUnicode:ジッタードール
Artist:Yuaru
ArtistUnicode:ゆある
Creator:-Laura-
Version:Hard
Source:
Tags:Akitoshi Corinn niki Nyun 歌い手 utaite cover
BeatmapID:1635117
BeatmapSetID:773512

[Difficulty]
HPDrainRate:5
CircleSize:3.5
OverallDifficulty:6
ApproachRate:8
SliderMultiplier:1.4
SliderTickRate:1

[Events]
//Background and Video events
0,0,"doll.jpg",0,0
//Break Periods
2,148292,157924
//Storyboard Layer 0 (Background)
//Storyboard Layer 1 (Fail)
//Storyboard Layer 2 (Pass)
//Storyboard Layer 3 (Foreground)
//Storyboard Sound Samples

[TimingPoints]
16092,333.333333333333,4,2,5,40,1,0
17426,333.333333333333,4,2,5,40,1,0
17426,-111.111111111111,4,2,5,40,0,0
28092,-125,4,2,5,40,0,0
31926,-125,4,2,5,5,0,0
32092,-125,4,2,5,40,0,0
37426,-111.111111111111,4,2,5,50,0,0
38759,-100,4,2,5,65,0,0
49425,-125,4,2,5,50,0,0
54092,-125,4,2,5,50,0,0
54759,-111.111111111111,4,2,5,65,0,0
57425,-100,4,2,5,65,0,0
59925,-90.9090909090909,4,2,5,80,0,1
82759,-100,4,2,5,65,0,0
104092,-125,4,2,5,50,0,0
109425,-111.111111111111,4,2,5,65,0,0
112092,-100,4,2,5,65,0,0
114592,-90.9090909090909,4,2,5,80,0,1
137425,-100,4,2,5,70,0,0
158759,-125,4,2,5,50,0,0
164092,-111.111111111111,4,2,5,60,0,0
166759,-100,4,2,5,65,0,0
169425,-142.857142857143,4,2,5,65,0,0
170425,-142.857142857143,4,2,5,5,0,0
170592,-90.9090909090909,4,2,5,80,0,1
191925,-125,4,2,5,80,0,0
192425,-90.9090909090909,4,2,5,80,0,1
214759,-90.9090909090909,4,2,5,80,0,0
228092,-100,4,2,5,50,0,0
230759,-100,4,2,5,30,0,0
233425,-100,4,2,5,20,0,0
235425,-100,4,2,5,10,0,0
236759,-100,4,2,5,5,0,0

[Colours]
Combo1 : 192,192,192
Combo2 : 128,128,192
Combo3 : 0,0,225
Combo4 : 255,72,164

[HitObjects]
0,194,17426,6,0,L|129:188,1,125.999996154785,6|0,0:0|1:0,0:0:0:0:
265,81,18092,2,0,L|394:87,1,125.999996154785,0|0,1:0|1:0,0:0:0:0:
490,232,18759,2,0,P|494:294|462:363,2,125.999996154785,0|0|0,1:0|1:0|1:0,0:0:0:0:
394,90,19759,1,0,1:0:0:0:
394,90,19926,1,2,0:0:0:0:
322,141,20092,6,0,L|331:281,2,125.999996154785,6|0|0,0:0|1:0|1:0,0:0:0:0:
174,43,21092,1,0,1:0:0:0:
96,86,21259,2,0,P|89:133|97:165,1,62.9999980773926,6|0,0:0|0:0,0:0:0:0:
153,218,21592,1,6,0:0:0:0:
153,218,21759,2,0,P|89:197|35:219,2,125.999996154785,0|0|0,1:0|1:0|1:0,0:0:0:0:
308,301,22759,6,0,L|450:293,1,125.999996154785,6|0,0:0|1:0,0:0:0:0:
511,135,23426,2,0,L|369:127,1,125.999996154785,0|0,1:0|1:0,0:0:0:0:
209,115,24092,2,0,P|157:83|77:82,2,125.999996154785,0|0|0,1:0|1:0|1:0,0:0:0:0:
329,247,25092,1,0,1:0:0:0:
329,247,25259,1,2,0:0:0:0:
257,299,25426,6,0,L|106:291,2,125.999996154785,6|0|0,0:0|1:0|1:0,0:0:0:0:
433,305,26426,1,0,1:0:0:0:
491,239,26592,2,0,P|498:208|493:164,1,62.9999980773926,6|0,0:0|0:0,0:0:0:0:
446,103,26926,1,6,0:0:0:0:
446,103,27092,2,0,L|319:110,1,125.999996154785,0|0,1:0|1:0,0:0:0:0:
144,122,27759,1,0,1:0:0:0:
244,242,28092,5,6,0:0:0:0:
244,242,28259,1,2,0:0:0:0:
244,242,30759,5,6,0:0:0:0:
244,242,30926,1,2,0:0:0:0:
380,50,31426,2,2,P|445:60|499:148,1,168,0|0,0:3|0:3,0:3:0:0:
490,230,32092,5,6,0:0:0:0:
490,230,32259,1,2,0:0:0:0:
490,230,33426,5,6,0:0:0:0:
490,230,33593,1,2,0:0:0:0:
264,165,34092,2,0,P|190:166|84:264,2,224,2|2|2,0:0|0:0|0:0,0:0:0:0:
230,318,35759,1,0,0:0:0:0:
80,365,36092,5,6,0:0:0:0:
80,365,36259,1,2,0:0:0:0:
7,141,36759,2,0,P|9:85|35:37,1,112,2|0,0:0|0:0,0:0:0:0:
211,15,37426,5,6,0:0:0:0:
211,15,37592,1,2,0:0:0:0:
285,63,37759,2,0,L|363:66,1,62.9999980773926,8|0,0:0|0:0,0:0:0:0:
372,150,38092,2,0,L|294:153,1,62.9999980773926,2|0,0:0|0:0,0:0:0:0:
230,193,38426,2,0,L|191:191,3,31.4999990386963,8|8|8|8,0:0|0:0|0:0|0:0,0:0:0:0:
160,172,38759,6,0,P|120:174|77:199,1,70,6|0,0:0|0:0,0:0:0:0:
18,249,39092,1,8,0:0:0:0:
68,345,39259,1,0,0:0:0:0:
68,345,39342,1,8,0:0:0:0:
68,345,39425,2,0,L|143:349,1,70,2|0,0:0|0:0,0:0:0:0:
236,356,39759,1,8,0:0:0:0:
314,297,39925,6,0,B|354:325|354:325|456:318,1,140,2|2,0:0|0:0,0:0:0:0:
499,241,40425,1,8,0:0:0:0:
499,241,40509,1,2,0:0:0:0:
498,241,40592,2,0,P|502:208|492:169,2,70,2|0|2,0:0|0:0|0:0,0:0:0:0:
404,212,41092,1,8,0:0:0:0:
343,134,41259,1,8,0:0:0:0:
274,204,41425,6,0,P|208:226|133:197,1,140,6|8,0:0|0:0,0:0:0:0:
92,121,41925,2,0,P|95:83|99:28,1,70,2|2,0:0|0:0,0:0:0:0:
189,16,42259,1,2,0:0:0:0:
189,16,42342,1,2,0:0:0:0:
189,16,42425,1,8,0:0:0:0:
272,67,42592,6,0,B|310:95|310:95|415:79,1,140
507,169,43092,1,2,0:0:0:0:
507,169,43175,1,2,0:0:0:0:
507,169,43259,1,8,0:0:0:0:
439,239,43425,2,0,P|404:250|345:239,1,70,2|2,0:0|0:0,0:0:0:0:
274,229,43759,1,2,0:0:0:0:
205,159,43925,1,8,0:0:0:0:
184,62,44092,6,0,P|106:67|26:72,1,140,6|8,0:0|0:0,0:0:0:0:
8,166,44592,1,2,0:0:0:0:
8,166,44675,1,8,0:0:0:0:
8,166,44759,2,0,P|3:204|15:256,1,70
55,320,45092,1,8,0:0:0:0:
151,340,45259,6,0,B|209:343|209:343|233:359|233:359|293:364,1,140,2|2,0:0|0:0,0:0:0:0:
392,372,45759,1,2,0:0:0:0:
392,372,45842,1,2,0:0:0:0:
392,372,45925,2,0,P|398:329|390:296,1,70,8|2,0:0|0:0,0:0:0:0:
328,228,46259,1,2,0:0:0:0:
265,153,46425,2,0,P|259:110|267:77,1,70,8|8,0:0|0:0,0:0:0:0:
326,7,46759,6,0,P|264:36|179:27,1,140,6|8,0:0|0:0,0:0:0:0:
99,19,47259,1,0,0:0:0:0:
99,19,47342,1,0,0:0:0:0:
99,19,47425,2,0,L|101:118,1,70,0|2,0:0|0:0,0:0:0:0:
106,187,47759,1,8,0:0:0:0:
185,243,47925,6,0,P|253:257|328:217,1,140,2|2,0:0|0:0,0:0:0:0:
395,171,48425,1,2,0:0:0:0:
395,171,48509,1,2,0:0:0:0:
395,171,48592,1,8,0:0:0:0:
482,216,48759,2,0,L|486:254,3,35,2|2|2|2,0:0|0:0|0:0|0:0,0:0:0:0:
506,279,49092,2,0,L|501:357,1,70,8|0,0:0|0:0,0:0:0:0:
393,348,49425,6,0,P|340:335|286:349,1,112,6|2,0:0|0:0,0:0:0:0:
189,225,50092,2,0,B|245:240|245:240|310:224,1,112,2|2,0:0|0:0,0:0:0:0:
369,88,50759,6,0,P|315:74|261:88,1,112,2|2,0:0|0:0,0:0:0:0:
380,191,51426,2,0,B|436:206|436:206|501:190,1,112,2|2,0:0|0:0,0:0:0:0:
501,348,52092,6,0,P|447:334|393:348,1,112,6|2,0:0|0:0,0:0:0:0:
240,311,52759,2,0,P|186:324|132:310,1,112,2|2,0:0|0:0,0:0:0:0:
14,207,53425,5,2,0:0:0:0:
76,62,53759,1,2,0:0:0:0:
223,120,54092,2,0,L|276:117,3,28,2|0|0|0,0:0|0:0|0:0|0:0,0:0:0:0:
285,99,54425,2,0,L|338:102,3,28,2|0|0|0,0:0|0:0|0:0|0:0,0:0:0:0:
349,126,54759,6,0,P|367:188|349:261,1,125.999996154785,6|0,0:0|0:0,0:0:0:0:
275,284,55259,2,0,P|213:266|140:284,1,125.999996154785,2|0,0:0|0:0,0:0:0:0:
68,299,55759,2,0,L|62:221,1,62.9999980773926,2|0,0:0|0:0,0:0:0:0:
57,147,56092,1,0,1:0:0:0:
198,42,56425,6,0,P|237:45|266:59,1,62.9999980773926,0|0,3:0|0:0,0:0:0:0:
332,103,56759,2,0,P|361:91|392:90,1,62.9999980773926,0|0,3:0|0:0,0:0:0:0:
475,121,57092,2,0,P|486:150|487:181,1,62.9999980773926,0|0,3:0|0:0,0:0:0:0:
436,266,57425,5,6,0:0:0:0:
436,266,57509,1,2,0:0:0:0:
436,266,57592,1,2,0:0:0:0:
353,212,57759,2,0,P|315:216|278:232,1,70,8|0,0:0|0:0,0:0:0:0:
203,279,58092,2,0,B|109:285|109:285|57:251,1,140,2|8,0:0|0:0,0:0:0:0:
5,151,58592,6,0,L|13:58,1,70,6|0,0:0|0:0,0:0:0:0:
115,10,58925,1,2,0:0:0:0:
148,131,59092,1,8,0:0:0:0:
148,131,59925,6,0,B|183:116|183:116|258:127|258:127|286:157,1,154.000004699707,6|2,0:0|0:0,0:0:0:0:
385,197,60425,2,0,L|481:202,1,77.0000023498536,8|0,0:0|0:0,0:0:0:0:
503,301,60759,2,0,P|462:309|419:300,1,77.0000023498536,2|2,0:0|0:0,0:0:0:0:
321,284,61092,1,8,0:0:0:0:
229,227,61259,6,0,B|179:234|179:234|135:220|135:220|73:229,1,154.000004699707,6|2,0:0|0:0,0:0:0:0:
41,332,61759,1,8,0:0:0:0:
41,332,61925,2,0,L|125:338,1,77.0000023498536,2|0,0:0|0:0,0:0:0:0:
229,351,62259,1,2,0:0:0:0:
229,351,62425,1,8,0:0:0:0:
329,312,62592,6,0,P|362:256|346:162,1,154.000004699707,6|2,0:0|0:0,0:0:0:0:
312,69,63092,2,0,L|393:58,1,77.0000023498536,8|0,0:0|0:0,0:0:0:0:
213,28,63425,1,2,0:0:0:0:
213,28,63592,2,0,L|132:17,1,77.0000023498536,2|8,0:0|0:0,0:0:0:0:
37,60,63925,6,0,B|15:106|15:106|39:218,1,154.000004699707,6|2,0:0|0:0,0:0:0:0:
132,256,64425,1,8,0:0:0:0:
220,193,64592,2,0,B|314:182|281:232|381:217,1,154.000004699707,6|2,0:0|0:0,0:0:0:0:
468,179,65092,1,8,0:0:0:0:
481,71,65259,6,0,B|452:38|421:27|421:27|381:27|342:55,1,154.000004699707,6|2,0:0|0:0,0:0:0:0:
252,102,65759,2,0,L|157:95,1,77.0000023498536,8|0,0:0|0:0,0:0:0:0:
143,199,66092,2,0,L|238:192,1,77.0000023498536,2|2,0:0|0:0,0:0:0:0:
318,238,66425,1,8,0:0:0:0:
255,326,66592,6,0,P|185:353|94:313,1,154.000004699707,6|2,0:0|0:0,0:0:0:0:
38,258,67092,1,8,0:0:0:0:
38,258,67259,2,0,L|42:163,1,77.0000023498536,2|0,0:0|0:0,0:0:0:0:
111,99,67592,1,2,0:0:0:0:
111,99,67759,1,8,0:0:0:0:
187,174,67925,6,0,P|243:174|273:163,1,77.0000023498536,6|0,0:0|0:0,0:0:0:0:
252,275,68259,2,0,P|300:247|320:222,1,77.0000023498536,2|8,0:0|0:0,0:0:0:0:
363,328,68592,2,0,P|391:279|396:248,1,77.0000023498536,2|0,0:0|0:0,0:0:0:0:
484,319,68925,2,0,P|484:263|472:233,1,77.0000023498536,2|8,0:0|0:0,0:0:0:0:
409,159,69259,6,0,B|402:112|402:112|419:66|419:66|411:9,1,154.000004699707,6|2,0:0|0:0,0:0:0:0:
314,56,69759,2,0,P|299:97|305:142,1,77.0000023498536,8|0,0:0|0:0,0:0:0:0:
325,234,70092,1,2,0:0:0:0:
231,288,70259,2,0,L|171:284,3,38.5000011749268,8|8|8|8,0:0|0:0|0:0|0:0,0:0:0:0:
153,287,70592,6,0,B|135:188|135:188|161:133,1,154.000004699707,6|2,0:0|0:0,0:0:0:0:
213,47,71092,2,0,P|166:32|130:36,1,77.0000023498536,8|0,0:0|0:0,0:0:0:0:
38,73,71425,2,0,P|23:120|27:156,1,77.0000023498536,2|2,0:0|0:0,0:0:0:0:
51,252,71759,1,8,0:0:0:0:
135,188,71925,6,0,B|185:183|185:183|233:204|233:204|299:196,1,154.000004699707,6|2,0:0|0:0,0:0:0:0:
372,135,72425,2,0,L|460:144,1,77.0000023498536,8|0,0:0|0:0,0:0:0:0:
501,243,72759,1,2,0:0:0:0:
501,243,72925,1,2,0:0:0:0:
446,336,73092,1,8,0:0:0:0:
340,360,73259,6,0,B|297:349|297:349|261:363|261:363|228:342|182:344,1,154.000004699707,6|2,0:0|0:0,0:0:0:0:
130,256,73759,2,0,P|164:239|217:238,1,77.0000023498536,8|0,0:0|0:0,0:0:0:0:
268,150,74092,2,0,P|234:133|181:132,1,77.0000023498536,2|2,0:0|0:0,0:0:0:0:
87,127,74425,1,8,0:0:0:0:
125,26,74592,6,0,B|233:17|233:17|282:32,1,154.000004699707,6|2,0:0|0:0,0:0:0:0:
375,73,75092,1,8,0:0:0:0:
373,179,75259,2,0,P|308:240|225:236,1,154.000004699707,6|2,0:0|0:0,0:0:0:0:
152,190,75759,1,8,0:0:0:0:
52,149,75925,6,0,B|45:208|45:208|58:235|58:235|45:269|55:316,1,154.000004699707,6|2,0:0|0:0,0:0:0:0:
146,350,76425,2,0,L|234:359,1,77.0000023498536,8|0,0:0|0:0,0:0:0:0:
330,372,76759,2,0,L|418:363,1,77.0000023498536,2|2,0:0|0:0,0:0:0:0:
486,290,77092,1,8,0:0:0:0:
396,229,77259,6,0,B|377:167|412:126|412:126|398:78,1,154.000004699707,6|2,0:0|0:0,0:0:0:0:
313,26,77759,1,8,0:0:0:0:
313,26,77925,2,0,L|212:18,1,77.0000023498536,2|0,0:0|0:0,0:0:0:0:
131,29,78259,1,2,0:0:0:0:
131,29,78425,1,8,0:0:0:0:
67,115,78592,6,0,B|53:224|53:224|81:273,1,154.000004699707,6|2,0:0|0:0,0:0:0:0:
156,333,79092,2,0,L|253:322,1,77.0000023498536,8|0,0:0|0:0,0:0:0:0:
289,232,79425,1,2,0:0:0:0:
289,232,79592,2,0,L|192:221,1,77.0000023498536,2|8,0:0|0:0,0:0:0:0:
173,122,79925,6,0,P|219:86|325:88,1,154.000004699707,6|2,0:0|0:0,0:0:0:0:
401,142,80425,2,0,P|440:139|481:137,1,77.0000023498536,8|0,0:0|0:0,0:0:0:0:
509,240,80759,2,0,P|470:237|429:235,1,77.0000023498536,2|2,0:0|0:0,0:0:0:0:
324,227,81092,1,8,0:0:0:0:
258,312,81259,1,2,0:0:0:0:
171,247,81425,6,0,P|132:249|94:251,1,77.0000023498536,12|2,0:0|0:0,0:0:0:0:
94,143,81759,2,0,P|132:144|170:147,1,77.0000023498536,8|2,0:0|0:0,0:0:0:0:
278,152,82092,1,8,0:0:0:0:
372,99,82259,1,8,0:0:0:0:
305,14,82425,2,0,L|259:18,3,38.5000011749268,8|8|8|8,0:0|0:0|0:0|0:0,0:0:0:0:
235,35,82759,6,0,P|181:49|97:24,1,140,6|8,0:0|0:0,0:0:0:0:
14,72,83259,2,0,L|23:221,1,140,0|2,0:0|0:0,0:0:0:0:
98,274,83759,1,8,0:0:0:0:
178,218,83925,6,0,L|268:227,1,70,2|0,0:0|0:0,0:0:0:0:
336,268,84259,2,0,L|426:259,1,70,2|8,0:0|0:0,0:0:0:0:
475,192,84592,2,0,P|503:254|484:320,1,140,2|2,0:0|0:0,0:0:0:0:
405,378,85092,2,0,L|275:369,1,105,8|8,0:0|0:0,0:0:0:0:
265,366,85425,6,0,P|198:333|120:345,1,140,6|8,0:0|0:0,0:0:0:0:
38,360,85925,2,0,L|33:279,1,70,0|2,0:0|0:0,0:0:0:0:
28,195,86259,1,2,0:0:0:0:
28,195,86425,1,0,0:0:0:0:
113,146,86592,6,0,B|162:170|162:170|262:155,1,140,8|2,0:0|0:0,0:0:0:0:
319,91,87092,2,0,L|396:98,1,70,8|0,0:0|0:0,0:0:0:0:
464,168,87425,1,2,0:0:0:0:
464,168,87592,1,2,0:0:0:0:
387,229,87759,2,0,L|344:232,3,35,8|8|8|8,0:0|0:0|0:0|0:0,0:0:0:0:
317,236,88092,6,0,P|265:269|190:259,1,140,6|8,0:0|0:0,0:0:0:0:
112,198,88592,2,0,L|120:47,1,140,8|0,0:0|0:0,0:0:0:0:
208,16,89092,1,8,0:0:0:0:
294,62,89259,6,0,L|385:67,1,70,2|0,0:0|0:0,0:0:0:0:
407,153,89592,2,0,L|316:158,1,70,2|8,0:0|0:0,0:0:0:0:
247,197,89925,2,0,P|227:258|252:327,1,140,2|2,0:0|0:0,0:0:0:0:
341,368,90425,2,0,P|386:348|449:353,1,105,8|8,0:0|0:0,0:0:0:0:
475,360,90759,6,0,P|495:299|470:230,1,140,2|8,0:0|0:0,0:0:0:0:
407,153,91259,2,0,B|333:139|344:180|266:165,1,140,0|2,3:0|0:0,0:0:0:0:
182,120,91759,1,0,0:0:0:0:
115,191,91925,6,0,P|121:268|128:354,1,140,8|2,0:0|0:0,0:0:0:0:
218,367,92425,2,0,P|254:354|297:357,1,70,8|0,0:0|0:0,0:0:0:0:
387,369,92759,1,2,0:0:0:0:
387,369,92925,2,0,P|391:314|393:286,1,70,2|0,0:0|0:0,0:0:0:0:
404,201,93259,1,8,0:0:0:0:
324,144,93425,6,0,P|259:163|174:121,1,140,6|8,0:0|0:0,0:0:0:0:
162,46,93925,1,0,3:0:0:0:
162,46,94009,1,0,3:0:0:0:
162,46,94092,2,0,L|239:41,1,70,2|2,0:0|0:0,0:0:0:0:
334,33,94425,1,8,0:0:0:0:
424,72,94592,6,0,P|446:137|428:207,1,140,2|2,0:0|0:0,0:0:0:0:
350,263,95092,1,8,0:0:0:0:
350,263,95259,2,0,L|270:258,1,70,0|2,0:0|0:0,0:0:0:0:
194,221,95592,1,2,0:0:0:0:
194,221,95759,2,0,L|70:228,1,105,8|8,0:0|0:0,0:0:0:0:
54,230,96092,6,0,P|46:192|50:158,1,70,2|0,0:0|0:0,0:0:0:0:
96,75,96425,1,8,0:0:0:0:
96,75,96509,1,0,3:0:0:0:
96,75,96592,2,0,P|148:97|233:78,1,140,0|2,3:0|0:0,0:0:0:0:
305,21,97092,1,0,0:0:0:0:
389,70,97259,6,0,P|385:144|380:216,1,140,8|2,0:0|0:0,0:0:0:0:
295,258,97759,2,0,P|297:295|299:331,1,70,8|0,0:0|3:0,0:0:0:0:
390,377,98092,1,2,0:0:0:0:
390,377,98259,1,2,0:0:0:0:
481,341,98425,2,0,P|500:291|482:226,1,105,0|8,0:0|0:0,0:0:0:0:
474,210,98759,6,0,L|478:133,1,70,6|0,0:0|0:0,0:0:0:0:
422,58,99092,1,2,0:0:0:0:
331,18,99259,2,0,P|290:18|250:32,1,70,8|0,0:0|0:0,0:0:0:0:
194,96,99592,1,0,3:0:0:0:
194,96,99675,1,0,3:0:0:0:
194,96,99759,1,8,0:0:0:0:
210,192,99925,6,0,B|190:255|240:271|216:342,1,140,2|2,0:0|0:0,0:0:0:0:
132,374,100425,1,8,0:0:0:0:
36,349,100592,1,0,3:0:0:0:
36,349,100675,1,0,3:0:0:0:
36,349,100759,2,0,P|40:307|45:266,1,70,2|2,0:0|0:0,0:0:0:0:
95,195,101092,2,0,P|91:149|85:72,1,105,8|0,0:0|0:0,0:0:0:0:
82,55,101425,6,0,P|121:62|175:47,1,70,2|0,0:0|3:0,0:0:0:0:
243,23,101759,1,8,0:0:0:0:
336,51,101925,2,0,P|357:115|341:193,1,140,0|0,3:0|0:0,0:0:0:0:
284,262,102425,1,0,0:0:0:0:
189,235,102592,6,0,P|107:240|36:245,1,140,8|2,0:0|0:0,0:0:0:0:
23,338,103092,2,0,P|58:341|93:343,1,70,8|0,0:0|0:0,0:0:0:0:
189,357,103425,1,2,0:0:0:0:
282,328,103592,2,0,P|290:296|287:259,1,70,2|0,0:0|0:0,0:0:0:0:
254,166,103925,1,8,0:0:0:0:
160,203,104092,6,0,B|122:218|122:218|38:208,1,112,6|0,0:0|1:0,0:0:0:0:
31,127,104592,2,0,P|79:104|162:110,1,112,0|2,0:0|0:0,0:0:0:0:
219,139,105092,1,0,1:0:0:0:
219,139,105259,6,0,P|251:141|288:144,1,56,2|0,0:0|0:0,0:0:0:0:
353,173,105592,2,0,P|380:170|408:169,2,56,2|8|0,0:0|0:0|0:0,0:0:0:0:
302,240,106092,1,2,0:0:0:0:
302,240,106259,1,2,0:0:0:0:
372,284,106425,2,0,P|399:286|427:287,1,56,8|0,0:0|0:0,0:0:0:0:
311,356,106759,6,0,L|194:366,1,112,6|8,0:0|0:0,0:0:0:0:
115,373,107259,2,0,P|108:347|112:302,1,56,2|0,0:0|0:0,0:0:0:0:
145,244,107592,1,2,0:0:0:0:
145,244,107759,1,8,0:0:0:0:
219,205,107925,6,0,P|231:164|222:95,1,112,2|2,0:0|0:0,0:0:0:0:
193,17,108425,2,0,L|253:12,1,56,8|0,0:0|0:0,0:0:0:0:
338,13,108759,1,2,0:0:0:0:
338,13,108925,1,8,0:0:0:0:
405,62,109092,2,0,L|435:64,3,28,8|8|8|8,0:0|0:0|0:0|0:0,0:0:0:0:
470,66,109425,6,0,P|487:112|460:198,1,125.999996154785,6|0,0:0|0:0,0:0:0:0:
385,211,109925,2,0,P|339:194|253:221,1,125.999996154785,2|0,0:0|3:0,0:0:0:0:
184,244,110425,6,0,B|141:265|92:263|42:244|21:177,1,188.999994232178,6|0,0:0|0:0,0:0:0:0:
18,100,111092,2,0,L|26:28,1,62.9999980773926,2|0,0:0|0:0,0:0:0:0:
113,25,111425,2,0,L|121:97,1,62.9999980773926,2|0,0:0|3:0,0:0:0:0:
197,131,111759,2,0,P|232:135|266:127,1,62.9999980773926,2|0,0:0|0:0,0:0:0:0:
343,79,112092,5,6,0:0:0:0:
343,79,112175,1,0,3:0:0:0:
343,79,112259,1,0,3:0:0:0:
402,156,112425,2,0,L|396:247,1,70,8|0,0:0|0:0,0:0:0:0:
331,299,112759,2,0,B|239:312|239:312|178:290,1,140,2|8,0:0|0:0,0:0:0:0:
84,234,113259,6,0,P|78:196|84:156,1,70,6|0,0:0|0:0,0:0:0:0:
138,52,113592,1,2,0:0:0:0:
208,156,113759,1,8,0:0:0:0:
208,156,114592,6,0,B|263:153|263:153|299:171|299:171|364:166,1,154.000004699707,6|2,0:0|0:0,0:0:0:0:
407,70,115092,2,0,L|318:62,1,77.0000023498536,8|0,0:0|0:0,0:0:0:0:
236,10,115425,2,0,L|147:18,1,77.0000023498536,2|2,0:0|0:0,0:0:0:0:
61,64,115759,1,8,0:0:0:0:
110,159,115925,6,0,P|136:225|109:311,1,154.000004699707,6|2,0:0|0:0,0:0:0:0:
13,340,116425,1,8,0:0:0:0:
13,340,116592,2,0,L|9:253,1,77.0000023498536,2|0,0:0|0:0,0:0:0:0:
4,159,116925,1,2,0:0:0:0:
4,159,117092,1,8,0:0:0:0:
69,73,117259,6,0,B|119:66|119:66|159:83|159:83|218:73,1,154.000004699707,6|2,0:0|0:0,0:0:0:0:
318,32,117759,2,0,L|417:42,1,77.0000023498536,8|0,0:0|0:0,0:0:0:0:
438,143,118092,1,2,0:0:0:0:
438,143,118259,2,0,L|361:150,1,77.0000023498536,2|8,0:0|0:0,0:0:0:0:
277,218,118592,6,0,B|300:262|300:262|280:378,1,154.000004699707,6|2,0:0|0:0,0:0:0:0:
175,378,119092,1,8,0:0:0:0:
71,348,119259,2,0,P|59:287|96:204,1,154.000004699707,6|2,0:0|0:0,0:0:0:0:
181,139,119759,1,8,0:0:0:0:
277,218,119925,6,0,B|310:245|347:251|347:251|376:245|411:212,1,154.000004699707,6|2,0:0|0:0,0:0:0:0:
432,106,120425,2,0,L|508:111,1,77.0000023498536,8|0,0:0|0:0,0:0:0:0:
363,14,120759,2,0,L|287:19,1,77.0000023498536,2|2,0:0|0:0,0:0:0:0:
180,41,121092,1,8,0:0:0:0:
228,138,121259,6,0,B|244:182|244:182|217:302,1,154.000004699707,6|2,0:0|0:0,0:0:0:0:
122,327,121759,1,8,0:0:0:0:
122,327,121925,2,0,L|114:245,1,77.0000023498536,2|0,0:0|0:0,0:0:0:0:
106,145,122259,1,2,0:0:0:0:
106,145,122425,1,8,0:0:0:0:
163,53,122592,6,0,P|190:37|259:37,1,77.0000023498536,6|0,0:0|0:0,0:0:0:0:
223,138,122925,2,0,P|253:145|302:194,1,77.0000023498536,2|8,0:0|0:0,0:0:0:0:
207,244,123259,2,0,P|223:271|223:339,1,77.0000023498536,2|0,0:0|0:0,0:0:0:0:
121,307,123592,2,0,P|110:344|85:374,1,77.0000023498536,2|8,0:0|0:0,0:0:0:0:
13,293,123925,6,0,P|18:220|23:137,1,154.000004699707,6|2,0:0|0:0,0:0:0:0:
88,53,124425,2,0,P|128:48|174:62,1,77.0000023498536,8|0,0:0|0:0,0:0:0:0:
252,119,124759,1,2,0:0:0:0:
300,214,124925,2,0,L|294:268,3,38.5000011749268,8|8|8|8,0:0|0:0|0:0|0:0,0:0:0:0:
290,290,125259,6,0,B|386:288|348:336|453:333,1,154.000004699707,6|2,0:0|0:0,0:0:0:0:
502,248,125759,2,0,P|508:209|495:161,1,77.0000023498536,8|0,0:0|0:0,0:0:0:0:
430,91,126092,2,0,P|390:85|342:98,1,77.0000023498536,2|2,0:0|0:0,0:0:0:0:
257,139,126425,1,8,0:0:0:0:
209,236,126592,6,0,B|114:246|114:246|80:239|55:211,1,154.000004699707,6|2,0:0|0:0,0:0:0:0:
17,121,127092,2,0,L|22:35,1,77.0000023498536,8|0,0:0|0:0,0:0:0:0:
125,16,127425,1,2,0:0:0:0:
125,16,127592,1,2,0:0:0:0:
208,84,127759,1,8,0:0:0:0:
311,53,127925,6,0,B|338:22|379:15|379:15|421:34|440:76,1,154.000004699707,6|2,0:0|0:0,0:0:0:0:
457,169,128425,2,0,L|368:174,1,77.0000023498536,8|0,0:0|0:0,0:0:0:0:
310,256,128759,2,0,L|221:251,1,77.0000023498536,2|2,0:0|0:0,0:0:0:0:
125,258,129092,1,8,0:0:0:0:
52,178,129259,6,0,B|38:76|38:76|46:45|70:19,1,154.000004699707,6|2,0:0|0:0,0:0:0:0:
166,6,129759,1,8,0:0:0:0:
263,51,129925,2,0,B|309:46|309:46|359:64|359:64|434:54,1,154.000004699707,6|2,0:0|0:0,0:0:0:0:
477,143,130425,1,8,0:0:0:0:
409,225,130592,6,0,P|344:251|248:218,1,154.000004699707,6|2,0:0|0:0,0:0:0:0:
176,169,131092,2,0,L|78:175,1,77.0000023498536,8|0,0:0|0:0,0:0:0:0:
42,265,131425,2,0,L|140:271,1,77.0000023498536,2|2,0:0|0:0,0:0:0:0:
216,317,131759,1,8,0:0:0:0:
315,357,131925,6,0,B|373:351|373:351|413:364|413:364|483:357,1,154.000004699707,6|2,0:0|0:0,0:0:0:0:
505,257,132425,1,8,0:0:0:0:
505,257,132592,2,0,P|508:213|499:173,1,77.0000023498536,2|0,0:0|0:0,0:0:0:0:
430,105,132925,1,2,0:0:0:0:
430,105,133092,1,8,0:0:0:0:
335,157,133259,6,0,P|259:148|170:137,1,154.000004699707,6|2,0:0|0:0,0:0:0:0:
125,46,133759,2,0,P|163:42|215:37,1,77.0000023498536,8|0,0:0|0:0,0:0:0:0:
310,15,134092,1,2,0:0:0:0:
310,15,134259,2,0,P|348:18|386:22,1,77.0000023498536,2|8,0:0|0:0,0:0:0:0:
483,69,134592,6,0,P|508:140|480:219,1,154.000004699707,6|2,0:0|0:0,0:0:0:0:
395,273,135092,2,0,L|309:263,1,77.0000023498536,8|0,0:0|0:0,0:0:0:0:
219,221,135425,2,0,L|133:231,1,77.0000023498536,2|2,0:0|0:0,0:0:0:0:
35,247,135759,1,8,0:0:0:0:
51,353,135925,1,2,0:0:0:0:
158,343,136092,6,0,L|234:334,1,77.0000023498536,12|2,0:0|0:0,0:0:0:0:
318,264,136425,2,0,P|327:218|314:167,1,77.0000023498536,8|0,0:0|0:0,0:0:0:0:
255,103,136759,2,0,L|203:100,3,38.5000011749268,8|8|8|8,0:0|0:0|0:0|0:0,0:0:0:0:
181,85,137092,2,0,L|129:88,3,38.5000011749268,8|8|8|8,0:0|0:0|0:0|0:0,0:0:0:0:
112,105,137425,5,6,0:0:0:0:
256,192,137509,12,2,142425,0:0:0:0:
175,186,142759,6,0,P|88:180|33:229,2,140,6|2|2,0:0|0:0|0:0,0:0:0:0:
343,286,143759,2,0,P|430:292|485:243,2,140,6|2|2,0:0|0:0|0:0,0:0:0:0:
175,186,144759,1,2,0:0:0:0:
242,115,144925,1,8,0:0:0:0:
272,208,145092,1,6,0:0:0:0:
207,23,145425,6,0,L|45:32,2,140,6|2|2,0:0|0:0|0:0,0:0:0:0:
367,136,146425,2,0,L|529:145,2,140,6|2|2,0:0|0:0|0:0,0:0:0:0:
175,186,147425,1,2,0:0:0:0:
272,208,147592,1,8,0:0:0:0:
193,14,148092,5,6,0:0:0:0:
281,216,158759,6,0,P|209:205|157:227,1,112,6|2,0:0|0:0,0:0:0:0:
94,245,159259,1,8,0:0:0:0:
94,245,159425,2,0,L|86:173,1,56,2|0,0:0|0:0,0:0:0:0:
40,118,159759,2,0,L|48:46,1,56,8|0,0:0|0:0,0:0:0:0:
128,43,160092,5,6,0:0:0:0:
128,43,160259,2,0,L|137:113,1,56,2|0,0:0|0:0,0:0:0:0:
202,157,160592,1,8,0:0:0:0:
202,157,160759,1,8,0:0:0:0:
266,103,160925,2,0,P|314:93|359:93,1,84,2|2,0:0|0:0,0:0:0:0:
467,134,161425,6,0,L|457:272,1,112,6|0,0:0|0:0,0:0:0:0:
421,321,161925,2,0,L|426:366,2,28,0|0|8,1:0|1:0|0:0,0:0:0:0:
277,233,162425,2,0,P|235:231|196:237,1,56,0|0,3:0|0:0,0:0:0:0:
154,285,162759,6,0,P|112:287|73:281,1,56,2|0,0:0|0:0,0:0:0:0:
34,230,163092,2,0,L|-6:233,2,28,0|0|0,3:0|3:0|1:0,0:0:0:0:
90,167,163425,2,0,L|97:92,1,56,2|0,0:0|0:0,0:0:0:0:
178,95,163759,2,0,L|185:170,1,56,2|0,0:0|0:0,0:0:0:0:
244,214,164092,6,0,P|308:230|378:198,1,125.999996154785,6|2,0:0|0:0,0:0:0:0:
423,146,164592,1,0,3:0:0:0:
423,146,164759,2,0,L|493:140,1,62.9999980773926,2|0,0:0|3:0,0:0:0:0:
506,54,165092,2,0,L|436:48,1,62.9999980773926,2|0,0:0|3:0,0:0:0:0:
356,31,165425,6,0,P|302:65|231:55,1,125.999996154785,2|2,0:0|0:0,0:0:0:0:
155,41,165925,1,8,0:0:0:0:
155,41,166092,2,0,L|148:112,1,62.9999980773926,2|0,0:0|0:0,0:0:0:0:
80,159,166425,2,0,L|87:230,1,62.9999980773926,2|0,0:0|0:0,0:0:0:0:
126,311,166759,6,0,P|194:326|268:286,1,140,6|0,0:0|3:0,0:0:0:0:
406,172,167425,2,0,L|489:178,1,70,0|0,3:0|1:0,0:0:0:0:
501,272,167759,2,0,L|418:278,1,70,0|0,1:0|1:0,0:0:0:0:
333,283,168092,5,8,0:0:0:0:
309,187,168259,1,8,0:0:0:0:
234,249,168425,2,0,L|149:244,1,70,8|8,0:0|0:0,0:0:0:0:
65,239,168759,1,8,0:0:0:0:
7,159,168925,1,8,0:0:0:0:
66,81,169092,1,8,0:0:0:0:
132,152,169259,1,8,0:0:0:0:
211,95,169425,6,0,B|286:59|347:95|347:95|307:168|307:168|332:190|340:227,1,293.999991027832,0|0,0:0|0:0,0:0:0:0:
234,249,170592,6,0,B|114:239|114:239|146:284,1,154.000004699707,6|2,0:0|0:0,0:0:0:0:
190,358,171092,2,0,L|289:353,1,77.0000023498536,8|0,0:0|0:0,0:0:0:0:
370,323,171425,2,0,L|469:328,1,77.0000023498536,2|2,0:0|0:0,0:0:0:0:
509,238,171759,1,8,0:0:0:0:
457,143,171925,6,0,P|390:114|299:131,1,154.000004699707,6|2,0:0|0:0,0:0:0:0:
214,172,172425,1,8,0:0:0:0:
214,172,172592,2,0,L|125:166,1,77.0000023498536,2|0,0:0|0:0,0:0:0:0:
42,125,172925,1,2,0:0:0:0:
42,125,173092,1,8,0:0:0:0:
96,31,173259,6,0,P|172:15|255:57,1,154.000004699707,6|2,0:0|0:0,0:0:0:0:
312,125,173759,2,0,L|399:119,1,77.0000023498536,8|0,0:0|0:0,0:0:0:0:
268,216,174092,1,2,0:0:0:0:
268,216,174259,2,0,L|181:210,1,77.0000023498536,2|8,0:0|0:0,0:0:0:0:
83,198,174592,6,0,B|55:248|55:248|69:352,1,154.000004699707,6|2,0:0|0:0,0:0:0:0:
171,373,175092,1,8,0:0:0:0:
266,323,175259,2,0,B|352:314|334:368|430:352,1,154.000004699707,6|2,0:0|0:0,0:0:0:0:
495,283,175759,1,8,0:0:0:0:
455,183,175925,6,0,B|403:156|350:158|350:158|306:184,1,154.000004699707,6|2,0:0|0:0,0:0:0:0:
217,234,176425,2,0,P|202:195|204:153,1,77.0000023498536,8|0,0:0|0:0,0:0:0:0:
101,121,176759,2,0,P|100:159|87:195,1,77.0000023498536,2|2,0:0|0:0,0:0:0:0:
12,272,177092,1,8,0:0:0:0:
75,359,177259,6,0,P|146:353|244:345,1,154.000004699707,6|2,0:0|0:0,0:0:0:0:
325,296,177759,1,8,0:0:0:0:
325,296,177925,2,0,P|363:299|401:302,1,77.0000023498536,2|0,0:0|0:0,0:0:0:0:
496,249,178259,1,2,0:0:0:0:
496,249,178425,1,8,0:0:0:0:
428,164,178592,6,0,P|423:128|437:85,1,77.0000023498536,6|0,0:0|0:0,0:0:0:0:
335,163,178925,2,0,P|312:134|303:90,1,77.0000023498536,2|8,0:0|0:0,0:0:0:0:
255,210,179259,2,0,P|221:196|191:162,1,77.0000023498536,2|0,0:0|0:0,0:0:0:0:
206,289,179592,2,0,P|170:293|127:279,1,77.0000023498536,2|8,0:0|0:0,0:0:0:0:
41,221,179925,6,0,B|29:113|29:113|47:71,1,154.000004699707,6|2,0:0|0:0,0:0:0:0:
139,15,180425,2,0,L|230:22,1,77.0000023498536,8|0,0:0|0:0,0:0:0:0:
312,69,180759,1,2,0:0:0:0:
412,105,180925,2,0,L|457:101,3,38.5000011749268,8|8|8|8,0:0|0:0|0:0|0:0,0:0:0:0:
489,98,181259,6,0,P|511:174|497:257,1,154.000004699707,6|2,0:0|0:0,0:0:0:0:
427,325,181759,2,0,L|335:318,1,77.0000023498536,8|0,0:0|0:0,0:0:0:0:
267,249,182092,2,0,L|175:256,1,77.0000023498536,2|2,0:0|0:0,0:0:0:0:
82,267,182425,1,8,0:0:0:0:
15,181,182592,6,0,B|1:135|1:135|12:23,1,154.000004699707,6|2,0:0|0:0,0:0:0:0:
119,37,183092,2,0,P|170:46|218:39,1,77.0000023498536,8|0,0:0|0:0,0:0:0:0:
302,21,183425,1,2,0:0:0:0:
302,21,183592,1,2,0:0:0:0:
373,101,183759,1,8,0:0:0:0:
281,157,183925,6,0,B|253:171|240:192|240:192|257:303,1,154.000004699707,6|2,0:0|0:0,0:0:0:0:
320,375,184425,2,0,P|358:378|396:373,1,77.0000023498536,8|0,0:0|0:0,0:0:0:0:
489,317,184759,2,0,P|492:278|487:240,1,77.0000023498536,2|2,0:0|0:0,0:0:0:0:
459,136,185092,1,8,0:0:0:0:
367,79,185259,6,0,B|307:73|307:73|270:89|270:89|209:83,1,154.000004699707,6|2,0:0|0:0,0:0:0:0:
110,65,185759,1,8,0:0:0:0:
28,134,185925,2,0,P|6:204|33:280,1,154.000004699707,6|2,0:0|0:0,0:0:0:0:
127,327,186425,1,8,0:0:0:0:
215,265,186592,6,0,B|254:249|292:257|292:257|317:280|360:284,1,154.000004699707,6|2,0:0|0:0,0:0:0:0:
459,240,187092,2,0,P|465:203|451:151,1,77.0000023498536,8|0,0:0|0:0,0:0:0:0:
380,89,187425,2,0,P|343:83|291:97,1,77.0000023498536,2|2,0:0|0:0,0:0:0:0:
219,157,187759,1,8,0:0:0:0:
215,265,187925,6,0,B|107:271|107:271|62:239,1,154.000004699707,6|2,0:0|0:0,0:0:0:0:
4,166,188425,1,8,0:0:0:0:
4,166,188592,2,0,L|10:81,1,77.0000023498536,2|0,0:0|0:0,0:0:0:0:
93,21,188925,1,2,0:0:0:0:
93,21,189092,1,8,0:0:0:0:
186,74,189259,6,0,B|240:67|240:67|285:84|285:84|348:75,1,154.000004699707,6|2,0:0|0:0,0:0:0:0:
442,57,189759,2,0,P|460:94|458:144,1,77.0000023498536,8|0,0:0|0:0,0:0:0:0:
419,228,190092,2,0,P|382:246|332:244,1,77.0000023498536,2|2,0:0|0:0,0:0:0:0:
256,188,190425,1,8,0:0:0:0:
153,223,190592,6,0,B|176:277|176:277|163:371,1,154.000004699707,6|0,0:0|0:0,0:0:0:0:
56,359,191092,2,0,L|44:278,1,77.0000023498536,8|0,0:0|0:0,0:0:0:0:
57,175,191425,1,2,0:0:0:0:
142,109,191592,2,0,L|194:104,3,38.5000011749268,8|8|8|8,0:0|0:0|0:0|0:0,0:0:0:0:
222,113,191925,6,0,P|273:136|333:118,1,112,0|2,0:0|0:0,0:0:0:0:
423,78,192425,6,0,B|435:114|435:114|427:154,1,77.0000023498536,12|0,0:0|0:0,0:0:0:0:
384,251,192759,2,0,L|390:340,1,77.0000023498536,2|0,0:0|0:0,0:0:0:0:
291,374,193092,1,8,0:0:0:0:
210,302,193259,6,0,B|124:289|143:338|52:319,1,154.000004699707,6|2,0:0|0:0,0:0:0:0:
7,233,193759,1,8,0:0:0:0:
7,233,193925,2,0,L|10:143,1,77.0000023498536,2|0,0:0|0:0,0:0:0:0:
80,74,194259,1,2,0:0:0:0:
80,74,194425,1,8,0:0:0:0:
169,135,194592,6,0,B|215:151|215:151|327:135,1,154.000004699707,6|2,0:0|0:0,0:0:0:0:
423,107,195092,2,0,L|417:23,1,77.0000023498536,8|0,0:0|0:0,0:0:0:0:
506,183,195425,1,2,0:0:0:0:
506,183,195592,2,0,L|500:267,1,77.0000023498536,2|8,0:0|0:0,0:0:0:0:
406,313,195925,6,0,B|364:292|364:292|319:328|256:308,1,154.000004699707,6|2,0:0|0:0,0:0:0:0:
169,256,196425,1,8,0:0:0:0:
236,171,196592,2,0,P|248:103|189:28,1,154.000004699707,6|2,0:0|0:0,0:0:0:0:
96,18,197092,1,8,0:0:0:0:
24,99,197259,6,0,B|18:158|18:158|33:188|33:188|25:269,1,154.000004699707,6|2,0:0|0:0,0:0:0:0:
11,355,197759,2,0,P|46:366|103:363,1,77.0000023498536,8|0,0:0|0:0,0:0:0:0:
170,298,198092,2,0,P|205:287|262:290,1,77.0000023498536,2|2,0:0|0:0,0:0:0:0:
343,330,198425,1,8,0:0:0:0:
434,271,198592,6,0,P|426:199|415:100,1,154.000004699707,6|2,0:0|0:0,0:0:0:0:
324,61,199092,1,8,0:0:0:0:
324,61,199259,2,0,P|309:109|313:147,1,77.0000023498536,2|0,0:0|0:0,0:0:0:0:
334,245,199592,1,2,0:0:0:0:
334,245,199759,1,8,0:0:0:0:
253,317,199925,6,0,P|215:311|177:305,1,77.0000023498536,6|0,0:0|0:0,0:0:0:0:
226,198,200259,2,0,P|189:212|154:226,1,77.0000023498536,2|8,0:0|0:0,0:0:0:0:
142,112,200592,2,0,P|117:141|94:172,1,77.0000023498536,2|0,0:0|0:0,0:0:0:0:
26,77,200925,2,0,P|19:115|14:154,1,77.0000023498536,2|8,0:0|0:0,0:0:0:0:
3,262,201259,6,0,B|24:373|24:373|72:347,1,154.000004699707,6|2,0:0|0:0,0:0:0:0:
162,319,201759,2,0,P|201:316|255:336,1,77.0000023498536,8|0,0:0|0:0,0:0:0:0:
333,375,202092,1,2,0:0:0:0:
428,325,202259,2,0,L|423:263,3,38.5000011749268,8|8|8|8,0:0|0:0|0:0|0:0,0:0:0:0:
405,253,202592,6,0,B|377:211|377:211|387:100,1,154.000004699707,6|2,0:0|0:0,0:0:0:0:
299,43,203092,2,0,P|280:88|280:119,1,77.0000023498536,8|0,0:0|0:0,0:0:0:0:
179,155,203425,2,0,P|176:116|159:82,1,77.0000023498536,2|2,0:0|0:0,0:0:0:0:
74,14,203759,1,8,0:0:0:0:
1,92,203925,6,0,P|5:171|10:257,1,154.000004699707,6|2,0:0|0:0,0:0:0:0:
61,340,204425,2,0,P|99:345|144:334,1,77.0000023498536,8|0,0:0|0:0,0:0:0:0:
225,274,204759,1,2,0:0:0:0:
225,274,204925,1,2,0:0:0:0:
139,208,205092,1,8,0:0:0:0:
225,142,205259,6,0,B|250:135|275:135|275:135|313:153|313:153|341:139|381:139,1,154.000004699707,6|2,0:0|0:0,0:0:0:0:
470,184,205759,2,0,P|484:224|479:266,1,77.0000023498536,8|0,0:0|0:0,0:0:0:0:
417,345,206092,2,0,P|377:359|335:354,1,77.0000023498536,2|2,0:0|0:0,0:0:0:0:
237,334,206425,1,8,0:0:0:0:
200,232,206592,6,0,B|145:227|145:227|110:243|110:243|40:236,1,154.000004699707,6|2,0:0|0:0,0:0:0:0:
0,140,207092,1,8,0:0:0:0:
45,42,207259,2,0,P|104:22|205:57,1,154.000004699707,6|2,0:0|0:0,0:0:0:0:
263,124,207759,1,8,0:0:0:0:
292,227,207925,6,0,B|391:243|391:243|457:214,1,154.000004699707,6|2,0:0|0:0,0:0:0:0:
510,139,208425,2,0,L|501:47,1,77.0000023498536,8|0,0:0|0:0,0:0:0:0:
406,12,208759,2,0,L|398:88,1,77.0000023498536,2|2,0:0|0:0,0:0:0:0:
301,135,209092,1,8,0:0:0:0:
214,70,209259,6,0,B|147:47|98:66|98:66|70:110,1,154.000004699707,6|2,0:0|0:0,0:0:0:0:
39,198,209759,1,8,0:0:0:0:
39,198,209925,2,0,L|45:287,1,77.0000023498536,2|0,0:0|0:0,0:0:0:0:
130,350,210259,1,2,0:0:0:0:
130,350,210425,1,8,0:0:0:0:
220,290,210592,6,0,B|263:283|296:306|296:306|329:279|379:286,1,154.000004699707,6|2,0:0|0:0,0:0:0:0:
473,292,211092,2,0,P|480:257|468:207,1,77.0000023498536,8|0,0:0|0:0,0:0:0:0:
405,140,211425,1,2,0:0:0:0:
405,140,211592,2,0,P|369:133|319:145,1,77.0000023498536,2|8,0:0|0:0,0:0:0:0:
236,194,211925,6,0,B|177:188|177:188|149:168|149:168|82:158,1,154.000004699707,6|2,0:0|0:0,0:0:0:0:
44,60,212425,2,0,P|92:49|128:56,1,77.0000023498536,8|0,0:0|0:0,0:0:0:0:
221,17,212759,2,0,P|269:28|305:21,1,77.0000023498536,2|2,0:0|0:0,0:0:0:0:
402,5,213092,1,8,0:0:0:0:
478,81,213259,1,2,0:0:0:0:
411,164,213425,6,0,L|407:253,1,77.0000023498536,12|2,0:0|0:0,0:0:0:0:
304,276,213759,2,0,L|300:199,1,77.0000023498536,8|2,0:0|0:0,0:0:0:0:
235,112,214092,2,0,L|176:117,3,38.5000011749268,8|8|8|8,0:0|0:0|0:0|0:0,0:0:0:0:
166,139,214425,2,0,L|107:134,3,38.5000011749268,8|8|8|8,0:0|0:0|0:0|0:0,0:0:0:0:
88,133,214759,5,6,0:0:0:0:
256,192,214842,12,2,219759,0:0:0:0:
147,248,220092,6,0,P|66:287|-7:258,2,154.000004699707,6|2|2,0:0|0:0|0:0,0:0:0:0:
365,248,221092,2,0,P|446:287|519:258,2,154.000004699707,6|2|2,0:0|0:0|0:0,0:0:0:0:
256,61,222092,1,2,0:0:0:0:
168,124,222259,1,8,0:0:0:0:
256,184,222425,1,6,0:0:0:0:
78,61,222759,6,0,P|37:119|32:225,2,154.000004699707,6|2|2,0:0|0:0|0:0,0:0:0:0:
256,184,223759,2,0,L|243:351,2,154.000004699707,6|2|2,0:0|0:0|0:0,0:0:0:0:
462,119,224759,6,0,L|468:183,3,38.5000011749268,8|8|8|8,0:0|0:0|0:0|0:0,0:0:0:0:
487,188,225092,2,0,L|481:252,3,38.5000011749268,8|8|8|8,0:0|0:0|0:0|0:0,0:0:0:0:
476,263,225425,5,6,0:0:0:0:
256,192,225509,12,0,236759,0:0:0:0:
