osu file format v14

[General]
AudioFilename: audio.mp3
AudioLeadIn: 0
PreviewTime: 59082
Countdown: 0
SampleSet: Soft
StackLeniency: 0.7
Mode: 0
LetterboxInBreaks: 0
WidescreenStoryboard: 1

[Editor]
DistanceSpacing: 1.1
BeatDivisor: 4
GridSize: 32
TimelineZoom: 0.9

[Metadata]
Title:Jitter Doll
TitleUnicode:ジッタードール
Artist:Yuaru
ArtistUnicode:ゆある
Creator:-Laura-
Version:Easy
Source:
Tags:Akitoshi Corinn niki Nyun 歌い手 utaite cover
BeatmapID:1637607
BeatmapSetID:773512

[Difficulty]
HPDrainRate:2
CircleSize:3
OverallDifficulty:2
ApproachRate:4
SliderMultiplier:0.75
SliderTickRate:1

[Events]
//Background and Video events
0,0,"doll.jpg",0,0
//Break Periods
2,49625,53309
2,104292,107975
2,148082,157309
//Storyboard Layer 0 (Background)
//Storyboard Layer 1 (Fail)
//Storyboard Layer 2 (Pass)
//Storyboard Layer 3 (Foreground)
//Storyboard Sound Samples

[TimingPoints]
16092,333.333333333333,4,2,5,40,1,0
17426,333.333333333333,4,2,5,40,1,0
28092,-100,4,2,5,40,0,0
37426,-100,4,2,5,50,0,0
38759,-100,4,2,5,65,0,0
49425,-100,4,2,5,50,0,0
54092,-100,4,2,5,50,0,0
54759,-100,4,2,5,65,0,0
57425,-100,4,2,5,65,0,0
59925,-100,4,2,5,80,0,1
82759,-100,4,2,5,65,0,0
104092,-100,4,2,5,50,0,0
109425,-100,4,2,5,65,0,0
112092,-100,4,2,5,65,0,0
114592,-100,4,2,5,80,0,1
137425,-100,4,2,5,70,0,0
158759,-100,4,2,5,50,0,0
164092,-100,4,2,5,60,0,0
166759,-100,4,2,5,65,0,0
169425,-100,4,2,5,65,0,0
170259,-100,4,2,5,5,0,0
170592,-100,4,2,5,80,0,1
191925,-100,4,2,5,80,0,0
192425,-100,4,2,5,80,0,1
214759,-100,4,2,5,80,0,0
228092,-100,4,2,5,50,0,0
230759,-100,4,2,5,30,0,0
233425,-100,4,2,5,20,0,0
235425,-100,4,2,5,10,0,0
236759,-100,4,2,5,5,0,0

[Colours]
Combo1 : 192,192,192
Combo2 : 128,128,192
Combo3 : 0,0,225
Combo4 : 255,72,164

[HitObjects]
171,112,17426,6,0,P|85:104|30:142,1,150,6|0,0:0|1:0,0:0:0:0:
66,298,18759,2,0,P|152:306|207:268,1,150,0|0,1:0|1:0,0:0:0:0:
260,213,19759,1,0,1:0:0:0:
298,140,20092,6,0,L|449:150,1,150,6|0,0:0|1:0,0:0:0:0:
508,303,21426,2,0,L|357:313,1,150,0|0,1:0|1:0,0:0:0:0:
276,321,22426,1,0,1:0:0:0:
216,264,22759,6,0,P|162:240|67:249,1,150,6|0,0:0|1:0,0:0:0:0:
12,92,24092,2,0,P|85:101|154:74,1,150,0|0,1:0|1:0,0:0:0:0:
222,26,25092,1,0,1:0:0:0:
292,68,25426,6,0,L|299:228,1,150,6|0,0:0|1:0,0:0:0:0:
436,308,26759,2,0,L|442:158,1,150,0|0,1:0|1:0,0:0:0:0:
449,75,27759,1,0,1:0:0:0:
386,21,28092,5,6,0:0:0:0:
386,21,30759,5,6,0:0:0:0:
237,92,31426,2,2,P|181:108|85:74,1,150,0|6,0:3|0:0,0:3:0:0:
95,82,33426,5,6,0:0:0:0:
21,229,34092,2,0,P|3:304|26:376,2,150,2|2|2,0:0|0:0|0:0,0:0:0:0:
95,82,36092,6,0,L|250:80,1,150,6|2,0:0|0:0,0:0:0:0:
401,132,37426,2,0,P|414:171|413:210,1,75,6|8,0:0|0:0,0:0:0:0:
373,276,38092,2,0,P|334:289|295:288,1,75,2|8,0:0|0:0,0:0:0:0:
219,274,38759,6,0,L|213:199,1,75,6|8,0:0|0:0,0:0:0:0:
198,118,39425,2,0,P|133:105|90:119,2,112.5,2|2|8,0:0|0:0|0:0,0:0:0:0:
277,140,40759,2,0,L|363:134,1,75,0|8,0:0|0:0,0:0:0:0:
434,128,41425,6,0,P|461:186|456:245,1,112.5,6|2,0:0|0:0,0:0:0:0:
425,309,42259,1,0,0:0:0:0:
354,351,42592,2,0,L|229:341,1,112.5,0|0,0:0|0:0,0:0:0:0:
172,297,43425,2,0,L|82:304,1,75,2|2,0:0|0:0,0:0:0:0:
23,266,44092,6,0,P|16:228|24:183,1,75,6|8,0:0|0:0,0:0:0:0:
74,129,44759,2,0,L|70:16,2,112.5,2|2|8,0:0|0:0|0:0,0:0:0:0:
123,194,46092,2,0,P|161:201|206:193,1,75,2|8,0:0|0:0,0:0:0:0:
268,155,46759,6,0,L|395:161,1,112.5,6|2,0:0|0:0,0:0:0:0:
460,180,47592,1,2,0:0:0:0:
496,253,47925,2,0,P|500:312|464:368,1,112.5,2|8,0:0|0:0,0:0:0:0:
392,363,48759,2,0,L|302:357,1,75,2|8,0:0|0:0,0:0:0:0:
235,350,49425,5,6,0:0:0:0:
256,192,54759,12,6,58592,0:0:0:0:
205,228,59925,6,0,L|326:215,1,112.5,6|8,0:0|0:0,0:0:0:0:
376,158,60759,2,0,P|381:91|366:46,2,112.5,2|6|8,0:0|0:0|0:0,0:0:0:0:
316,215,62092,1,2,0:0:0:0:
243,114,62592,6,0,P|183:105|126:125,1,112.5,6|8,0:0|0:0,0:0:0:0:
67,168,63425,1,2,0:0:0:0:
125,277,63925,2,0,L|215:282,1,75,6|2,0:0|0:0,0:0:0:0:
271,321,64592,2,0,L|361:316,1,75,6|2,0:0|0:0,0:0:0:0:
423,289,65259,6,0,P|435:235|419:173,1,112.5,6|8,0:0|0:0,0:0:0:0:
360,125,66092,2,0,P|306:137|244:121,2,112.5,2|6|8,0:0|0:0|0:0,0:0:0:0:
419,67,67425,1,0,0:0:0:0:
306,16,67925,6,0,L|227:22,1,75,6|2,0:0|0:0,0:0:0:0:
148,23,68592,1,2,0:0:0:0:
75,61,68925,1,2,0:0:0:0:
33,132,69259,2,0,P|23:195|40:251,1,112.5,6|8,0:0|0:0,0:0:0:0:
82,308,70092,1,2,0:0:0:0:
184,237,70592,6,0,L|302:243,1,112.5,6|8,0:0|0:0,0:0:0:0:
367,283,71425,2,0,L|485:277,2,112.5,2|6|8,0:0|0:0|0:0,0:0:0:0:
296,326,72759,1,2,0:0:0:0:
178,366,73259,6,0,B|141:368|141:368|122:362|122:362|90:370|54:357,1,112.5,6|8,0:0|0:0,0:0:0:0:
13,298,74092,1,2,0:0:0:0:
41,177,74592,2,0,L|124:170,1,75,6|2,0:0|0:0,0:0:0:0:
196,153,75259,2,0,L|279:160,1,75,6|2,0:0|0:0,0:0:0:0:
334,212,75925,6,0,P|388:229|454:208,1,112.5,6|8,0:0|0:0,0:0:0:0:
490,150,76759,2,0,L|497:29,2,112.5,2|6|8,0:0|0:0|0:0,0:0:0:0:
441,216,78092,1,2,0:0:0:0:
353,128,78592,6,0,L|236:122,1,112.5,6|8,0:0|0:0,0:0:0:0:
158,116,79425,2,0,P|101:95|34:102,2,112.5,2|6|8,0:0|0:0|0:0,0:0:0:0:
204,184,80759,1,2,0:0:0:0:
234,260,81092,1,8,0:0:0:0:
230,342,81425,6,0,P|270:345|304:350,2,75,12|8|8,0:0|0:0|0:0,0:0:0:0:
149,359,82425,1,8,0:0:0:0:
70,334,82759,6,0,P|59:293|62:244,1,75,6|8,0:0|0:0,0:0:0:0:
86,182,83425,2,0,P|134:197|204:189,1,112.5,2|2,0:0|0:0,0:0:0:0:
259,139,84259,1,2,0:0:0:0:
320,84,84592,2,0,P|368:69|438:77,1,112.5,2|8,0:0|0:0,0:0:0:0:
488,131,85425,6,0,L|483:247,1,112.5,6|2,0:0|0:0,0:0:0:0:
426,303,86259,1,2,0:0:0:0:
347,327,86592,2,0,P|286:330|236:308,1,112.5,8|8,0:0|0:0,0:0:0:0:
186,245,87425,2,0,L|179:158,1,75,2|8,0:0|0:0,0:0:0:0:
149,91,88092,6,0,P|112:87|69:101,1,75,6|8,0:0|0:0,0:0:0:0:
17,154,88759,2,0,P|3:211|26:274,1,112.5,2|2,0:0|0:0,0:0:0:0:
75,320,89592,1,2,0:0:0:0:
154,297,89925,2,0,P|211:283|274:306,1,112.5,2|8,0:0|0:0,0:0:0:0:
332,341,90759,6,0,L|458:333,1,112.5,2|0,0:0|3:0,0:0:0:0:
494,268,91592,1,2,0:0:0:0:
471,188,91925,2,0,P|435:166|353:161,1,112.5,8|8,0:0|0:0,0:0:0:0:
288,187,92759,2,0,L|201:182,1,75,2|0,0:0|0:0,0:0:0:0:
147,132,93425,6,0,L|60:137,1,75,6|8,0:0|0:0,0:0:0:0:
24,204,94092,2,0,P|16:262|34:322,2,112.5,2|2|8,0:0|0:0|0:0,0:0:0:0:
72,136,95425,2,0,L|75:59,1,75,2|8,0:0|0:0,0:0:0:0:
148,24,96092,6,0,P|199:48|265:35,1,112.5,2|0,0:0|3:0,0:0:0:0:
332,17,96925,1,2,0:0:0:0:
410,43,97259,2,0,L|404:166,1,112.5,8|8,0:0|0:0,0:0:0:0:
342,209,98092,2,0,L|346:292,1,75,2|0,0:0|0:0,0:0:0:0:
345,366,98759,6,0,P|303:372|257:363,1,75,6|2,0:0|0:0,0:0:0:0:
202,321,99425,2,0,L|76:330,2,112.5,2|2|8,0:0|0:0|0:0,0:0:0:0:
259,261,100759,2,0,P|266:215|260:177,1,75,2|8,0:0|0:0,0:0:0:0:
204,127,101425,6,0,P|152:145|97:137,1,112.5,2|0,0:0|0:0,0:0:0:0:
34,83,102259,1,0,0:0:0:0:
97,30,102592,2,0,L|217:24,1,112.5,8|8,0:0|0:0,0:0:0:0:
288,48,103425,2,0,P|301:98|299:126,1,75,2|0,0:0|0:0,0:0:0:0:
275,199,104092,5,6,0:0:0:0:
256,192,109425,12,6,113259,0:0:0:0:
307,156,114592,6,0,B|232:148|232:148|188:158,1,112.5,6|8,0:0|0:0,0:0:0:0:
157,229,115426,2,0,P|152:296|167:341,2,112.5,2|6|8,0:0|0:0|0:0,0:0:0:0:
195,156,116759,1,2,0:0:0:0:
278,64,117259,6,0,L|397:71,1,112.5,6|8,0:0|0:0,0:0:0:0:
471,84,118092,1,2,0:0:0:0:
426,199,118592,2,0,P|387:203|338:189,1,75,6|2,0:0|0:0,0:0:0:0:
274,167,119259,2,0,P|235:163|186:177,1,75,6|2,0:0|0:0,0:0:0:0:
129,212,119926,6,0,L|142:327,1,112.5,6|8,0:0|0:0,0:0:0:0:
213,363,120759,2,0,P|267:375|329:359,2,112.5,2|6|8,0:0|0:0|0:0,0:0:0:0:
141,323,122092,1,2,0:0:0:0:
39,251,122592,6,0,L|33:172,1,75,6|2,0:0|0:0,0:0:0:0:
24,93,123259,1,2,0:0:0:0:
77,30,123592,1,2,0:0:0:0:
158,42,123926,2,0,P|204:62|277:50,1,112.5,6|8,0:0|0:0,0:0:0:0:
338,18,124759,1,2,0:0:0:0:
381,133,125259,6,0,L|375:251,1,112.5,6|8,0:0|0:0,0:0:0:0:
313,299,126092,2,0,P|255:311|200:292,2,112.5,2|6|8,0:0|0:0|0:0,0:0:0:0:
375,245,127426,1,2,0:0:0:0:
280,165,127926,6,0,B|243:172|224:169|224:169|190:163|156:174,1,112.5,6|8,0:0|0:0,0:0:0:0:
90,198,128759,1,2,0:0:0:0:
99,321,129259,2,0,L|182:328,1,75,6|2,0:0|0:0,0:0:0:0:
251,356,129926,2,0,L|334:349,1,75,6|2,0:0|0:0,0:0:0:0:
396,307,130592,6,0,P|405:253|383:191,1,112.5,6|8,0:0|0:0,0:0:0:0:
331,138,131425,2,0,P|277:147|215:125,2,112.5,2|6|8,0:0|0:0|0:0,0:0:0:0:
409,107,132759,1,2,0:0:0:0:
322,18,133259,6,0,L|205:24,1,112.5,6|8,0:0|0:0,0:0:0:0:
131,50,134092,2,0,P|74:29|7:36,2,112.5,2|6|8,0:0|0:0|0:0,0:0:0:0:
190,106,135425,1,2,0:0:0:0:
202,187,135759,1,8,0:0:0:0:
145,246,136092,6,0,P|140:281|150:322,1,75,12|8,0:0|0:0,0:0:0:0:
207,377,136759,1,8,0:0:0:0:
289,377,137092,1,8,0:0:0:0:
347,318,137425,5,6,0:0:0:0:
256,192,137592,12,6,141092,0:0:0:0:
255,103,142759,6,0,P|195:74|109:89,1,150,6|2,0:0|0:0,0:0:0:0:
102,167,143759,2,0,P|162:196|248:181,1,150,6|2,0:0|0:0,0:0:0:0:
320,158,144759,2,0,L|409:162,1,75,2|6,0:0|0:0,0:0:0:0:
477,161,145425,6,0,P|499:223|474:314,1,150,6|2,0:0|0:0,0:0:0:0:
398,303,146425,2,0,P|376:241|401:150,1,150,6|2,0:0|0:0,0:0:0:0:
432,87,147425,2,0,L|427:35,1,37.5,2|8,0:0|0:0,0:0:0:0:
270,132,158759,6,0,P|214:110|115:132,1,150,6|2,0:0|0:0,0:0:0:0:
128,290,160092,2,0,P|184:312|283:289,1,150,6|8,0:0|0:0,0:0:0:0:
387,180,161425,6,0,L|371:22,1,150,6|8,0:0|0:0,0:0:0:0:
206,24,162759,2,0,L|123:27,2,75,2|0|2,0:0|3:0|0:0,0:0:0:0:
269,77,163759,1,2,0:0:0:0:
219,143,164092,6,0,P|204:213|229:287,1,150,6|2,0:0|0:0,0:0:0:0:
296,332,165092,1,2,0:0:0:0:
378,332,165425,2,0,L|389:249,1,75,2|2,0:0|0:0,0:0:0:0:
448,200,166092,2,0,L|437:117,1,75,2|2,0:0|0:0,0:0:0:0:
421,44,166759,5,6,0:0:0:0:
281,132,167425,2,0,P|246:141|200:133,1,75,0|0,3:0|1:0,0:0:0:0:
142,85,168092,2,0,P|107:76|61:84,1,75,8|8,0:0|0:0,0:0:0:0:
15,144,168759,2,0,P|6:179|14:225,1,75,8|8,0:0|0:0,0:0:0:0:
71,272,169425,6,0,B|117:263|117:263|163:283|163:283|205:260|261:271,1,187.5,0|0,0:0|0:0,0:0:0:0:
331,288,170592,6,0,L|457:278,1,112.5,6|8,0:0|0:0,0:0:0:0:
491,212,171425,2,0,P|496:153|471:96,2,112.5,2|6|8,0:0|0:0|0:0,0:0:0:0:
443,279,172759,1,2,0:0:0:0:
376,174,173259,6,0,P|317:162|252:183,1,112.5,6|8,0:0|0:0,0:0:0:0:
195,214,174092,1,2,0:0:0:0:
161,333,174592,2,0,L|251:338,1,75,6|2,0:0|0:0,0:0:0:0:
313,365,175259,2,0,L|403:360,1,75,6|2,0:0|0:0,0:0:0:0:
458,317,175926,6,0,P|470:263|454:201,1,112.5,6|8,0:0|0:0,0:0:0:0:
402,146,176759,2,0,L|288:150,2,112.5,2|6|8,0:0|0:0|0:0,0:0:0:0:
468,96,178092,1,2,0:0:0:0:
366,25,178592,6,0,P|326:20|287:31,1,75,6|2,0:0|0:0,0:0:0:0:
216,60,179259,1,2,0:0:0:0:
135,76,179592,1,2,0:0:0:0:
59,42,179926,2,0,P|35:92|37:156,1,112.5,6|8,0:0|0:0,0:0:0:0:
55,227,180759,1,2,0:0:0:0:
129,325,181259,6,0,P|179:322|247:319,1,112.5,6|8,0:0|0:0,0:0:0:0:
320,294,182092,2,0,L|437:303,2,112.5,2|6|8,0:0|0:0|0:0,0:0:0:0:
258,238,183426,1,2,0:0:0:0:
160,162,183926,6,0,B|133:159|110:165|110:165|89:154|89:154|43:160,1,112.5,6|8,0:0|0:0,0:0:0:0:
6,228,184759,1,2,0:0:0:0:
69,333,185259,2,0,L|153:328,1,75,6|2,0:0|0:0,0:0:0:0:
218,294,185925,2,0,L|302:298,1,75,6|2,0:0|0:0,0:0:0:0:
374,307,186592,6,0,P|392:251|383:193,1,112.5,6|8,0:0|0:0,0:0:0:0:
329,137,187426,2,0,L|336:16,2,112.5,2|6|8,0:0|0:0|0:0,0:0:0:0:
260,183,188759,1,2,0:0:0:0:
154,117,189259,6,0,P|95:110|39:141,1,112.5,6|8,0:0|0:0,0:0:0:0:
20,209,190092,2,0,L|17:330,2,112.5,2|6|8,0:0|0:0|0:0,0:0:0:0:
48,132,191425,2,0,L|45:11,1,112.5,2|0,0:0|0:0,0:0:0:0:
168,19,192425,5,12,0:0:0:0:
230,73,192759,2,0,P|289:88|345:77,2,112.5,2|6|8,0:0|0:0|0:0,0:0:0:0:
167,18,194092,1,2,0:0:0:0:
59,78,194592,6,0,L|64:198,1,112.5,6|8,0:0|0:0,0:0:0:0:
70,272,195425,1,2,0:0:0:0:
160,356,195925,2,0,P|195:361|245:347,1,75,6|2,0:0|0:0,0:0:0:0:
299,303,196592,2,0,P|334:298|384:312,1,75,6|2,0:0|0:0,0:0:0:0:
451,329,197259,6,0,L|455:216,1,112.5,6|8,0:0|0:0,0:0:0:0:
404,151,198092,2,0,P|347:135|287:146,2,112.5,2|6|8,0:0|0:0|0:0,0:0:0:0:
455,216,199425,1,2,0:0:0:0:
341,266,199925,6,0,L|262:272,1,75,6|2,0:0|0:0,0:0:0:0:
197,317,200592,1,2,0:0:0:0:
114,324,200925,1,2,0:0:0:0:
45,277,201259,2,0,P|33:222|45:167,1,112.5,6|8,0:0|0:0,0:0:0:0:
86,96,202092,1,2,0:0:0:0:
199,147,202592,6,0,L|317:153,1,112.5,6|8,0:0|0:0,0:0:0:0:
383,192,203425,2,0,L|501:186,2,112.5,2|6|8,0:0|0:0|0:0,0:0:0:0:
312,235,204759,1,2,0:0:0:0:
226,324,205259,6,0,B|193:332|161:317|161:317|137:323|102:315,1,112.5,6|8,0:0|0:0,0:0:0:0:
35,298,206092,1,2,0:0:0:0:
41,174,206592,2,0,P|74:162|124:167,1,75,6|2,0:0|0:0,0:0:0:0:
189,194,207259,2,0,P|222:206|272:201,1,75,6|2,0:0|0:0,0:0:0:0:
325,152,207925,6,0,L|444:161,1,112.5,6|8,0:0|0:0,0:0:0:0:
478,231,208759,2,0,P|487:295|467:348,2,112.5,2|6|8,0:0|0:0|0:0,0:0:0:0:
437,160,210092,1,2,0:0:0:0:
344,78,210592,6,0,P|286:88|227:72,1,112.5,6|8,0:0|0:0,0:0:0:0:
160,39,211425,2,0,P|102:29|43:45,2,112.5,2|6|8,0:0|0:0|0:0,0:0:0:0:
235,75,212759,1,2,0:0:0:0:
250,156,213092,1,8,0:0:0:0:
196,218,213425,6,0,P|193:257|204:296,1,75,12|8,0:0|0:0,0:0:0:0:
260,349,214092,1,8,0:0:0:0:
342,349,214425,1,8,0:0:0:0:
400,290,214759,5,6,0:0:0:0:
256,192,214925,12,6,218425,0:0:0:0:
247,295,220092,6,0,P|172:316|96:279,1,150,6|2,0:0|0:0,0:0:0:0:
110,208,221092,2,0,P|185:187|261:224,1,150,6|2,0:0|0:0,0:0:0:0:
321,254,222092,2,0,L|409:247,1,75,2|6,0:0|0:0,0:0:0:0:
474,224,222759,6,0,P|498:157|475:77,1,150,6|2,0:0|0:0,0:0:0:0:
405,44,223759,2,0,P|338:68|258:45,1,150,6|2,0:0|0:0,0:0:0:0:
184,25,224759,2,0,L|100:31,1,75,8|8,0:0|0:0,0:0:0:0:
27,39,225425,5,6,0:0:0:0:
256,192,225592,12,0,236759,0:0:0:0:
