osu file format v14

[General]
AudioFilename: audio.mp3
AudioLeadIn: 0
PreviewTime: 59082
Countdown: 0
SampleSet: Soft
StackLeniency: 0.7
Mode: 0
LetterboxInBreaks: 0
WidescreenStoryboard: 0

[Editor]
DistanceSpacing: 2.2
BeatDivisor: 4
GridSize: 32
TimelineZoom: 1

[Metadata]
Title:Jitter Doll
TitleUnicode:ジッタードール
Artist:Yuaru
ArtistUnicode:ゆある
Creator:-Laura-
Version:Belief
Source:
Tags:Akitoshi Corinn niki Nyun 歌い手 utaite cover
BeatmapID:1625960
BeatmapSetID:773512

[Difficulty]
HPDrainRate:6.2
CircleSize:4
OverallDifficulty:8.7
ApproachRate:9.3
SliderMultiplier:1.6
SliderTickRate:1

[Events]
//Background and Video events
0,0,"doll.jpg",0,0
//Break Periods
//Storyboard Layer 0 (Background)
//Storyboard Layer 1 (Fail)
//Storyboard Layer 2 (Pass)
//Storyboard Layer 3 (Foreground)
//Storyboard Sound Samples

[TimingPoints]
16092,333.333333333333,4,2,5,40,1,0
17258,-100,4,2,5,5,0,0
17426,333.333333333333,4,2,5,40,1,0
17426,-83.3333333333333,4,2,5,40,0,0
17759,-125,4,2,5,40,0,0
22759,-83.3333333333333,4,2,5,40,0,0
23009,-83.3333333333333,4,2,5,5,0,0
23092,-125,4,2,5,40,0,0
28092,-200,4,2,5,40,0,0
32009,-200,4,2,5,5,0,0
32092,-200,4,2,5,40,0,0
37426,-111.111111111111,4,2,5,50,0,0
38759,-100,4,2,5,65,0,0
49425,-200,4,2,5,50,0,0
54092,-125,4,2,5,50,0,0
54759,-111.111111111111,4,2,5,65,0,0
57425,-100,4,2,5,65,0,0
59925,-83.3333333333333,4,2,5,80,0,1
73259,-66.6666666666667,4,2,5,80,0,1
73759,-83.3333333333333,4,2,5,80,0,1
82759,-100,4,2,5,65,0,0
104092,-153.846153846154,4,2,5,50,0,0
108759,-125,4,2,5,50,0,0
109425,-111.111111111111,4,2,5,65,0,0
112092,-100,4,2,5,65,0,0
114592,-83.3333333333333,4,2,5,80,0,1
127925,-66.6666666666667,4,2,5,80,0,1
128425,-83.3333333333333,4,2,5,80,0,1
137425,-90.9090909090909,4,2,5,70,0,0
148092,-200,4,2,5,50,0,0
148425,-200,4,2,5,20,0,0
149425,-200,4,2,5,30,0,0
149759,-200,4,2,5,20,0,0
150759,-200,4,2,5,30,0,0
151092,-200,4,2,5,20,0,0
152092,-200,4,2,5,30,0,0
152425,-200,4,2,5,20,0,0
153425,-200,4,2,5,30,0,0
153759,-200,4,2,5,20,0,0
154759,-200,4,2,5,30,0,0
155092,-200,4,2,5,20,0,0
156092,-200,4,2,5,30,0,0
156425,-200,4,2,5,20,0,0
157425,-200,4,2,5,30,0,0
157759,-200,4,2,5,20,0,0
158759,-125,4,2,5,50,0,0
161092,-125,4,2,5,5,0,0
161175,-125,4,2,5,50,0,0
161342,-125,4,2,5,5,0,0
161425,-125,4,2,5,50,0,0
164092,-111.111111111111,4,2,5,60,0,0
166759,-100,4,2,5,65,0,0
169425,-166.666666666667,4,2,5,65,0,0
170425,-166.666666666667,4,2,5,5,0,0
170592,-83.3333333333333,4,2,5,80,0,1
183925,-66.6666666666667,4,2,5,80,0,1
184425,-83.3333333333333,4,2,5,80,0,1
191925,-250.000000000001,4,2,5,80,0,0
192425,-83.3333333333333,4,2,5,80,0,1
205259,-66.6666666666667,4,2,5,80,0,1
205759,-83.3333333333333,4,2,5,80,0,1
214759,-90.9090909090909,4,2,5,80,0,0
228092,-83.3333333333333,4,2,5,50,0,0
230759,-83.3333333333333,4,2,5,30,0,0
233425,-83.3333333333333,4,2,5,20,0,0
235425,-83.3333333333333,4,2,5,10,0,0
236759,-83.3333333333333,4,2,5,5,0,0

[Colours]
Combo1 : 192,192,192
Combo2 : 128,128,192
Combo3 : 0,0,225
Combo4 : 255,72,164

[HitObjects]
256,192,16091,12,0,17258,0:0:0:0:
20,192,17426,6,0,P|88:175|152:206,1,143.999995605469,6|0,0:0|0:0,0:0:0:0:
152,206,17759,2,0,L|161:287,1,64,0|0,1:0|0:0,0:0:0:0:
246,309,18092,2,0,L|311:260,1,64,0|0,1:0|0:0,0:0:0:0:
288,174,18426,2,0,L|213:141,1,64,0|0,1:0|0:0,0:0:0:0:
165,76,18759,6,0,P|198:58|244:52,1,64,0|0,1:0|0:0,0:0:0:0:
318,67,19092,2,0,P|350:86|378:123,1,64,0|0,1:0|0:0,0:0:0:0:
419,187,19426,2,0,L|495:189,1,64,0|0,1:0|0:0,0:0:0:0:
438,290,19759,1,0,1:0:0:0:
438,290,19926,1,2,0:0:0:0:
317,186,20092,5,6,0:0:0:0:
317,186,20426,2,0,P|278:184|240:182,1,64,0|0,1:0|0:0,0:0:0:0:
198,103,20759,2,0,P|159:105|121:107,1,64,0|0,1:0|0:0,0:0:0:0:
38,116,21092,1,0,1:0:0:0:
11,234,21259,6,0,P|12:279|18:302,1,64,6|0,0:0|0:0,0:0:0:0:
108,377,21592,1,6,0:0:0:0:
157,295,21759,2,0,L|236:303,1,64,0|0,1:0|0:0,0:0:0:0:
296,242,22092,2,0,L|263:169,1,64,0|0,1:0|0:0,0:0:0:0:
179,148,22426,2,0,L|132:212,1,64,0|0,1:0|0:0,0:0:0:0:
115,57,22759,6,0,P|182:35|258:73,1,143.999995605469,6|0,0:0|0:0,0:0:0:0:
247,61,23092,2,0,L|330:52,1,64,0|0,1:0|0:0,0:0:0:0:
340,153,23426,2,0,L|276:145,1,64,0|0,1:0|0:0,0:0:0:0:
247,243,23759,2,0,L|310:235,1,64,0|0,1:0|0:0,0:0:0:0:
412,226,24092,6,0,P|423:255|416:308,1,64,0|0,1:0|0:0,0:0:0:0:
411,139,24426,2,0,P|441:143|484:176,1,64,0|0,1:0|0:0,0:0:0:0:
336,97,24759,2,0,P|355:72|405:52,1,64,0|0,1:0|0:0,0:0:0:0:
482,48,25092,1,0,1:0:0:0:
482,48,25259,1,2,0:0:0:0:
292,12,25426,5,6,0:0:0:0:
292,12,25759,2,0,L|215:16,1,64,0|0,1:0|0:0,0:0:0:0:
186,102,26092,2,0,L|263:106,1,64,0|0,1:0|0:0,0:0:0:0:
315,176,26426,1,0,1:0:0:0:
208,234,26592,6,0,P|202:269|215:320,1,64,6|0,0:0|0:0,0:0:0:0:
303,370,26926,1,6,0:0:0:0:
368,298,27092,2,0,P|403:295|445:292,1,64,0|0,1:0|0:0,0:0:0:0:
475,206,27426,2,0,P|440:203|398:200,1,64,0|0,1:0|0:0,0:0:0:0:
368,114,27759,2,0,P|403:111|445:108,1,64,0|0,1:0|0:0,0:0:0:0:
283,41,28092,5,6,0:0:0:0:
317,198,28259,1,2,0:0:0:0:
283,41,30759,5,6,0:0:0:0:
175,159,30926,1,2,0:0:0:0:
175,159,31426,2,2,L|188:300,1,140,0|2,0:3|0:3,0:3:0:0:
187,298,32092,5,6,0:0:0:0:
316,199,32259,1,2,0:0:0:0:
316,199,33426,5,6,0:0:0:0:
324,358,33593,1,2,0:0:0:0:
310,108,34092,5,2,0:0:0:0:
280,116,34759,1,2,0:0:0:0:
250,128,35426,1,2,0:0:0:0:
221,140,36092,5,6,0:0:0:0:
371,200,36259,1,2,0:0:0:0:
137,105,36759,5,2,0:0:0:0:
120,134,37426,1,6,0:0:0:0:
15,13,37592,1,2,0:0:0:0:
5,193,37759,2,0,L|13:275,1,71.9999978027344,8|0,0:0|0:0,0:0:0:0:
117,354,38092,5,2,0:0:0:0:
145,234,38259,1,0,0:0:0:0:
251,295,38426,1,8,0:0:0:0:
264,261,38509,1,8,0:0:0:0:
267,226,38592,1,8,0:0:0:0:
259,191,38676,1,8,0:0:0:0:
241,160,38759,6,0,L|343:153,1,80,6|0,0:0|0:0,0:0:0:0:
190,36,39092,1,8,0:0:0:0:
64,135,39259,1,2,0:0:0:0:
64,135,39342,1,2,0:0:0:0:
64,135,39425,2,0,P|59:180|70:226,1,80,2|0,0:0|0:0,0:0:0:0:
184,322,39759,1,8,0:0:0:0:
330,199,39925,6,0,B|294:163|294:163|185:172,1,160,2|2,0:0|0:0,0:0:0:0:
286,336,40425,1,8,0:0:0:0:
428,246,40592,2,0,P|438:187|427:149,1,80,2|0,0:0|0:0,0:0:0:0:
348,23,40925,1,2,0:0:0:0:
348,23,41009,1,2,0:0:0:0:
348,23,41092,1,8,0:0:0:0:
509,72,41259,1,8,0:0:0:0:
317,125,41425,6,0,P|273:127|211:131,1,80,6|0,0:0|0:0,0:0:0:0:
92,228,41759,1,8,0:0:0:0:
254,289,41925,1,2,0:0:0:0:
254,289,42009,1,2,0:0:0:0:
254,289,42092,2,0,P|266:242|263:206,1,80,2|0,0:0|0:0,0:0:0:0:
101,199,42425,1,8,0:0:0:0:
189,355,42592,6,0,B|239:377|239:377|344:366,1,160,2|0,0:0|0:0,0:0:0:0:
254,188,43092,1,2,0:0:0:0:
254,188,43175,1,2,0:0:0:0:
254,188,43259,1,8,0:0:0:0:
80,261,43425,2,0,P|40:258|0:255,1,80,2|2,0:0|0:0,0:0:0:0:
167,157,43759,1,2,0:0:0:0:
212,366,43925,1,8,0:0:0:0:
377,252,44092,6,0,P|384:198|372:160,1,80,6|0,0:0|0:0,0:0:0:0:
275,30,44425,1,8,0:0:0:0:
169,172,44592,1,2,0:0:0:0:
169,172,44675,1,2,0:0:0:0:
169,172,44759,1,2,0:0:0:0:
325,98,44925,1,2,0:0:0:0:
135,63,45092,1,8,0:0:0:0:
277,192,45259,6,0,B|296:307|296:307|268:360,1,160,2|2,0:0|0:0,0:0:0:0:
103,259,45759,1,8,0:0:0:0:
268,163,45925,1,8,0:0:0:0:
186,319,46092,1,2,0:0:0:0:
186,319,46175,1,2,0:0:0:0:
186,319,46259,1,2,0:0:0:0:
138,125,46425,1,8,0:0:0:0:
0,271,46592,1,8,0:0:0:0:
197,197,46759,6,0,P|237:194|292:190,1,80,6|0,0:0|0:0,0:0:0:0:
113,49,47092,1,8,0:0:0:0:
90,231,47259,1,2,0:0:0:0:
90,231,47342,1,2,0:0:0:0:
90,231,47425,1,2,0:0:0:0:
235,93,47592,1,2,0:0:0:0:
15,140,47759,1,8,0:0:0:0:
235,93,47925,6,0,B|281:86|314:106|314:106|347:129|406:118,1,160,2|2,0:0|0:0,0:0:0:0:
260,223,48425,1,2,0:0:0:0:
260,223,48509,1,2,0:0:0:0:
260,223,48592,1,8,0:0:0:0:
126,84,48759,1,2,0:0:0:0:
100,73,48842,1,2,0:0:0:0:
72,72,48925,1,2,0:0:0:0:
44,78,49009,1,2,0:0:0:0:
22,95,49092,1,8,0:0:0:0:
85,194,49259,1,8,0:0:0:0:
235,93,49425,5,6,0:0:0:0:
244,92,49759,1,2,0:0:0:0:
252,91,50092,2,0,L|347:100,1,80,2|2,0:0|0:0,0:1:0:0:
102,196,50759,5,2,0:0:0:0:
93,195,51093,1,2,0:0:0:0:
85,194,51425,2,0,L|-10:203,1,80,2|2,0:0|0:0,0:1:0:0:
218,187,52092,5,6,0:0:0:0:
212,193,52425,1,2,0:0:0:0:
206,198,52759,1,2,0:0:0:0:
201,204,53092,1,2,0:0:0:0:
325,101,53425,5,2,0:0:0:0:
331,107,53758,1,2,0:0:0:0:
337,112,54092,2,0,L|332:155,3,32,2|0|0|0,0:0|0:0|0:0|0:0,0:0:0:0:
314,173,54425,2,0,L|319:216,3,32,2|0|0|0,0:0|0:0|0:0|0:0,0:0:0:0:
329,243,54759,6,0,P|264:235|173:283,1,143.999995605469,6|0,0:0|0:0,0:0:0:0:
324,352,55259,2,0,P|389:380|460:373,1,143.999995605469,2|0,0:0|0:0,0:0:0:0:
502,242,55759,2,0,L|498:152,1,71.9999978027344,2|0,0:0|0:0,0:0:0:0:
383,96,56092,5,0,1:0:0:0:
383,96,56425,2,0,P|336:87|306:95,1,71.9999978027344,0|0,3:0|0:0,0:0:0:0:
374,239,56759,2,0,P|405:202|413:172,1,71.9999978027344,0|0,3:0|0:0,0:0:0:0:
255,159,57092,2,0,P|270:204|292:226,1,71.9999978027344,0|0,3:0|0:0,0:0:0:0:
428,326,57425,5,6,0:0:0:0:
428,326,57509,1,2,0:0:0:0:
428,326,57592,1,2,0:0:0:0:
510,188,57759,2,0,L|499:97,1,80,8|0,0:0|0:0,0:0:0:0:
349,54,58092,1,2,0:0:0:0:
398,214,58259,1,2,0:0:0:0:
398,214,58342,1,8,0:0:0:0:
398,214,58425,1,8,0:0:0:0:
225,128,58592,6,0,L|136:131,1,80,6|0,0:0|0:0,0:0:0:0:
280,273,58925,1,2,0:0:0:0:
402,47,59092,1,8,0:0:0:0:
402,47,59925,6,0,B|372:101|372:101|395:231,1,191.999994140625,6|2,0:0|0:0,0:0:0:0:
190,366,60425,2,0,L|199:253,1,95.9999970703126,8|0,0:0|0:0,0:0:0:0:
219,78,60759,1,2,0:0:0:0:
297,264,60925,1,2,0:0:0:0:
88,152,61092,1,8,0:0:0:0:
318,152,61259,6,0,P|365:147|413:143,1,95.9999970703126,6|0,0:0|0:0,0:0:0:0:
198,59,61592,1,2,0:0:0:0:
307,294,61759,1,8,0:0:0:0:
443,141,61925,2,0,P|451:87|434:37,1,95.9999970703126,2|0,0:0|0:0,0:0:0:0:
290,157,62259,1,2,0:0:0:0:
512,218,62425,1,8,0:0:0:0:
328,34,62592,6,0,B|262:27|262:27|211:51|211:51|136:44,1,191.999994140625,6|2,0:0|0:0,0:0:0:0:
19,205,63092,2,0,L|124:195,1,95.9999970703126,8|0,0:0|0:0,0:0:0:0:
332,271,63425,1,2,0:0:0:0:
122,368,63592,2,0,P|72:377|23:367,1,95.9999970703126,2|8,0:0|0:0,0:0:0:0:
320,244,63925,6,0,B|453:265|453:265|515:229,1,191.999994140625,6|2,0:0|0:0,0:0:0:0:
402,28,64425,1,8,0:0:0:0:
218,167,64592,2,0,P|194:226|238:342,1,191.999994140625,6|2,0:0|0:0,0:0:0:0:
424,161,65092,1,8,0:0:0:0:
190,48,65259,6,0,B|40:35|40:35|84:82,1,191.999994140625,6|2,0:0|0:0,0:0:0:0:
296,99,65759,2,0,P|308:45|299:4,1,95.9999970703126,8|0,0:0|0:0,0:0:0:0:
184,147,66092,1,2,0:0:0:0:
404,134,66259,1,2,0:0:0:0:
190,48,66425,1,8,0:0:0:0:
301,250,66592,6,0,P|296:299|291:356,1,95.9999970703126,6|0,0:0|0:0,0:0:0:0:
436,129,66925,2,0,P|431:81|426:33,1,95.9999970703126,2|8,0:0|0:0,0:0:0:0:
293,129,67259,2,0,P|288:178|283:235,1,95.9999970703126,2|0,0:0|0:0,0:0:0:0:
110,87,67592,1,2,0:0:0:0:
312,25,67759,1,8,0:0:0:0:
151,202,67925,6,0,P|97:210|43:189,1,95.9999970703126,6|0,0:0|0:0,0:0:0:0:
293,129,68259,2,0,P|339:116|385:125,1,95.9999970703126,2|8,0:0|0:0,0:0:0:0:
506,275,68592,2,0,L|497:373,1,95.9999970703126,2|0,0:0|0:0,0:0:0:0:
302,224,68925,2,0,L|293:128,1,95.9999970703126,2|8,0:0|0:0,0:0:0:0:
90,36,69259,6,0,P|30:75|24:206,1,191.999994140625,6|2,0:0|0:0,0:0:0:0:
111,364,69759,2,0,L|8:372,1,95.9999970703126,8|0,0:0|0:0,0:0:0:0:
117,146,70092,1,2,0:0:0:0:
265,309,70259,1,8,0:0:0:0:
304,326,70342,1,8,0:0:0:0:
347,330,70425,1,8,0:0:0:0:
388,319,70508,1,8,0:0:0:0:
424,296,70592,6,0,B|435:154|435:154|382:185,1,191.999994140625,6|2,0:0|0:0,0:0:0:0:
151,277,71092,2,0,L|36:264,1,95.9999970703126,8|0,0:0|0:0,0:0:0:0:
292,159,71425,1,2,0:0:0:0:
190,366,71592,1,2,0:0:0:0:
156,108,71759,1,8,0:0:0:0:
344,284,71925,6,0,B|417:328|492:267|492:267|445:246,1,191.999994140625,6|2,0:0|0:0,0:0:0:0:
293,65,72425,2,0,P|283:116|298:172,1,95.9999970703126,8|0,0:0|0:0,0:0:0:0:
393,12,72759,1,2,0:0:0:0:
197,57,72925,1,2,0:0:0:0:
448,121,73092,1,8,0:0:0:0:
231,250,73259,6,0,B|186:256|152:226|152:226|103:211|48:243|48:243|62:259|85:269,1,240.000009155274,6|2,0:0|0:0,0:0:0:0:
355,273,73759,2,0,P|356:225|340:181,1,95.9999970703126,8|0,0:0|0:0,0:0:0:0:
221,29,74092,1,2,0:0:0:0:
240,220,74259,1,2,0:0:0:0:
429,74,74425,1,8,0:0:0:0:
231,250,74592,6,0,B|168:238|168:238|105:258|105:258|39:245,1,191.999994140625,6|2,0:0|0:0,0:0:0:0:
174,363,75092,1,8,0:0:0:0:
351,200,75259,2,0,P|309:144|167:137,1,191.999994140625,6|2,0:0|0:0,0:0:0:0:
231,250,75759,1,8,0:0:0:0:
468,226,75925,6,0,B|480:88|480:88|430:117,1,191.999994140625,6|2,0:0|0:0,0:0:0:0:
318,326,76425,2,0,P|366:338|426:324,1,95.9999970703126,8|0,0:0|0:0,0:0:0:0:
204,225,76759,2,0,P|156:217|110:229,1,95.9999970703126,2|2,0:0|0:0,0:0:0:0:
164,364,77092,1,8,0:0:0:0:
317,191,77259,6,0,B|327:129|327:129|301:75|301:75|319:1,1,191.999994140625,6|2,0:0|0:0,0:0:0:0:
431,206,77759,1,8,0:0:0:0:
204,225,77925,2,0,P|199:179|192:122,1,95.9999970703126,2|0,0:0|0:0,0:0:0:0:
117,349,78259,1,2,0:0:0:0:
310,225,78425,1,8,0:0:0:0:
80,204,78592,6,0,P|56:132|112:18,1,191.999994140625,6|2,0:0|0:0,0:0:0:0:
288,122,79092,2,0,P|240:125|193:130,1,95.9999970703126,8|0,0:0|0:0,0:0:0:0:
387,214,79425,1,2,0:0:0:0:
304,19,79592,1,2,0:0:0:0:
231,248,79759,1,8,0:0:0:0:
423,105,79925,6,0,P|488:161|469:292,1,191.999994140625,6|2,0:0|0:0,0:0:0:0:
269,358,80425,2,0,P|265:315|259:255,1,95.9999970703126,8|0,0:0|0:0,0:0:0:0:
238,50,80759,1,2,0:0:0:0:
121,225,80925,1,2,0:0:0:0:
387,214,81092,1,8,0:0:0:0:
178,135,81259,1,2,0:0:0:0:
420,223,81425,5,12,0:0:0:0:
269,358,81592,1,2,0:0:0:0:
332,101,81759,1,8,0:0:0:0:
430,350,81925,1,2,0:0:0:0:
430,350,82009,1,2,0:0:0:0:
430,350,82092,1,8,0:0:0:0:
160,266,82259,1,8,0:0:0:0:
420,223,82425,1,8,0:0:0:0:
415,180,82508,1,8,0:0:0:0:
411,137,82591,1,8,0:0:0:0:
407,94,82674,1,8,0:0:0:0:
403,51,82759,6,0,P|320:28|235:89,1,160,6|8,0:0|0:0,0:0:0:0:
211,232,83259,2,0,P|237:206|255:160,1,80,0|2,0:0|0:0,0:0:0:0:
155,26,83592,1,2,0:0:0:0:
98,175,83759,1,8,0:0:0:0:
257,59,83925,6,0,L|349:66,1,80,2|0,0:0|0:0,0:0:0:0:
438,181,84259,2,0,L|346:188,1,80,2|8,0:0|0:0,0:0:0:0:
247,293,84592,2,0,P|330:302|413:313,1,160,2|2,0:0|0:0,0:0:0:0:
236,177,85092,2,0,P|177:180|116:184,1,120,8|8,0:0|0:0,0:0:0:0:
80,189,85425,6,0,P|70:142|84:95,1,80,6|0,0:0|0:0,0:0:0:0:
216,3,85759,1,8,0:0:0:0:
264,162,85925,1,0,0:0:0:0:
264,162,86009,1,0,0:0:0:0:
264,162,86092,1,2,0:0:0:0:
88,82,86259,2,0,P|48:85|0:89,1,80,2|0,0:0|0:0,0:0:0:0:
173,228,86592,6,0,P|254:233|361:241,1,160,8|2,0:0|0:0,0:0:0:0:
501,249,87092,2,0,P|510:208|504:155,1,80,8|0,0:0|0:0,0:0:0:0:
443,23,87425,1,2,0:0:0:0:
342,147,87592,1,2,0:0:0:0:
228,34,87759,1,8,0:0:0:0:
193,25,87842,1,8,0:0:0:0:
157,26,87925,1,8,0:0:0:0:
123,37,88008,1,8,0:0:0:0:
93,57,88092,6,0,P|99:138|106:223,1,160,6|0,0:0|3:0,0:0:0:0:
275,287,88592,1,8,0:0:0:0:
275,287,88675,1,8,0:0:0:0:
275,287,88759,2,0,P|285:234|280:190,1,80,2|0,0:0|0:0,0:0:0:0:
169,373,89092,1,8,0:0:0:0:
367,342,89259,6,0,P|406:344|446:347,1,80,2|0,0:0|0:0,0:0:0:0:
283,208,89592,2,0,P|243:210|203:213,1,80,2|8,0:0|0:0,0:0:0:0:
326,45,89925,2,0,P|396:29|490:71,1,160,2|2,0:0|0:0,0:0:0:0:
512,231,90425,2,0,P|453:224|393:217,1,120,8|8,0:0|0:0,0:0:0:0:
362,198,90759,6,0,P|312:203|261:209,1,80,2|0,0:0|0:0,0:0:0:0:
68,238,91092,1,8,0:0:0:0:
263,330,91259,1,0,3:0:0:0:
263,330,91342,1,8,0:0:0:0:
263,330,91425,1,2,0:0:0:0:
167,172,91592,2,0,P|159:129|178:78,1,80,2|0,0:0|0:0,0:0:0:0:
398,123,91925,6,0,B|355:152|355:152|249:134,1,160,8|2,0:0|0:0,0:0:0:0:
398,26,92425,2,0,P|438:35|473:62,1,80,8|0,0:0|0:0,0:0:0:0:
510,213,92759,1,2,0:0:0:0:
362,273,92925,2,0,L|261:266,1,80,2|0,0:0|0:0,0:0:0:0:
490,180,93259,1,8,0:0:0:0:
362,363,93425,6,0,L|261:370,1,80,6|0,0:0|0:0,0:0:0:0:
117,283,93759,1,8,0:0:0:0:
295,241,93925,1,0,3:0:0:0:
295,241,94009,1,0,3:0:0:0:
295,241,94092,1,2,0:0:0:0:
171,377,94259,1,2,0:0:0:0:
189,162,94425,1,8,0:0:0:0:
322,264,94592,6,0,L|423:257,1,80,2|0,0:0|0:0,0:0:0:0:
274,93,94925,1,2,0:0:0:0:
274,93,95009,1,0,3:0:0:0:
274,93,95092,1,8,0:0:0:0:
133,224,95259,2,0,P|123:278|132:314,1,80,0|2,0:0|0:0,0:0:0:0:
277,181,95592,1,2,0:0:0:0:
73,107,95759,1,8,0:0:0:0:
268,17,95925,1,0,3:0:0:0:
268,17,96009,1,8,0:0:0:0:
268,17,96092,6,0,L|373:22,1,80,2|0,0:0|0:0,0:0:0:0:
256,208,96425,1,8,0:0:0:0:
146,30,96592,1,0,3:0:0:0:
146,30,96675,1,8,0:0:0:0:
146,30,96759,1,2,0:0:0:0:
299,114,96925,2,0,L|404:109,1,80,2|0,0:0|0:0,0:0:0:0:
238,243,97259,1,8,0:0:0:0:
281,89,97425,5,0,0:0:0:0:
384,260,97592,1,2,0:0:0:0:
187,151,97759,1,8,0:0:0:0:
409,138,97925,1,0,3:0:0:0:
409,138,98009,1,0,3:0:0:0:
409,138,98092,1,2,0:0:0:0:
250,260,98259,2,0,L|147:249,1,80,2|0,0:0|0:0,0:0:0:0:
23,81,98592,1,8,0:0:0:0:
23,81,98675,1,8,0:0:0:0:
23,81,98759,6,0,L|126:70,1,80,6|0,0:0|0:0,0:0:0:0:
263,143,99092,1,2,0:0:0:0:
42,183,99259,1,8,0:0:0:0:
209,35,99425,1,2,0:0:0:0:
209,35,99509,1,0,3:0:0:0:
209,35,99592,1,0,3:0:0:0:
138,248,99759,1,8,0:0:0:0:
351,183,99925,6,0,P|420:154|514:165,1,160,2|2,0:0|0:0,0:0:0:0:
372,343,100425,1,8,0:0:0:0:
246,176,100592,1,0,3:0:0:0:
246,176,100675,1,0,3:0:0:0:
246,176,100759,1,2,0:0:0:0:
437,255,100925,1,2,0:0:0:0:
227,310,101092,2,0,P|183:306|136:302,1,80,8|0,0:0|0:0,0:0:0:0:
0,178,101425,5,2,0:0:0:0:
188,88,101592,1,0,3:0:0:0:
188,88,101675,1,0,3:0:0:0:
188,88,101759,2,0,P|208:130|207:179,1,80,8|0,0:0|0:0,0:0:0:0:
327,294,102092,2,0,P|330:254|348:219,1,80,2|0,0:0|0:0,0:0:0:0:
469,102,102425,1,0,0:0:0:0:
441,288,102592,1,8,0:0:0:0:
307,107,102759,5,0,0:0:0:0:
239,319,102925,1,2,0:0:0:0:
239,319,103009,1,0,0:0:0:0:
239,319,103092,2,0,L|159:313,1,80,8|0,0:0|0:0,0:0:0:0:
29,233,103425,1,2,0:0:0:0:
159,153,103592,2,0,L|253:146,1,80,2|0,0:0|0:0,0:0:0:0:
61,52,103925,1,8,0:0:0:0:
122,237,104092,5,6,0:0:0:0:
122,237,104259,1,2,0:0:0:0:
225,230,104425,2,0,P|274:238|326:270,1,103.999995239258,0|0,1:0|0:0,0:0:0:0:
391,348,104925,1,2,0:0:0:0:
391,348,105009,1,0,0:0:0:0:
391,348,105092,1,0,1:0:0:0:
474,285,105259,6,0,P|481:229|485:162,1,103.999995239258,2|2,0:0|0:0,0:0:0:0:
385,148,105759,2,0,P|386:173|390:199,1,51.999997619629,8|0,0:0|0:0,0:0:0:0:
462,91,106092,1,2,0:0:0:0:
462,91,106259,1,2,0:0:0:0:
373,36,106425,2,0,P|343:33|308:39,1,51.999997619629,8|0,0:0|0:0,0:0:0:0:
225,78,106759,6,0,P|168:70|100:63,1,103.999995239258,6|8,0:0|0:0,0:0:0:0:
75,158,107259,2,0,P|103:154|137:150,1,51.999997619629,2|0,0:0|0:0,0:0:0:0:
219,197,107592,1,2,0:0:0:0:
219,197,107675,1,0,0:0:0:0:
219,197,107759,1,8,0:0:0:0:
148,271,107925,6,0,P|144:297|147:323,1,51.999997619629,2|0,0:0|0:0,0:0:0:0:
237,377,108259,1,2,0:0:0:0:
325,323,108425,2,0,P|328:297|324:271,1,51.999997619629,8|0,0:0|0:0,0:0:0:0:
294,166,108759,1,2,0:0:0:0:
399,191,108925,1,8,0:0:0:0:
369,86,109092,1,8,0:0:0:0:
343,67,109175,1,8,0:0:0:0:
313,56,109258,1,8,0:0:0:0:
281,55,109341,1,8,0:0:0:0:
250,64,109425,6,0,B|215:93|215:93|104:78,1,143.999995605469,6|0,0:0|0:0,0:0:0:0:
17,193,109925,2,0,L|93:186,1,71.9999978027344,2|0,0:0|0:0,0:0:0:0:
241,182,110259,1,0,3:0:0:0:
241,182,110342,1,0,3:0:0:0:
241,182,110425,6,0,B|229:236|229:236|252:285|252:285|236:343|236:343|289:314,1,215.999993408203,6|0,0:0|0:0,0:0:0:0:
407,243,111092,2,0,P|443:240|497:235,1,71.9999978027344,2|0,0:0|0:0,0:0:0:0:
385,356,111425,1,2,0:0:0:0:
344,150,111592,1,0,3:0:0:0:
344,150,111675,1,0,3:0:0:0:
344,150,111759,2,0,P|380:147|434:142,1,71.9999978027344,2|0,0:0|0:0,0:0:0:0:
205,43,112092,5,6,0:0:0:0:
205,43,112175,1,0,3:0:0:0:
205,43,112259,1,0,3:0:0:0:
105,206,112425,2,0,P|98:253|108:297,1,80,8|0,0:0|0:0,0:0:0:0:
276,217,112759,1,2,0:0:0:0:
104,101,112925,1,2,0:0:0:0:
104,101,113009,1,8,0:0:0:0:
104,101,113092,1,8,0:0:0:0:
306,231,113259,6,0,P|308:271|314:331,1,80,6|0,0:0|0:0,0:0:0:0:
415,143,113592,1,2,0:0:0:0:
184,255,113759,1,8,0:0:0:0:
184,255,114592,6,0,B|75:268|75:268|34:248|26:205,1,191.999994140625,6|2,0:0|0:0,0:0:0:0:
285,192,115092,2,0,P|303:257|289:311,1,95.9999970703126,8|0,0:0|0:0,0:0:0:0:
182,131,115425,1,2,0:0:0:0:
373,110,115592,1,2,0:0:0:0:
184,255,115759,1,8,0:0:0:0:
232,30,115925,6,0,P|277:26|345:21,1,95.9999970703126,6|0,0:0|0:0,0:0:0:0:
471,179,116259,1,2,0:0:0:0:
204,150,116425,1,8,0:0:0:0:
361,318,116592,2,0,P|405:327|466:310,1,95.9999970703126,2|0,0:0|0:0,0:0:0:0:
295,148,116925,1,2,0:0:0:0:
192,365,117092,1,8,0:0:0:0:
36,157,117259,6,0,B|22:13|22:13|91:49,1,191.999994140625,6|2,0:0|0:0,0:0:0:0:
93,269,117759,2,0,P|48:283|1:278,1,95.9999970703126,8|0,0:0|0:0,0:0:0:0:
169,80,118092,1,2,0:0:0:0:
307,276,118259,2,0,L|299:377,1,95.9999970703126,2|8,0:0|0:0,0:0:0:0:
470,202,118592,6,0,B|517:135|464:52|464:52|413:91,1,191.999994140625,6|2,0:0|0:0,0:0:0:0:
279,251,119092,1,8,0:0:0:0:
148,48,119259,2,0,B|81:0|5:51|5:51|24:53|41:61,1,191.999994140625,6|2,0:0|0:0,0:0:0:0:
266,151,119759,1,8,0:0:0:0:
123,354,119925,6,0,B|69:383|7:348|7:348|0:314|22:282,1,191.999994140625,6|2,0:0|0:0,0:0:0:0:
262,278,120425,2,0,P|259:327|255:373,1,95.9999970703126,8|0,0:0|0:0,0:0:0:0:
177,154,120759,1,2,0:0:0:0:
375,268,120925,1,2,0:0:0:0:
123,354,121092,1,8,0:0:0:0:
325,176,121259,6,0,P|365:164|432:180,1,95.9999970703126,6|0,0:0|0:0,0:0:0:0:
233,294,121592,1,2,0:0:0:0:
277,47,121759,1,8,0:0:0:0:
97,156,121925,2,0,P|86:202|102:265,1,95.9999970703126,2|0,0:0|0:0,0:0:0:0:
294,163,122259,1,2,0:0:0:0:
95,48,122425,1,8,0:0:0:0:
212,279,122592,6,0,P|210:329|208:380,1,95.9999970703126,6|0,0:0|0:0,0:0:0:0:
429,374,122925,2,0,P|427:326|425:278,1,95.9999970703126,2|8,0:0|0:0,0:0:0:0:
415,65,123259,2,0,P|370:57|312:67,1,95.9999970703126,2|0,0:0|0:0,0:0:0:0:
212,279,123592,2,0,P|257:287|315:277,1,95.9999970703126,2|8,0:0|0:0,0:0:0:0:
152,43,123925,6,0,B|4:23|4:23|47:88,1,191.999994140625,6|2,0:0|0:0,0:0:0:0:
183,266,124425,1,8,0:0:0:0:
287,82,124592,1,0,0:0:0:0:
66,177,124759,1,2,0:0:0:0:
328,228,124925,1,8,0:0:0:0:
371,224,125008,1,8,0:0:0:0:
414,220,125091,1,8,0:0:0:0:
457,217,125174,1,8,0:0:0:0:
500,212,125259,6,0,P|485:133|378:84,1,191.999994140625,6|2,0:0|0:0,0:0:0:0:
152,144,125759,1,8,0:0:0:0:
304,304,125925,1,0,0:0:0:0:
250,71,126092,1,2,0:0:0:0:
180,267,126259,1,2,0:0:0:0:
392,195,126425,1,8,0:0:0:0:
176,355,126592,6,0,B|56:367|56:367|23:352|3:306,1,191.999994140625,6|2,0:0|0:0,0:0:0:0:
140,98,127092,2,0,P|135:149|130:210,1,95.9999970703126,8|0,0:0|0:0,0:0:0:0:
347,110,127425,1,2,0:0:0:0:
143,64,127592,1,2,0:0:0:0:
269,309,127759,1,8,0:0:0:0:
491,168,127925,6,0,B|512:125|512:125|491:74|491:74|505:4|505:4|445:54,1,240.000009155274,6|2,0:0|0:0,0:0:0:0:
226,166,128425,2,0,L|122:154,1,95.9999970703126,8|0,0:0|0:0,0:0:0:0:
339,255,128759,1,2,0:0:0:0:
265,57,128925,1,2,0:0:0:0:
148,267,129092,1,8,0:0:0:0:
366,107,129259,6,0,B|439:78|508:129|508:129|491:167,1,191.999994140625,6|2,0:0|0:0,0:0:0:0:
374,377,129759,1,8,0:0:0:0:
181,190,129925,2,0,B|161:138|161:138|177:50|177:50|145:86,1,191.999994140625,6|2,0:0|0:0,0:0:0:0:
3,280,130425,1,8,0:0:0:0:
264,345,130592,6,0,B|324:330|324:330|389:359|389:359|462:337,1,191.999994140625,6|2,0:0|0:0,0:0:0:0:
463,121,131092,2,0,L|350:108,1,95.9999970703126,8|0,0:0|0:0,0:0:0:0:
146,85,131425,1,2,0:0:0:0:
323,11,131592,1,2,0:0:0:0:
221,229,131759,1,8,0:0:0:0:
47,24,131925,6,0,B|8:70|8:70|28:223,1,191.999994140625,6|2,0:0|0:0,0:0:0:0:
192,372,132425,1,8,0:0:0:0:
335,216,132592,2,0,L|215:205,1,95.9999970703126,2|0,0:0|0:0,0:0:0:0:
447,107,132925,1,2,0:0:0:0:
345,335,133092,1,8,0:0:0:0:
258,89,133259,6,0,P|189:94|118:200,1,191.999994140625,6|2,0:0|0:0,0:0:0:0:
322,316,133759,2,0,L|431:308,1,95.9999970703126,8|0,0:0|0:0,0:0:0:0:
289,105,134092,1,2,0:0:0:0:
202,319,134259,1,2,0:0:0:0:
414,189,134425,1,8,0:0:0:0:
184,44,134592,6,0,B|50:30|50:30|20:42|6:69,1,191.999994140625,6|2,0:0|0:0,0:0:0:0:
179,234,135092,2,0,P|195:184|190:131,1,95.9999970703126,8|0,0:0|0:0,0:0:0:0:
76,318,135425,1,2,0:0:0:0:
293,275,135592,1,2,0:0:0:0:
66,169,135759,1,8,0:0:0:0:
183,343,135925,1,2,0:0:0:0:
271,78,136092,5,12,0:0:0:0:
294,304,136259,1,2,0:0:0:0:
95,154,136425,2,0,P|86:104|99:56,1,95.9999970703126,8|0,0:0|0:0,0:0:0:0:
348,19,136759,1,8,0:0:0:0:
385,41,136842,1,8,0:0:0:0:
415,72,136925,1,8,0:0:0:0:
437,109,137009,1,8,0:0:0:0:
448,150,137092,1,8,0:0:0:0:
450,194,137175,1,8,0:0:0:0:
441,236,137259,1,8,0:0:0:0:
422,274,137342,1,8,0:0:0:0:
394,306,137425,5,6,0:0:0:0:
256,192,137509,12,2,142425,0:0:0:0:
240,84,142759,6,0,P|166:76|88:153,2,176.000005371094,6|2|2,0:0|0:0|0:0,0:0:0:0:
240,84,143759,6,0,P|229:126|232:170,1,88.000002685547,6|0,0:0|0:0,0:0:0:0:
381,171,144092,2,0,P|383:127|373:84,1,88.000002685547,2|0,0:0|0:0,0:0:0:0:
303,257,144425,2,0,L|303:366,1,88.000002685547,2|0,0:0|0:0,0:0:0:0:
231,171,144759,1,2,0:0:0:0:
406,270,144925,1,8,0:0:0:0:
195,296,145092,2,0,L|102:290,1,88.000002685547,6|0,0:0|0:0,0:0:0:0:
326,159,145425,6,0,P|410:132|501:173,2,176.000005371094,6|2|2,0:0|0:0|0:0,0:0:0:0:
326,159,146425,6,0,P|288:133|246:124,1,88.000002685547,6|0,0:0|0:0,0:0:0:0:
254,301,146759,2,0,P|295:281|324:249,1,88.000002685547,2|0,0:0|0:0,0:0:0:0:
167,167,147092,2,0,P|163:212|176:253,1,88.000002685547,2|0,0:0|0:0,0:0:0:0:
326,159,147425,1,2,0:0:0:0:
134,60,147592,1,8,0:0:0:0:
134,60,148092,6,0,B|70:110|112:203|112:203|112:152|137:124,1,240,6|0,0:0|0:0,0:0:0:0:
135,126,149425,6,0,B|122:285|122:285|191:231,1,240,0|0,3:0|0:0,0:0:0:0:
185,235,150759,6,0,B|262:210|329:275|329:275|375:276|414:244,1,240,0|0,3:0|0:0,0:0:0:0:
405,250,152092,6,0,B|451:176|385:105|385:105|341:125|342:184,1,240,0|0,3:0|0:0,0:0:0:0:
342,168,153425,6,0,B|272:119|190:162|190:162|235:160|270:178,1,240,0|0,3:0|0:0,0:0:0:0:
266,176,154759,6,0,B|277:16|277:16|246:50|205:52,1,240,0|0,3:0|0:0,0:0:0:0:
208,52,156092,6,0,B|131:21|54:67|54:67|90:92|99:143,1,240,0|0,3:0|0:0,0:0:0:0:
96,131,157425,6,0,B|53:176|63:238|102:273|102:273|88:355,1,240,0|0,3:0|0:0,0:0:0:0:
88,352,158759,6,0,L|181:341,1,64,6|0,0:0|0:0,0:0:0:0:
263,282,159092,1,2,0:0:0:0:
164,199,159259,1,8,0:0:0:0:
263,282,159425,2,0,L|356:293,1,64,2|0,0:0|0:0,0:0:0:0:
385,174,159759,2,0,L|321:181,1,64,8|0,0:0|0:0,0:0:0:0:
428,300,160092,5,6,0:0:0:0:
500,193,160259,2,0,P|501:156|489:121,1,64,2|0,0:0|0:0,0:0:0:0:
396,46,160592,1,8,0:0:0:0:
385,174,160759,1,8,0:0:0:0:
279,102,160925,2,0,L|195:107,1,64,2|0,0:0|0:0,0:0:0:0:
193,129,161175,2,0,L|109:124,1,64,2|0,0:0|0:0,0:0:0:0:
102,106,161425,6,0,B|79:147|79:147|93:246,1,128,6|0,0:0|0:0,0:0:0:0:
187,329,161925,1,0,1:0:0:0:
187,329,162009,1,0,1:0:0:0:
187,329,162092,2,0,P|232:333|267:316,1,64,8|0,0:0|0:0,0:0:0:0:
340,237,162425,2,0,P|309:229|277:235,1,64,0|0,3:0|0:0,0:0:0:0:
366,329,162759,6,0,P|411:333|446:316,1,64,2|0,0:0|0:0,0:0:0:0:
494,217,163092,1,0,3:0:0:0:
494,217,163175,1,0,3:0:0:0:
494,217,163259,1,0,1:0:0:0:
403,127,163425,2,0,L|320:120,1,64,2|0,0:0|0:0,0:0:0:0:
261,18,163759,2,0,L|344:11,1,64,2|0,0:0|0:0,0:0:0:0:
188,118,164092,6,0,L|105:111,1,71.9999978027344,6|0,0:0|0:0,0:0:0:0:
232,26,164425,1,2,0:0:0:0:
264,166,164592,1,0,3:0:0:0:
352,17,164759,1,2,0:0:0:0:
384,157,164926,1,0,3:0:0:0:
232,26,165092,2,0,L|149:19,1,71.9999978027344,2|0,0:0|3:0,0:0:0:0:
384,157,165425,6,0,L|467:150,1,71.9999978027344,2|0,0:0|0:0,0:0:0:0:
329,11,165759,1,2,0:0:0:0:
249,195,165925,1,8,0:0:0:0:
156,48,166092,1,2,0:0:0:0:
289,103,166259,1,0,0:0:0:0:
115,170,166425,2,0,L|16:160,1,71.9999978027344,2|0,0:0|0:0,0:0:0:0:
256,307,166759,6,0,P|299:311|337:302,1,80,6|0,0:0|0:0,0:0:0:0:
407,187,167092,2,0,P|364:183|326:192,1,80,0|0,3:0|0:0,0:0:0:0:
172,241,167425,5,0,3:0:0:0:
292,88,167592,1,0,1:0:0:0:
256,307,167759,1,0,1:0:0:0:
185,96,167925,1,0,1:0:0:0:
439,202,168092,5,8,0:0:0:0:
141,251,168259,1,8,0:0:0:0:
400,102,168425,1,8,0:0:0:0:
338,361,168592,1,8,0:0:0:0:
276,57,168759,5,8,0:0:0:0:
445,313,168925,1,8,0:0:0:0:
163,129,169092,1,8,0:0:0:0:
473,194,169259,1,8,0:0:0:0:
227,332,169425,6,0,B|196:322|176:321|176:321|145:330|121:358|121:358|81:326|38:326|38:326|12:287|26:240,1,287.999991210938
81,155,170592,6,0,B|154:147|154:147|200:175|200:175|287:164,1,191.999994140625,6|2,0:0|0:0,0:0:0:0:
495,70,171092,2,0,L|400:63,1,95.9999970703126,8|0,0:0|0:0,0:0:0:0:
295,268,171425,1,2,0:0:0:0:
494,172,171592,1,2,0:0:0:0:
271,56,171759,1,8,0:0:0:0:
417,280,171925,6,0,L|408:381,1,95.9999970703126,6|0,0:0|0:0,0:0:0:0:
264,167,172259,1,2,0:0:0:0:
495,70,172425,1,8,0:0:0:0:
277,28,172592,2,0,P|226:22|169:16,1,95.9999970703126,2|0,0:0|0:0,0:0:0:0:
209,236,172925,1,2,0:0:0:0:
388,48,173092,1,8,0:0:0:0:
143,136,173259,6,0,P|97:196|122:318,1,191.999994140625,6|2,0:0|0:0,0:0:0:0:
325,166,173759,2,0,P|287:126|227:106,1,95.9999970703126,8|0,0:0|0:0,0:0:0:0:
278,368,174092,1,2,0:0:0:0:
477,217,174259,1,2,0:0:0:0:
209,236,174425,1,8,0:0:0:0:
457,316,174592,6,0,B|483:270|483:270|465:128,1,191.999994140625,6|2,0:0|0:0,0:0:0:0:
254,16,175092,1,8,0:0:0:0:
123,218,175259,2,0,B|182:206|182:206|234:239|234:239|325:220,1,191.999994140625,6|2,0:0|0:0,0:0:0:0:
99,96,175759,1,8,0:0:0:0:
40,347,175925,6,0,B|190:364|190:364|158:328,1,191.999994140625,6|2,0:0|0:0,0:0:0:0:
3,128,176425,2,0,P|0:80|19:33,1,95.9999970703126,8|0,0:0|0:0,0:0:0:0:
232,122,176759,1,2,0:0:0:0:
33,237,176925,1,2,0:0:0:0:
153,6,177092,1,8,0:0:0:0:
293,224,177259,6,0,P|336:231|403:215,1,95.9999970703126,6|0,0:0|0:0,0:0:0:0:
132,271,177592,2,0,P|104:304|84:370,1,95.9999970703126,2|8,0:0|0:0,0:0:0:0:
172,108,177925,2,0,P|156:67|109:17,1,95.9999970703126,2|0,0:0|0:0,0:0:0:0:
13,210,178259,1,2,0:0:0:0:
253,148,178425,1,8,0:0:0:0:
102,359,178592,6,0,L|6:364,1,95.9999970703126,6|0,0:0|0:0,0:0:0:0:
277,265,178925,2,0,L|372:270,1,95.9999970703126,2|8,0:0|0:0,0:0:0:0:
505,128,179259,2,0,P|512:78|503:33,1,95.9999970703126,2|0,0:0|0:0,0:0:0:0:
275,171,179592,2,0,P|268:221|277:266,1,95.9999970703126,2|8,0:0|0:0,0:0:0:0:
399,25,179925,6,0,B|339:16|339:16|276:39|276:39|207:21,1,191.999994140625,6|2,0:0|0:0,0:0:0:0:
55,160,180425,2,0,P|102:154|150:148,1,95.9999970703126,8|0,0:0|0:0,0:0:0:0:
374,128,180759,1,2,0:0:0:0:
254,356,180925,1,8,0:0:0:0:
213,367,181008,1,8,0:0:0:0:
170,365,181091,1,8,0:0:0:0:
129,351,181175,1,8,0:0:0:0:
95,324,181259,6,0,P|152:255|277:261,1,191.999994140625,6|2,0:0|0:0,0:0:0:0:
501,337,181759,1,8,0:0:0:0:
360,143,181925,1,0,0:0:0:0:
254,356,182092,1,2,0:0:0:0:
462,218,182259,1,2,0:0:0:0:
223,148,182425,1,8,0:0:0:0:
356,359,182592,6,0,B|507:340|507:340|447:304,1,191.999994140625,6|2,0:0|0:0,0:0:0:0:
231,180,183092,2,0,P|182:176|132:172,1,95.9999970703126,8|0,0:0|0:0,0:0:0:0:
330,67,183425,1,2,0:0:0:0:
242,291,183592,1,2,0:0:0:0:
159,44,183759,1,8,0:0:0:0:
20,303,183925,6,0,B|81:324|81:324|130:303|130:303|186:320|186:320|242:291,1,240.000009155274,6|2,0:0|0:0,0:0:0:0:
373,101,184425,2,0,P|323:95|264:90,1,95.9999970703126,8|0,0:0|0:0,0:0:0:0:
495,12,184759,1,2,0:0:0:0:
382,211,184925,1,2,0:0:0:0:
227,8,185092,1,8,0:0:0:0:
488,130,185259,6,0,B|503:196|503:196|481:250|481:250|500:323,1,191.999994140625,6|2,0:0|0:0,0:0:0:0:
294,372,185759,1,8,0:0:0:0:
146,160,185925,2,0,B|213:109|295:155|295:155|275:193,1,191.999994140625,6|2,0:0|0:0,0:0:0:0:
141,368,186425,1,8,0:0:0:0:
14,141,186592,6,0,B|0:8|0:8|43:57,1,191.999994140625,6|2,0:0|0:0,0:0:0:0:
184,277,187092,2,0,L|282:266,1,95.9999970703126,8|0,0:0|0:0,0:0:0:0:
446,121,187425,1,2,0:0:0:0:
225,133,187592,1,2,0:0:0:0:
432,255,187759,1,8,0:0:0:0:
293,36,187925,6,0,P|208:15|116:87,1,191.999994140625,6|2,0:0|0:0,0:0:0:0:
51,318,188425,1,8,0:0:0:0:
255,221,188592,2,0,P|247:167|221:128,1,95.9999970703126,2|0,0:0|0:0,0:0:0:0:
154,342,188925,1,2,0:0:0:0:
397,251,189092,1,8,0:0:0:0:
141,212,189259,6,0,B|1:224|1:224|51:169,1,191.999994140625,6|2,0:0|0:0,0:0:0:0:
230,14,189759,2,0,P|276:17|331:22,1,95.9999970703126,8|0,0:0|0:0,0:0:0:0:
255,221,190092,1,2,0:0:0:0:
103,60,190259,1,2,0:0:0:0:
334,119,190425,1,8,0:0:0:0:
132,251,190592,6,0,B|152:380|152:380|189:317,1,191.999994140625,6|0,0:0|0:0,0:0:0:0:
301,117,191092,1,8,0:0:0:0:
129,223,191259,1,0,0:0:0:0:
319,306,191425,1,2,0:0:0:0:
497,197,191592,1,8,0:0:0:0:
493,153,191675,1,8,0:0:0:0:
489,110,191758,1,8,0:0:0:0:
486,67,191842,1,8,0:0:0:0:
482,24,191925,6,0,B|467:26|467:26|461:27|454:28|454:28|447:29|441:29|441:29|428:31|418:32|418:32|405:33,1,64,0|2,0:0|0:0,0:0:0:0:
395,59,192425,6,0,P|345:55|296:50,1,95.9999970703126,12|0,0:0|0:0,0:0:0:0:
401,252,192759,2,0,P|451:248|500:243,1,95.9999970703126,2|0,0:0|0:0,0:0:0:0:
272,359,193092,1,8,0:0:0:0:
128,152,193259,6,0,P|79:144|26:158,1,95.9999970703126,6|0,0:0|0:0,0:0:0:0:
202,275,193592,1,2,0:0:0:0:
329,78,193759,1,8,0:0:0:0:
428,271,193925,2,0,L|421:377,1,95.9999970703126,2|0,0:0|0:0,0:0:0:0:
266,181,194259,1,2,0:0:0:0:
509,94,194425,1,8,0:0:0:0:
237,31,194592,6,0,B|117:12|117:12|78:30|61:75,1,191.999994140625,6|2,0:0|0:0,0:0:0:0:
226,265,195092,2,0,P|262:210|265:165,1,95.9999970703126,8|0,0:0|0:0,0:0:0:0:
61,96,195425,1,2,0:0:0:0:
144,342,195592,1,2,0:0:0:0:
295,96,195759,1,8,0:0:0:0:
23,187,195925,6,0,B|41:328|41:328|74:282,1,191.999994140625,6|2,0:0|0:0,0:0:0:0:
192,115,196425,1,8,0:0:0:0:
309,346,196592,2,0,B|368:329|368:329|432:357|432:357|501:338,1,191.999994140625,6|2,0:0|0:0,0:0:0:0:
387,155,197092,1,8,0:0:0:0:
172,321,197259,6,0,B|111:358|32:305|32:305|84:280,1,191.999994140625,6|2,0:0|0:0,0:0:0:0:
295,178,197759,2,0,P|292:125|289:79,1,95.9999970703126,8|0,0:0|0:0,0:0:0:0:
375,275,198092,1,2,0:0:0:0:
176,201,198259,1,2,0:0:0:0:
404,130,198425,1,8,0:0:0:0:
279,318,198592,6,0,L|377:306,1,95.9999970703126,6|0,0:0|0:0,0:0:0:0:
497,115,198925,2,0,L|399:103,1,95.9999970703126,2|8,0:0|0:0,0:0:0:0:
196,229,199259,2,0,L|294:217,1,95.9999970703126,2|0,0:0|0:0,0:0:0:0:
72,142,199592,1,2,0:0:0:0:
165,360,199759,1,8,0:0:0:0:
309,130,199925,6,0,P|317:83|305:35,1,95.9999970703126,6|0,0:0|0:0,0:0:0:0:
191,258,200259,1,2,0:0:0:0:
424,182,200425,1,8,0:0:0:0:
204,84,200592,2,0,L|92:74,1,95.9999970703126,2|0,0:0|0:0,0:0:0:0:
289,10,200925,1,2,0:0:0:0:
196,229,201092,1,8,0:0:0:0:
449,177,201259,6,0,B|459:308|459:308|408:265,1,191.999994140625,6|2,0:0|0:0,0:0:0:0:
203,201,201759,2,0,L|99:211,1,95.9999970703126,8|0,0:0|0:0,0:0:0:0:
272,374,202092,1,2,0:0:0:0:
459,308,202259,1,8,0:0:0:0:
481,271,202342,1,8,0:0:0:0:
489,228,202425,1,8,0:0:0:0:
488,184,202509,1,8,0:0:0:0:
479,141,202592,6,0,B|360:168|360:168|289:140,1,191.999994140625,6|2,0:0|0:0,0:0:0:0:
44,39,203092,2,0,P|38:91|32:148,1,95.9999970703126,8|0,0:0|0:0,0:0:0:0:
155,318,203425,1,2,0:0:0:0:
268,126,203592,1,2,0:0:0:0:
38,247,203759,1,8,0:0:0:0:
283,362,203925,6,0,B|339:358|364:320|364:320|414:343|461:320,1,191.999994140625,6|2,0:0|0:0,0:0:0:0:
183,205,204425,2,0,P|171:260|183:308,1,95.9999970703126,8|0,0:0|0:0,0:0:0:0:
409,216,204759,1,2,0:0:0:0:
249,93,204925,1,2,0:0:0:0:
283,362,205092,1,8,0:0:0:0:
484,154,205259,6,0,B|512:115|512:115|483:71|492:11|492:11|465:64|415:75,1,240.000009155274,6|2,0:0|0:0,0:0:0:0:
169,117,205759,2,0,L|56:108,1,95.9999970703126,8|0,0:0|0:0,0:0:0:0:
296,19,206092,1,2,0:0:0:0:
188,234,206259,1,2,0:0:0:0:
60,9,206425,1,8,0:0:0:0:
309,133,206592,6,0,B|337:139|357:145|357:145|403:124|466:133|466:133|451:144|440:155,1,191.999994140625,6|2,0:0|0:0,0:0:0:0:
267,303,207092,1,8,0:0:0:0:
207,49,207259,2,0,P|289:4|381:24,1,191.999994140625,6|2,0:0|0:0,0:0:0:0:
505,218,207759,1,8,0:0:0:0:
247,199,207925,6,0,B|105:188|105:188|159:235,1,191.999994140625,6|2,0:0|0:0,0:0:0:0:
382,319,208425,2,0,L|484:311,1,95.9999970703126,8|0,0:0|0:0,0:0:0:0:
503,119,208759,2,0,L|401:111,1,95.9999970703126,2|2,0:0|0:0,0:0:0:0:
187,89,209092,1,8,0:0:0:0:
91,309,209259,6,0,B|152:301|152:301|207:331|207:331|286:319,1,191.999994140625,6|2,0:0|0:0,0:0:0:0:
407,111,209759,1,8,0:0:0:0:
188,41,209925,2,0,P|173:93|187:153,1,95.9999970703126,2|0,0:0|0:0,0:0:0:0:
307,315,210259,1,2,0:0:0:0:
78,216,210425,1,8,0:0:0:0:
310,99,210592,6,0,B|431:83|431:83|470:91|494:122,1,191.999994140625,6|2,0:0|0:0,0:0:0:0:
268,234,211092,2,0,L|167:221,1,95.9999970703126,8|0,0:0|0:0,0:0:0:0:
299,76,211425,1,2,0:0:0:0:
338,311,211592,1,2,0:0:0:0:
490,117,211759,1,8,0:0:0:0:
268,234,211925,6,0,B|212:265|212:265|73:242,1,191.999994140625,6|2,0:0|0:0,0:0:0:0:
11,15,212425,2,0,P|60:12|122:8,1,95.9999970703126,8|0,0:0|0:0,0:0:0:0:
318,76,212759,1,2,0:0:0:0:
94,142,212925,1,2,0:0:0:0:
357,222,213092,1,8,0:0:0:0:
208,39,213259,1,2,0:0:0:0:
277,321,213425,5,12,0:0:0:0:
433,117,213592,1,2,0:0:0:0:
179,235,213759,1,8,0:0:0:0:
406,336,213925,1,2,0:0:0:0:
250,140,214092,5,8,0:0:0:0:
211,120,214175,1,8,0:0:0:0:
168,116,214258,1,8,0:0:0:0:
127,128,214342,1,8,0:0:0:0:
92,154,214425,1,8,0:0:0:0:
69,190,214508,1,8,0:0:0:0:
61,232,214592,1,8,0:0:0:0:
68,274,214675,1,8,0:0:0:0:
89,311,214758,5,6,0:0:0:0:
256,192,214842,12,2,219759,0:0:0:0:
152,150,220092,6,0,P|214:134|337:114,2,176.000005371094,6|2|2,0:0|0:0|0:0,0:0:0:0:
152,150,221092,6,0,P|138:94|148:58,1,88.000002685547,6|0,0:0|0:0,0:0:0:0:
268,258,221425,2,0,P|282:314|272:350,1,88.000002685547,2|0,0:0|0:0,0:0:0:0:
101,307,221759,2,0,L|208:303,1,88.000002685547,2|0,0:0|0:0,0:0:0:0:
366,205,222092,1,2,0:0:0:0:
152,150,222259,1,8,0:0:0:0:
343,85,222425,2,0,P|392:86|442:111,1,88.000002685547,6|0,0:0|0:0,0:0:0:0:
146,180,222759,6,0,L|50:175,1,88.000002685547,6|0,0:0|0:0,0:0:0:0:
225,76,223092,2,0,L|272:2,1,88.000002685547,2|0,0:0|0:0,0:0:0:0:
277,196,223425,2,0,L|316:274,1,88.000002685547,2|0,0:0|0:0,0:0:0:0:
498,146,223759,6,0,P|452:131|404:135,1,88.000002685547,6|0,0:0|0:0,0:0:0:0:
316,274,224092,2,0,P|362:289|410:285,1,88.000002685547,2|0,0:0|0:0,0:0:0:0:
198,225,224425,2,0,P|189:275|203:329,1,88.000002685547,2|0,0:0|0:0,0:0:0:0:
308,110,224759,5,8,0:0:0:0:
272,84,224842,1,8,0:0:0:0:
230,70,224925,1,8,0:0:0:0:
186,68,225009,1,8,0:0:0:0:
144,77,225092,1,8,0:0:0:0:
105,99,225175,1,8,0:0:0:0:
74,129,225259,1,8,0:0:0:0:
53,168,225342,1,8,0:0:0:0:
42,210,225425,5,6,0:0:0:0:
256,192,225509,12,0,236759,0:0:0:0:
