osu file format v14

[General]
AudioFilename: audio.mp3
AudioLeadIn: 0
PreviewTime: 28375
Countdown: 0
SampleSet: Soft
StackLeniency: 0.7
Mode: 0
LetterboxInBreaks: 0
WidescreenStoryboard: 1

[Editor]
DistanceSpacing: 0.5
BeatDivisor: 4
GridSize: 16
TimelineZoom: 2.700001

[Metadata]
Title:Asu no Yozora Shoukaihan (Speed Up Ver.)
TitleUnicode:アスノヨゾラ哨戒班 (Speed Up Ver.)
Artist:Yuaru
ArtistUnicode:ゆある
Creator:ShogunMoon
Version:AR10
Source:
Tags:
BeatmapID:1261878
BeatmapSetID:596814

[Difficulty]
HPDrainRate:4
CircleSize:4.5
OverallDifficulty:9
ApproachRate:10
SliderMultiplier:2
SliderTickRate:1

[Events]
//Background and Video events
0,0,"bg.png",0,0
//Break Periods
2,18710,22355
2,63980,72085
2,98710,102220
//Storyboard Layer 0 (Background)
//Storyboard Layer 1 (Fail)
//Storyboard Layer 2 (Pass)
//Storyboard Layer 3 (Foreground)
//Storyboard Sound Samples

[TimingPoints]
1213,270.27027027027,4,2,1,45,1,0
1213,-125,4,2,1,45,0,0
9861,-105.263157894737,4,2,1,65,0,0
18510,-105.263157894737,4,2,1,40,0,0
22834,-105.263157894737,4,2,1,65,0,0
26077,-105.263157894737,4,2,1,70,0,0
27158,-105.263157894737,4,2,1,80,0,0
29185,-100,4,2,1,80,0,0
29321,-100,4,2,1,95,0,1
46618,-100,4,2,1,80,0,0
63915,-100,4,2,1,45,0,0
72564,-105.263157894737,4,2,1,50,0,0
81077,-105.263157894737,4,2,1,65,0,0
85402,-105.263157894737,4,2,1,25,0,0
85537,-105.263157894737,4,2,1,45,0,0
97294,-105.263157894737,4,2,2,50,0,0
98510,-105.263157894737,4,2,1,45,0,0
102699,-105.263157894737,4,2,1,65,0,0
104861,-105.263157894737,4,2,1,75,0,0
107023,-105.263157894737,4,2,2,50,0,0
109321,-100,4,2,1,95,0,1
126483,-100,4,2,1,95,0,0
126753,-100,4,2,1,95,0,1
130942,-100,4,2,1,75,0,0
143780,-200,4,2,1,30,0,0
144185,-200,4,2,1,5,0,0

[Colours]
Combo1 : 0,0,119
Combo2 : 255,100,255
Combo3 : 255,145,91
Combo4 : 255,255,66
Combo5 : 19,253,189

[HitObjects]
128,189,1077,5,0,0:0:0:0:
49,137,1213,2,0,P|106:96|203:128,1,160,0|2,0:0|0:0,0:0:0:0:
285,239,1618,2,0,L|314:78,1,160
439,187,2023,1,2,0:0:0:0:
395,71,2158,2,0,B|315:85|315:85|213:55,1,160
439,187,2699,5,0,0:0:0:0:
361,253,2834,2,0,P|383:178|351:92,1,160,0|2,0:0|0:0,0:0:0:0:
272,261,3240,2,0,P|304:322|409:328,1,160
99,250,3780,1,0,0:0:0:0:
186,258,3915,2,0,P|152:320|55:326,1,160,0|2,0:0|0:0,0:0:0:0:
150,173,4321,2,0,B|203:152|203:152|313:180,1,160
48,31,4861,5,0,0:0:0:0:
115,92,4996,2,0,L|16:135,1,80
275,247,5402,2,0,L|126:306,1,160
174,202,5807,1,2,0:0:0:0:
250,356,5942,2,0,P|318:351|384:264,1,160
228,87,6483,2,0,B|312:68|297:123|394:102,1,160
296,213,7023,5,0,0:0:0:0:
483,60,7158,2,0,L|479:168,1,80
357,26,7429,1,2,0:0:0:0:
374,248,7564,2,0,P|309:296|220:256,1,160
451,284,7969,1,2,0:0:0:0:
284,175,8104,2,0,B|176:155|176:155|138:188,1,160
487,96,8645,2,0,L|482:265,1,160
284,175,9050,1,2,0:0:0:0:
78,331,9456,6,0,L|66:235,1,80
194,277,9726,1,0,0:0:0:0:
169,88,9861,6,0,L|194:282,1,189.999994926453,4|2,0:0|0:0,0:0:0:0:
328,174,10267,1,0,0:0:0:0:
185,213,10402,1,0,0:0:0:0:
224,356,10537,2,0,P|171:363|120:350,1,94.9999974632264,0|2,0:0|0:0,0:0:0:0:
217,186,10807,1,0,0:0:0:0:
316,313,10942,6,0,L|323:218,1,94.9999974632264
252,78,11212,2,0,L|243:184,1,94.9999974632264,2|0,0:0|0:0,0:0:0:0:
356,138,11483,1,0,0:0:0:0:
231,280,11618,1,0,0:0:0:0:
419,244,11753,2,0,P|468:237|534:249,1,94.9999974632264,2|0,0:0|0:0,0:0:0:0:
467,118,12023,5,0,0:0:0:0:
366,343,12158,2,0,B|238:374|238:374|168:364,1,189.999994926453
231,248,12564,1,0,0:0:0:0:
107,341,12699,1,0,0:0:0:0:
164,186,12834,2,0,P|159:138|170:80,1,94.9999974632264,2|0,0:0|0:0,0:0:0:0:
69,223,13104,5,0,0:0:0:0:
257,134,13240,2,0,B|322:113|322:113|392:134|392:134|340:176,1,189.999994926453
289,228,13645,1,0,0:0:0:0:
414,46,13780,1,0,0:0:0:0:
471,206,13915,1,2,0:0:0:0:
271,323,14050,6,0,L|255:115,1,189.999994926453,4|0,0:0|0:0,0:0:0:0:
358,233,14456,1,2,0:0:0:0:
161,116,14591,1,0,0:0:0:0:
316,339,14726,2,0,P|363:351|412:337,1,94.9999974632264
468,159,14996,1,2,0:0:0:0:
240,180,15131,6,0,P|148:210|60:138,1,189.999994926453
284,79,15537,1,2,0:0:0:0:
197,273,15672,1,0,0:0:0:0:
339,184,15807,2,0,L|332:302,1,94.9999974632264
156,323,16077,2,0,L|148:215,1,94.9999974632264,2|0,0:0|0:0,0:0:0:0:
266,342,16348,5,0,0:0:0:0:
66,270,16483,2,0,L|59:167,1,94.9999974632264,0|2,0:0|0:0,0:0:0:0:
178,299,16753,1,0,0:0:0:0:
202,90,16888,2,0,L|210:190,1,94.9999974632264
347,68,17158,1,2,0:0:0:0:
265,250,17294,6,0,P|227:268|153:251,1,94.9999974632264
202,90,17564,1,0,0:0:0:0:
353,213,17699,2,0,P|346:267|350:330,1,94.9999974632264,2|0,0:0|0:0,0:0:0:0:
459,243,17969,1,0,0:0:0:0:
378,90,18104,1,0,0:0:0:0:
373,334,18240,1,2,0:0:0:0:
254,36,18510,5,2,0:0:0:0:
55,67,22834,6,0,B|200:56|200:56|147:113,1,189.999994926453,4|2,0:0|0:0,0:0:0:0:
90,207,23240,1,0,0:0:0:0:
288,120,23375,1,0,0:0:0:0:
218,242,23510,2,0,P|213:296|224:354,1,94.9999974632264,0|2,0:0|0:0,0:0:0:0:
338,294,23780,1,0,0:0:0:0:
422,170,23915,6,0,P|427:122|422:75,1,94.9999974632264
302,147,24185,1,2,0:0:0:0:
369,330,24321,1,0,0:0:0:0:
182,202,24456,2,0,P|132:211|71:197,1,94.9999974632264
250,286,24726,2,0,P|300:279|346:289,1,94.9999974632264,2|0,0:0|0:0,0:0:0:0:
411,183,24996,5,0,0:0:0:0:
295,362,25131,1,0,0:0:0:0:
212,187,25267,2,0,L|202:77,1,94.9999974632264,2|0,0:0|0:0,0:0:0:0:
250,286,25537,2,0,P|197:293|149:274,1,94.9999974632264
204,93,25807,1,2,0:0:0:0:
86,226,25942,1,0,0:0:0:0:
344,237,26077,6,0,L|341:341,1,94.9999974632264
303,146,26348,2,0,B|350:134|350:134|404:155,1,94.9999974632264,2|0,0:0|0:0,0:0:0:0:
356,44,26618,1,0,0:0:0:0:
344,237,26753,1,0,0:0:0:0:
201,106,26888,2,0,L|180:3,1,94.9999974632264,2|0,0:0|0:0,0:0:0:0:
98,237,27158,2,0,L|80:345,1,94.9999974632264,2|2,0:0|0:0,0:0:0:0:
253,212,27429,5,2,0:0:0:0:
45,111,27564,1,2,0:0:0:0:
204,284,27699,5,2,0:0:0:0:
109,50,27834,1,2,0:0:0:0:
149,352,27969,5,2,0:0:0:0:
195,41,28104,1,2,0:0:0:0:
66,323,28240,5,2,0:0:0:0:
268,92,28375,1,2,0:0:0:0:
19,247,28510,5,2,0:0:0:0:
299,176,28645,1,2,0:0:0:0:
434,103,28780,5,2,0:0:0:0:
337,204,28915,2,0,L|334:305,1,94.9999974632264,0|2,0:0|0:0,0:0:0:0:
169,261,29185,6,0,B|20:248|20:248|68:301,1,200,4|0,0:0|0:0,0:0:0:0:
252,357,29591,1,8,0:0:0:0:
155,146,29726,1,0,0:0:0:0:
364,236,29861,1,0,0:0:0:0:
199,77,29996,2,0,P|144:64|86:88,1,100,0|8,0:0|0:0,0:0:0:0:
253,245,30267,2,0,L|270:119,1,100
418,107,30537,1,0,0:0:0:0:
267,146,30672,1,8,0:0:0:0:
373,340,30807,1,0,0:0:0:0:
162,244,30942,6,0,B|109:208|35:241|35:241|90:239|121:275,1,200,0|8,0:0|0:0,0:0:0:0:
220,335,31348,1,0,0:0:0:0:
349,217,31483,1,0,0:0:0:0:
185,103,31618,1,0,0:0:0:0:
361,253,31753,2,0,L|474:241,1,100,8|0,0:0|0:0,0:0:0:0:
311,75,32023,2,0,L|189:66,1,100
406,26,32294,1,8,0:0:0:0:
251,212,32429,6,0,B|243:364|243:364|211:315,1,200
319,153,32834,2,0,P|346:218|254:305,1,200,8|0,0:0|0:0,0:0:0:0:
155,255,33240,1,0,0:0:0:0:
332,369,33375,1,8,0:0:0:0:
414,126,33510,2,0,P|345:57|242:92,1,200,4|0,0:0|0:0,0:0:0:0:
155,255,33915,1,8,0:0:0:0:
153,76,34050,6,0,L|262:79,1,100
181,219,34321,1,0,0:0:0:0:
48,63,34456,1,8,0:0:0:0:
92,343,34591,1,0,0:0:0:0:
272,182,34726,2,0,P|326:175|370:187,1,100
419,314,34996,6,0,P|408:235|474:100,1,200,8|0,0:0|0:0,0:0:0:0:
501,228,35402,1,0,0:0:0:0:
470,373,35537,2,0,P|413:393|361:365,1,100,8|0,0:0|0:0,0:0:0:0:
239,232,35807,2,0,L|230:342,1,100
123,254,36077,1,8,0:0:0:0:
209,106,36212,1,0,0:0:0:0:
30,109,36348,1,0,0:0:0:0:
218,66,36483,2,0,L|334:58,1,100,0|8,0:0|0:0,0:0:0:0:
261,213,36753,6,0,B|99:224|99:224|128:261,1,200
251,317,37158,1,8,0:0:0:0:
209,106,37294,1,0,0:0:0:0:
384,224,37429,1,0,0:0:0:0:
402,230,37496,1,0,0:0:0:0:
422,230,37564,1,8,0:0:0:0:
441,230,37631,1,8,0:0:0:0:
459,221,37699,1,8,0:0:0:0:
473,207,37767,1,8,0:0:0:0:
485,191,37834,6,0,B|473:129|499:48|499:48|465:92|433:101,1,200,4|0,0:0|0:0,0:0:0:0:
314,168,38240,1,8,0:0:0:0:
330,18,38375,1,0,0:0:0:0:
460,86,38510,1,0,0:0:0:0:
279,133,38645,2,0,P|226:141|176:126,1,100,0|8,0:0|0:0,0:0:0:0:
101,223,38916,2,0,L|89:336,1,100
233,297,39186,1,0,0:0:0:0:
359,184,39321,1,8,0:0:0:0:
251,98,39456,1,0,0:0:0:0:
299,253,39591,6,0,B|360:296|418:254|418:254|388:321,1,200,0|8,0:0|0:0,0:0:0:0:
285,365,39997,1,0,0:0:0:0:
359,184,40132,1,0,0:0:0:0:
178,226,40267,1,0,0:0:0:0:
294,101,40402,2,0,L|407:89,1,100,8|0,0:0|0:0,0:0:0:0:
224,36,40672,2,0,L|102:27,1,100
174,129,40943,1,8,0:0:0:0:
87,201,41078,6,0,P|63:316|114:385,1,200
277,362,41483,2,0,P|307:269|261:183,1,200,8|0,0:0|0:0,0:0:0:0:
182,282,41888,1,0,0:0:0:0:
389,364,42024,1,8,0:0:0:0:
399,176,42159,2,0,B|376:87|436:44|436:44|438:130,1,200,4|0,0:0|0:0,0:0:0:0:
495,258,42564,1,8,0:0:0:0:
305,96,42699,6,0,B|252:78|252:78|198:89,1,100
87,201,42970,1,0,0:0:0:0:
102,35,43105,1,8,0:0:0:0:
234,254,43240,1,0,0:0:0:0:
305,96,43375,2,0,L|407:106,1,100
398,273,43645,6,0,P|363:231|418:99,1,200,8|0,0:0|0:0,0:0:0:0:
449,190,44051,1,0,0:0:0:0:
358,350,44186,2,0,L|249:342,1,100,8|0,0:0|0:0,0:0:0:0:
136,180,44456,2,0,L|240:186,1,100
135,287,44726,1,8,0:0:0:0:
287,110,44861,1,0,0:0:0:0:
286,261,44997,1,0,0:0:0:0:
155,150,45131,2,0,P|149:96|155:41,1,100,0|8,0:0|0:0,0:0:0:0:
52,186,45402,6,0,P|64:289|48:401,1,200
161,252,45807,1,8,0:0:0:0:
238,366,45943,1,0,0:0:0:0:
264,130,46077,1,0,0:0:0:0:
341,269,46212,1,8,0:0:0:0:
341,269,46279,1,8,0:0:0:0:
341,269,46348,1,8,0:0:0:0:
341,269,46415,1,8,0:0:0:0:
341,269,46483,6,0,P|422:302|519:251,1,200,4|0,0:0|0:0,0:0:0:0:
364,145,46888,1,8,0:0:0:0:
479,374,47023,1,0,0:0:0:0:
286,336,47158,1,0,0:0:0:0:
137,368,47293,2,0,L|142:268,1,100,0|8,0:0|0:0,0:0:0:0:
104,107,47564,2,0,P|137:150|195:166,1,100
329,31,47834,1,0,0:0:0:0:
309,194,47969,1,8,0:0:0:0:
195,64,48104,1,0,0:0:0:0:
468,82,48240,6,0,P|473:138|465:194,1,100
312,292,48510,2,0,P|304:244|311:181,1,100,8|0,0:0|0:0,0:0:0:0:
417,316,48780,1,0,0:0:0:0:
385,125,48915,1,0,0:0:0:0:
222,271,49050,2,0,L|122:257,1,100,8|0,0:0|0:0,0:0:0:0:
251,377,49320,2,0,L|357:366,1,100
341,252,49591,1,8,0:0:0:0:
148,347,49726,1,0,0:0:0:0:
212,173,49861,6,0,P|226:235|215:292,1,100
138,109,50131,2,0,P|188:81|247:80,1,100,8|0,0:0|0:0,0:0:0:0:
338,167,50402,1,0,0:0:0:0:
146,227,50537,1,0,0:0:0:0:
158,12,50672,1,8,0:0:0:0:
278,223,50807,6,0,P|353:247|418:149,1,200,4|0,0:0|0:0,0:0:0:0:
343,60,51212,1,8,0:0:0:0:
244,203,51348,1,0,0:0:0:0:
392,264,51483,1,0,0:0:0:0:
148,147,51618,2,0,L|30:138,1,100,0|8,0:0|0:0,0:0:0:0:
201,334,51888,6,0,L|316:323,1,100
136,248,52158,1,0,0:0:0:0:
305,77,52294,1,8,0:0:0:0:
300,324,52429,1,0,0:0:0:0:
148,147,52564,2,0,P|201:137|263:151,1,100
427,58,52834,6,0,P|377:48|322:58,1,100,8|0,0:0|0:0,0:0:0:0:
226,228,53104,1,0,0:0:0:0:
82,78,53240,1,0,0:0:0:0:
66,310,53375,1,8,0:0:0:0:
277,185,53510,2,0,P|269:241|265:302,1,100
438,204,53780,6,0,P|436:148|429:102,1,100,0|8,0:0|0:0,0:0:0:0:
366,287,54050,1,0,0:0:0:0:
204,123,54185,1,0,0:0:0:0:
326,24,54321,1,0,0:0:0:0:
170,97,54456,2,0,L|63:92,1,100,8|0,0:0|0:0,0:0:0:0:
231,215,54726,1,0,0:0:0:0:
343,98,54861,5,8,0:0:0:0:
386,73,54929,1,8,0:0:0:0:
433,86,54996,1,8,0:0:0:0:
458,129,55064,1,8,0:0:0:0:
437,174,55131,6,0,B|417:236|417:236|445:308|445:308|425:371,1,200,4|0,0:0|0:0,0:0:0:0:
288,270,55537,1,8,0:0:0:0:
189,359,55672,1,0,0:0:0:0:
141,122,55807,1,0,0:0:0:0:
304,52,55942,2,0,L|426:44,1,100,0|8,0:0|0:0,0:0:0:0:
220,16,56212,6,0,P|211:66|239:120,1,100
156,261,56483,1,0,0:0:0:0:
338,146,56618,1,8,0:0:0:0:
335,345,56753,1,0,0:0:0:0:
113,231,56888,2,0,L|122:112,1,100
377,176,57158,6,0,L|386:283,1,100,8|0,0:0|0:0,0:0:0:0:
222,178,57429,1,0,0:0:0:0:
378,33,57564,1,0,0:0:0:0:
493,228,57699,1,8,0:0:0:0:
250,319,57834,2,0,L|135:323,1,100
328,146,58104,6,0,L|427:149,1,100,0|8,0:0|0:0,0:0:0:0:
257,284,58375,1,0,0:0:0:0:
439,109,58510,1,0,0:0:0:0:
397,277,58645,1,0,0:0:0:0:
221,133,58780,2,0,P|219:74|230:16,1,100,8|0,0:0|0:0,0:0:0:0:
104,274,59050,1,0,0:0:0:0:
28,182,59185,5,8,0:0:0:0:
28,182,59253,1,8,0:0:0:0:
28,182,59321,1,8,0:0:0:0:
28,182,59388,1,8,0:0:0:0:
28,182,59456,6,0,P|-15:272|39:376,1,200,4|0,0:0|0:0,0:0:0:0:
172,230,59861,1,8,0:0:0:0:
325,72,59996,2,0,L|206:78,1,100
293,193,60267,1,0,0:0:0:0:
407,23,60402,1,8,0:0:0:0:
471,258,60537,1,0,0:0:0:0:
191,115,60672,2,0,P|183:170|192:234,1,100
409,121,60942,6,0,P|414:73|404:14,1,100,8|0,0:0|0:0,0:0:0:0:
273,184,61212,1,0,0:0:0:0:
93,40,61348,1,0,0:0:0:0:
301,163,61483,1,8,0:0:0:0:
57,70,61618,2,0,L|62:173,1,100
211,353,61888,6,0,L|218:235,1,100,0|8,0:0|0:0,0:0:0:0:
394,114,62158,1,0,0:0:0:0:
409,327,62294,1,0,0:0:0:0:
202,215,62429,1,0,0:0:0:0:
341,65,62564,2,0,L|460:56,1,100,8|0,0:0|0:0,0:0:0:0:
168,187,62834,6,0,L|61:178,1,100
251,34,63104,1,8,0:0:0:0:
303,232,63240,1,0,0:0:0:0:
125,331,63375,1,0,0:0:0:0:
208,174,63510,1,8,0:0:0:0:
249,146,63577,1,8,0:0:0:0:
298,136,63645,1,8,0:0:0:0:
346,146,63712,1,8,0:0:0:0:
391,166,63780,5,4,0:0:0:0:
55,86,72564,6,0,P|144:55|239:88,1,189.999994926453,0|4,0:0|0:1,0:0:0:0:
143,196,72969,1,0,0:0:0:0:
317,143,73104,2,0,L|305:249,1,94.9999974632264
128,321,73375,2,0,L|116:216,1,94.9999974632264,2|0,0:0|0:0,0:0:0:0:
265,337,73645,1,0,0:0:0:0:
400,148,73780,1,0,0:0:0:0:
237,194,73915,2,0,P|187:200|131:193,1,94.9999974632264,4|0,0:1|0:0,0:0:0:0:
306,38,74185,2,0,L|416:44,1,94.9999974632264
345,212,74456,1,2,0:0:0:0:
501,37,74591,1,0,0:0:0:0:
373,234,74726,6,0,L|383:353,1,94.9999974632264
143,198,74996,2,0,L|156:81,1,94.9999974632264,4|0,0:1|0:0,0:0:0:0:
277,144,75267,1,0,0:0:0:0:
174,320,75402,1,0,0:0:0:0:
316,124,75537,2,0,P|368:115|422:124,1,94.9999974632264,2|0,0:0|0:0,0:0:0:0:
421,316,75807,2,0,P|369:324|314:314,1,94.9999974632264
143,198,76077,1,4,0:1:0:0:
277,41,76212,1,0,0:0:0:0:
98,150,76348,2,0,L|108:254,1,94.9999974632264
286,326,76618,2,0,L|273:218,1,94.9999974632264,2|4,0:0|0:1,0:0:0:0:
371,101,76889,5,0,0:0:0:0:
167,337,77024,1,0,0:0:0:0:
403,87,77159,2,0,L|419:194,1,94.9999974632264,2|0,0:0|0:0,0:0:0:0:
254,308,77429,2,0,L|240:187,1,94.9999974632264
163,43,77699,1,2,0:0:0:0:
351,215,77834,1,0,0:0:0:0:
214,109,77969,2,0,P|166:124|101:102,1,94.9999974632264
347,21,78240,2,0,L|342:131,1,94.9999974632264,4|0,0:1|0:0,0:0:0:0:
459,298,78510,1,0,0:0:0:0:
243,213,78645,1,0,0:0:0:0:
77,334,78780,2,0,P|75:279|83:220,1,94.9999974632264,2|0,0:0|0:0,0:0:0:0:
267,82,79050,6,0,P|269:133|264:186,1,94.9999974632264
81,126,79320,1,4,0:1:0:0:
201,348,79455,1,0,0:0:0:0:
359,186,79591,2,0,L|241:174,1,94.9999974632264
417,305,79861,2,0,L|305:293,1,94.9999974632264,2|0,0:0|0:0,0:0:0:0:
428,107,80132,1,0,0:0:0:0:
233,271,80267,1,0,0:0:0:0:
91,73,80402,2,0,P|81:122|75:179,1,94.9999974632264,4|0,0:1|0:0,0:0:0:0:
125,346,80672,1,0,0:0:0:0:
298,202,80807,5,2,0:0:0:0:
329,165,80875,1,2,0:0:0:0:
322,118,80942,1,2,0:0:0:0:
276,104,81010,1,2,0:0:0:0:
237,130,81077,6,0,B|214:203|214:203|245:315,1,189.999994926453,4|0,0:0|0:0,0:0:0:0:
426,148,81483,1,0,0:0:0:0:
358,359,81618,1,0,0:0:0:0:
215,203,81753,1,0,0:0:0:0:
467,89,81888,2,0,L|460:195,1,94.9999974632264
301,268,82158,1,0,0:0:0:0:
160,69,82294,6,0,P|219:53|277:57,1,94.9999974632264
223,174,82564,1,0,0:0:0:0:
50,85,82699,1,0,0:0:0:0:
151,325,82834,1,0,0:0:0:0:
351,119,82969,2,0,L|345:239,1,94.9999974632264
476,64,83240,1,0,0:0:0:0:
394,301,83375,6,0,P|360:312|281:290,1,94.9999974632264
173,147,83645,1,0,0:0:0:0:
265,331,83780,1,0,0:0:0:0:
368,144,83915,1,0,0:0:0:0:
121,53,84050,2,0,L|230:41,1,94.9999974632264
268,215,84321,1,0,0:0:0:0:
50,257,84456,6,0,P|45:209|53:149,1,94.9999974632264
198,265,84726,1,0,0:0:0:0:
312,49,84861,1,0,0:0:0:0:
140,129,84996,1,0,0:0:0:0:
334,312,85131,2,0,P|378:316|438:309,1,94.9999974632264
257,135,85402,1,4,0:0:0:0:
178,352,85537,6,0,P|127:347|68:354,1,94.9999974632264
140,129,85807,1,0,0:0:0:0:
288,317,85942,1,0,0:0:0:0:
320,31,86077,1,0,0:0:0:0:
177,242,86212,2,0,P|124:249|74:240,1,94.9999974632264
320,31,86483,1,0,0:0:0:0:
434,291,86618,6,0,L|426:172,1,94.9999974632264
216,368,86888,1,0,0:0:0:0:
354,211,87023,1,0,0:0:0:0:
185,132,87158,1,0,0:0:0:0:
73,290,87294,2,0,P|68:228|78:180,1,94.9999974632264
211,104,87564,1,0,0:0:0:0:
334,308,87699,6,0,B|411:312|411:312|445:290,1,94.9999974632264
358,89,87969,1,0,0:0:0:0:
510,222,88104,1,0,0:0:0:0:
247,264,88240,1,0,0:0:0:0:
467,29,88375,2,0,L|457:146,1,94.9999974632264
211,104,88645,1,0,0:0:0:0:
49,292,88780,6,0,L|41:175,1,94.9999974632264
113,47,89050,1,0,0:0:0:0:
184,242,89185,1,0,0:0:0:0:
330,69,89321,1,0,0:0:0:0:
279,317,89456,2,0,P|322:325|381:308,1,94.9999974632264
268,117,89726,6,0,B|387:91|387:91|462:133,1,189.999994926453
480,158,90064,1,0,0:0:0:0:
480,158,90131,1,0,0:0:0:0:
332,244,90267,1,0,0:0:0:0:
332,244,90334,1,0,0:0:0:0:
332,244,90402,2,0,L|321:343,1,94.9999974632264
168,221,90672,2,0,L|155:107,1,94.9999974632264
17,248,90942,6,0,L|7:359,1,94.9999974632264
206,306,91212,1,0,0:0:0:0:
35,135,91348,1,0,0:0:0:0:
95,312,91483,1,0,0:0:0:0:
180,70,91618,2,0,L|302:63,1,94.9999974632264
221,198,91888,1,0,0:0:0:0:
383,133,92023,6,0,P|377:182|392:239,1,94.9999974632264
471,39,92294,1,0,0:0:0:0:
412,328,92429,1,0,0:0:0:0:
507,183,92564,1,0,0:0:0:0:
275,207,92699,2,0,B|198:195|198:195|168:212,1,94.9999974632264
287,350,92969,1,0,0:0:0:0:
271,72,93104,6,0,L|386:63,1,94.9999974632264
261,229,93375,1,0,0:0:0:0:
109,97,93510,1,0,0:0:0:0:
117,350,93645,1,0,0:0:0:0:
145,119,93780,2,0,P|141:173|152:230,1,94.9999974632264
317,313,94050,1,0,0:0:0:0:
126,252,94185,6,0,L|17:246,1,94.9999974632264
7,216,94388,1,0,0:0:0:0:
7,216,94456,1,0,0:0:0:0:
145,119,94591,1,0,0:0:0:0:
145,119,94658,1,0,0:0:0:0:
145,119,94726,2,0,L|257:126,1,94.9999974632264
369,290,94996,2,0,L|264:297,1,94.9999974632264
467,236,95267,6,0,B|479:286|479:286|468:345,1,94.9999974632264
345,187,95537,1,0,0:0:0:0:
218,364,95672,1,0,0:0:0:0:
153,173,95807,1,0,0:0:0:0:
55,335,95942,2,0,L|46:219,1,94.9999974632264
173,152,96212,1,0,0:0:0:0:
336,54,96348,6,0,L|327:163,1,94.9999974632264
216,279,96618,1,0,0:0:0:0:
463,333,96753,1,0,0:0:0:0:
377,218,96888,1,0,0:0:0:0:
265,348,97023,2,0,B|216:360|216:360|150:342,1,94.9999974632264
97,186,97294,5,0,0:0:0:0:
115,164,97361,1,0,0:0:0:0:
140,150,97429,1,0,0:0:0:0:
168,147,97496,1,0,0:0:0:0:
196,150,97564,1,0,0:0:0:0:
221,162,97631,1,0,0:0:0:0:
242,181,97699,5,0,0:0:0:0:
263,200,97767,1,0,0:0:0:0:
286,216,97834,1,0,0:0:0:0:
313,225,97902,1,0,0:0:0:0:
340,232,97969,1,0,0:0:0:0:
368,235,98037,1,0,0:0:0:0:
402,221,98104,5,0,0:0:0:0:
434,201,98172,1,0,0:0:0:0:
444,164,98240,1,0,0:0:0:0:
431,128,98307,1,0,0:0:0:0:
400,104,98375,1,0,0:0:0:0:
363,112,98442,1,0,0:0:0:0:
344,145,98510,5,4,0:0:0:0:
135,65,102699,6,0,L|130:185,1,94.9999974632264
287,88,102969,1,0,0:0:0:0:
204,275,103104,1,2,0:0:0:0:
401,201,103240,2,0,L|398:320,1,94.9999974632264
127,356,103510,1,0,0:0:0:0:
269,186,103645,1,2,0:0:0:0:
105,235,103780,6,0,B|29:226|29:226|-3:242,1,94.9999974632264
218,348,104050,1,0,0:0:0:0:
190,127,104185,1,2,0:0:0:0:
385,241,104321,2,0,P|395:285|380:341,1,94.9999974632264
284,149,104591,1,0,0:0:0:0:
494,206,104726,1,2,0:0:0:0:
281,344,104861,5,2,0:0:0:0:
221,42,104996,1,2,0:0:0:0:
197,354,105131,5,2,0:0:0:0:
304,52,105267,1,2,0:0:0:0:
128,325,105402,5,2,0:0:0:0:
366,107,105537,1,2,0:0:0:0:
71,264,105672,5,2,0:0:0:0:
392,187,105807,1,2,0:0:0:0:
37,193,105942,5,2,0:0:0:0:
359,266,106077,1,2,0:0:0:0:
55,113,106212,5,2,0:0:0:0:
304,326,106348,1,2,0:0:0:0:
109,49,106483,5,2,0:0:0:0:
231,356,106618,1,2,0:0:0:0:
188,33,106753,5,2,0:0:0:0:
153,339,106888,1,2,0:0:0:0:
265,62,107023,5,0,0:0:0:0:
291,90,107091,1,0,0:0:0:0:
322,110,107158,1,0,0:0:0:0:
358,121,107226,1,0,0:0:0:0:
394,131,107294,1,0,0:0:0:0:
431,132,107361,1,0,0:0:0:0:
468,123,107429,1,0,0:0:0:0:
497,99,107496,5,0,0:0:0:0:
503,61,107564,1,0,0:0:0:0:
485,27,107631,1,0,0:0:0:0:
449,13,107699,1,0,0:0:0:0:
410,9,107767,1,0,0:0:0:0:
378,29,107834,1,0,0:0:0:0:
366,65,107902,5,0,0:0:0:0:
377,100,107969,1,0,0:0:0:0:
395,133,108037,1,0,0:0:0:0:
409,167,108104,1,0,0:0:0:0:
416,204,108172,1,0,0:0:0:0:
411,242,108240,1,0,0:0:0:0:
395,276,108307,5,0,0:0:0:0:
363,297,108375,1,0,0:0:0:0:
326,305,108442,1,0,0:0:0:0:
291,289,108510,1,0,0:0:0:0:
260,266,108577,1,0,0:0:0:0:
229,242,108645,1,0,0:0:0:0:
201,216,108712,5,0,0:0:0:0:
163,206,108780,1,0,0:0:0:0:
125,211,108848,1,0,0:0:0:0:
90,225,108915,1,0,0:0:0:0:
71,258,108983,1,0,0:0:0:0:
71,295,109050,1,0,0:0:0:0:
93,326,109118,1,0,0:0:0:0:
127,341,109185,1,0,0:0:0:0:
165,344,109253,1,0,0:0:0:0:
201,327,109321,5,0,0:0:0:0:
95,106,109456,1,0,0:0:0:0:
451,174,109591,1,8,0:0:0:0:
241,238,109726,1,0,0:0:0:0:
298,14,109861,1,0,0:0:0:0:
410,328,109996,1,0,0:0:0:0:
53,223,110131,1,8,0:0:0:0:
389,46,110267,1,0,0:0:0:0:
291,334,110402,5,0,0:0:0:0:
162,27,110537,1,0,0:0:0:0:
380,238,110672,1,8,0:0:0:0:
85,333,110807,1,0,0:0:0:0:
270,89,110942,1,0,0:0:0:0:
213,377,111077,1,0,0:0:0:0:
58,30,111212,1,8,0:0:0:0:
456,82,111348,1,0,0:0:0:0:
158,213,111483,5,0,0:0:0:0:
480,357,111618,1,0,0:0:0:0:
324,21,111753,1,8,0:0:0:0:
182,299,111888,1,0,0:0:0:0:
486,221,112023,1,0,0:0:0:0:
210,59,112158,1,0,0:0:0:0:
298,354,112294,1,8,0:0:0:0:
10,143,112429,1,0,0:0:0:0:
113,368,112564,5,0,0:0:0:0:
292,97,112699,1,0,0:0:0:0:
448,340,112834,1,8,0:0:0:0:
99,241,112969,1,0,0:0:0:0:
480,61,113104,1,0,0:0:0:0:
323,340,113240,1,0,0:0:0:0:
148,113,113375,1,8,0:0:0:0:
363,30,113510,6,0,B|398:147|321:130|369:248,1,200,4|0,0:0|0:0,0:0:0:0:
242,173,113915,1,8,0:0:0:0:
324,341,114050,2,0,B|381:349|381:349|438:323,1,100
199,250,114321,2,0,L|85:240,1,100,0|8,0:0|0:0,0:0:0:0:
158,109,114591,1,0,0:0:0:0:
224,352,114726,6,0,L|330:340,1,100
409,213,114996,1,8,0:0:0:0:
289,58,115131,2,0,P|284:124|292:174,1,100
498,266,115402,2,0,P|502:204|490:157,1,100,0|8,0:0|0:0,0:0:0:0:
399,36,115672,1,0,0:0:0:0:
168,189,115807,6,0,P|116:197|55:184,1,100
288,157,116077,1,8,0:0:0:0:
238,299,116212,2,0,P|288:292|346:302,1,100
493,167,116483,2,0,L|488:270,1,100,0|8,0:0|0:0,0:0:0:0:
382,153,116753,1,0,0:0:0:0:
292,351,116888,6,0,L|297:251,1,100
143,247,117158,1,8,0:0:0:0:
211,107,117294,2,0,P|258:116|324:100,1,100
131,27,117564,1,8,0:0:0:0:
131,27,117631,1,8,0:0:0:0:
131,27,117699,1,8,0:0:0:0:
406,55,117834,5,4,0:0:0:0:
320,359,117969,1,0,0:0:0:0:
77,206,118104,1,0,0:0:0:0:
493,278,118240,1,8,0:0:0:0:
240,24,118375,1,0,0:0:0:0:
159,373,118510,1,0,0:0:0:0:
493,278,118645,1,0,0:0:0:0:
104,64,118780,1,8,0:0:0:0:
324,332,118915,1,0,0:0:0:0:
320,31,119050,5,0,0:0:0:0:
132,285,119185,1,0,0:0:0:0:
462,207,119321,1,8,0:0:0:0:
220,18,119456,1,0,0:0:0:0:
240,368,119591,1,0,0:0:0:0:
382,141,119726,1,0,0:0:0:0:
53,153,119861,1,8,0:0:0:0:
394,286,119996,1,0,0:0:0:0:
119,354,120131,5,0,0:0:0:0:
139,56,120267,1,0,0:0:0:0:
439,354,120402,1,8,0:0:0:0:
386,65,120537,1,0,0:0:0:0:
192,256,120672,1,0,0:0:0:0:
495,179,120807,1,0,0:0:0:0:
51,94,120942,1,8,0:0:0:0:
295,356,121077,1,0,0:0:0:0:
226,35,121212,5,0,0:0:0:0:
422,240,121348,1,0,0:0:0:0:
61,249,121483,1,8,0:0:0:0:
393,32,121618,1,0,0:0:0:0:
390,370,121753,1,0,0:0:0:0:
151,165,121888,1,8,0:0:0:0:
151,165,121956,1,8,0:0:0:0:
151,165,122023,1,8,0:0:0:0:
151,165,122091,1,8,0:0:0:0:
151,165,122158,6,0,B|164:235|164:235|139:364,1,200,4|0,0:0|0:0,0:0:0:0:
259,281,122564,1,8,0:0:0:0:
377,93,122699,2,0,L|368:216,1,100
111,143,122969,2,0,L|100:26,1,100,0|8,0:0|0:0,0:0:0:0:
243,168,123240,1,0,0:0:0:0:
400,316,123375,6,0,B|465:330|465:330|519:318,1,100
470,183,123645,1,8,0:0:0:0:
272,347,123780,2,0,L|154:342,1,100
58,154,124050,2,0,L|174:150,1,100,0|8,0:0|0:0,0:0:0:0:
84,39,124321,1,0,0:0:0:0:
268,158,124456,6,0,P|273:220|264:267,1,100
381,146,124726,1,8,0:0:0:0:
208,58,124861,2,0,B|156:46|156:46|101:58,1,100
399,183,125131,2,0,B|450:191|450:191|524:179,1,100,0|8,0:0|0:0,0:0:0:0:
333,37,125402,1,0,0:0:0:0:
314,241,125537,6,0,L|318:364,1,100
176,284,125807,1,8,0:0:0:0:
404,288,125942,2,0,P|471:281|526:295,1,100
304,332,126212,1,8,0:0:0:0:
304,332,126280,1,8,0:0:0:0:
304,332,126348,1,8,0:0:0:0:
304,332,126415,1,8,0:0:0:0:
304,332,126483,6,0,B|317:245|317:245|273:143,1,200,4|0,0:0|0:0,0:0:0:0:
28,202,126888,5,8,0:0:0:0:
402,118,127023,1,0,0:0:0:0:
24,122,127158,5,0,0:0:0:0:
457,181,127294,1,0,0:0:0:0:
66,53,127429,5,8,0:0:0:0:
459,275,127564,1,0,0:0:0:0:
138,17,127699,5,0,0:0:0:0:
385,344,127834,1,0,0:0:0:0:
224,15,127969,5,8,0:0:0:0:
293,372,128104,1,0,0:0:0:0:
301,25,128240,5,0,0:0:0:0:
193,377,128375,1,0,0:0:0:0:
383,70,128510,5,8,0:0:0:0:
96,361,128645,1,0,0:0:0:0:
440,136,128780,5,0,0:0:0:0:
19,309,128915,1,0,0:0:0:0:
469,219,129050,5,8,0:0:0:0:
0,221,129185,1,0,0:0:0:0:
469,312,129321,5,0,0:0:0:0:
11,131,129456,1,0,0:0:0:0:
406,375,129591,5,8,0:0:0:0:
70,66,129726,1,0,0:0:0:0:
307,383,129861,5,0,0:0:0:0:
152,24,129996,1,0,0:0:0:0:
214,337,130131,5,8,0:0:0:0:
233,31,130267,1,0,0:0:0:0:
157,245,130402,5,0,0:0:0:0:
304,88,130537,1,0,0:0:0:0:
184,141,130672,5,8,0:0:0:0:
353,200,130807,2,0,B|434:217|434:217|561:152,1,200,4|0,0:0|0:0,0:0:0:0:
421,86,131212,1,8,0:0:0:0:
412,318,131348,2,0,L|295:289,1,100
245,187,131618,1,0,0:0:0:0:
116,369,131753,2,0,L|225:351,1,100,8|0,0:0|0:0,0:0:0:0:
127,203,132023,6,0,L|11:188,1,100
161,39,132294,1,8,0:0:0:0:
320,224,132429,2,0,P|322:279|309:354,1,100
445,287,132699,1,0,0:0:0:0:
363,81,132834,2,0,B|311:72|311:72|247:87,1,100,8|0,0:0|0:0,0:0:0:0:
156,280,133104,6,0,L|257:266,1,100
481,140,133375,1,8,0:0:0:0:
202,139,133510,2,0,L|91:126,1,100
190,353,133780,1,0,0:0:0:0:
98,226,133915,2,0,P|103:166|101:112,1,100,8|0,0:0|0:0,0:0:0:0:
305,46,134185,6,0,P|298:106|301:168,1,100
224,275,134456,1,8,0:0:0:0:
434,195,134591,2,0,L|420:318,1,100
281,365,134861,1,8,0:0:0:0:
281,365,134929,1,8,0:0:0:0:
281,365,134996,1,8,0:0:0:0:
281,365,135064,1,8,0:0:0:0:
281,365,135131,6,0,P|175:364|119:282,1,200,4|0,0:0|0:0,0:0:0:0:
330,218,135537,1,8,0:0:0:0:
153,159,135672,2,0,P|101:171|33:147,1,100
201,49,135942,1,0,0:0:0:0:
250,153,136077,2,0,L|243:274,1,100,8|0,0:0|0:0,0:0:0:0:
507,270,136347,6,0,L|496:159,1,100
402,346,136618,1,8,0:0:0:0:
403,75,136753,2,0,L|285:91,1,100
386,321,137023,1,0,0:0:0:0:
195,237,137158,2,0,P|189:296|196:354,1,100,8|0,0:0|0:0,0:0:0:0:
62,206,137428,6,0,P|69:156|60:98,1,100
198,36,137699,1,8,0:0:0:0:
336,110,137834,2,0,P|328:165|338:226,1,100
193,148,138104,1,0,0:0:0:0:
337,308,138239,2,0,L|457:303,1,100,8|0,0:0|0:0,0:0:0:0:
498,42,138510,6,0,L|380:46,1,100
310,206,138780,1,8,0:0:0:0:
218,326,138915,2,0,P|168:320|115:324,1,100
43,232,139185,1,8,0:0:0:0:
43,232,139253,1,8,0:0:0:0:
43,232,139320,1,8,0:0:0:0:
43,232,139388,1,8,0:0:0:0:
43,232,139455,6,0,B|59:85|59:85|111:35,1,200,4|0,0:0|0:0,0:0:0:0:
165,167,139862,1,8,0:0:0:0:
257,49,139997,2,0,L|380:46,1,100
280,205,140267,1,0,0:0:0:0:
230,345,140402,2,0,L|347:342,1,100,8|0,0:0|0:0,0:0:0:0:
468,233,140672,6,0,P|470:179|458:135,1,100
245,166,140943,1,8,0:0:0:0:
173,276,141078,2,0,L|65:273,1,100
102,105,141348,1,0,0:0:0:0:
1,351,141483,2,0,L|122:354,1,100,8|0,0:0|0:0,0:0:0:0:
278,288,141753,6,0,B|288:240|288:240|274:173,1,100
203,53,142024,1,8,0:0:0:0:
435,94,142159,2,0,L|428:218,1,100
360,357,142429,1,0,0:0:0:0:
175,188,142564,2,0,L|170:71,1,100,8|0,0:0|0:0,0:0:0:0:
287,242,142834,2,0,L|275:365,1,100
59,166,143105,1,8,0:0:0:0:
244,34,143240,2,0,B|301:26|301:26|354:49,1,100
442,228,143510,5,8,0:0:0:0:
437,252,143578,1,8,0:0:0:0:
432,276,143645,1,8,0:0:0:0:
428,300,143713,1,8,0:0:0:0:
423,324,143780,2,0,B|374:323|374:323|327:344|327:344|271:342,1,150,4|0,0:0|0:0,0:0:0:0:
