osu file format v14

[General]
AudioFilename: Yual - AnoYozora.mp3
AudioLeadIn: 1000
PreviewTime: 34310
Countdown: 0
SampleSet: Soft
StackLeniency: 0.4
Mode: 0
LetterboxInBreaks: 0
WidescreenStoryboard: 0

[Editor]
DistanceSpacing: 1.2
BeatDivisor: 4
GridSize: 4
TimelineZoom: 1.1

[Metadata]
Title:Asu no Yozora Shoukaihan
TitleUnicode:アスノヨゾラ哨戒班
Artist:Yuaru
ArtistUnicode:ゆある
Creator:Akitoshi
Version:Insane
Source:
Tags:Orangestar 歌い手 Utaite Night Sky Patrol Of Tomorrow 歌ってみた Utattemita Sang it cover kenken 藤 Fuji Linada dqs01733
BeatmapID:853926
BeatmapSetID:384772

[Difficulty]
HPDrainRate:6
CircleSize:4
OverallDifficulty:7
ApproachRate:9
SliderMultiplier:1.5
SliderTickRate:2

[Events]
//Background and Video events
0,0,"3qq6.png",0,0
//Break Periods
2,77159,85927
2,118348,122575
//Storyboard Layer 0 (Background)
//Storyboard Layer 1 (Fail)
//Storyboard Layer 2 (Pass)
//Storyboard Layer 3 (Foreground)
//Storyboard Sound Samples

[TimingPoints]
1392,324.324324324324,4,2,0,40,1,0
1392,-133.333333333333,4,2,0,40,0,0
6337,-133.333333333333,4,2,0,10,0,0
6419,-133.333333333333,4,2,0,40,0,0
11770,-100,4,2,1,60,0,0
22148,-133.333333333333,4,2,0,40,0,0
24175,-133.333333333333,4,2,0,10,0,0
24743,-133.333333333333,4,2,0,40,0,0
26851,-111.111111111111,4,2,0,40,0,0
27337,-100,4,2,1,40,0,0
29932,-100,4,2,2,40,0,0
31229,-100,4,2,2,50,0,0
32527,-100,4,2,2,60,0,0
34473,-117.647058823529,4,2,1,40,0,0
34797,-133.333333333333,4,2,0,40,0,0
35121,-76.9230769230769,4,2,1,80,0,1
60905,-90.9090909090909,4,2,1,80,0,0
76473,-133.333333333333,4,2,1,80,0,0
86527,-133.333333333333,4,2,1,40,0,0
87013,-100,4,2,1,60,0,0
97229,-100,4,2,2,60,0,0
107770,-100,4,2,2,5,0,0
107932,-100,4,2,2,60,0,0
112959,-100,4,2,2,5,0,0
113121,-100,4,2,2,60,0,0
118148,-133.333333333333,4,2,1,40,0,0
123175,-100,4,2,1,60,0,0
125932,-100,4,2,2,60,0,0
130635,-111.111111111111,4,2,1,40,0,0
131121,-76.9230769230769,4,2,1,80,0,1
141337,-71.4285714285714,4,2,1,80,0,1
156905,-90.9090909090909,4,2,1,60,0,0
172473,-133.333333333333,4,2,1,60,0,0

[Colours]
Combo1 : 18,124,255
Combo2 : 114,226,226

[HitObjects]
103,310,1229,1,0,0:0:0:0:
103,310,1392,2,0,L|136:257,1,56.2500021457673
202,284,1716,2,0,L|204:221,1,56.2500021457673,2|0,0:0|0:0,0:0:0:0:
275,212,2040,2,0,L|245:156,1,56.2500021457673,0|0,0:0|0:0,0:0:0:0:
213,98,2364,1,2,0:0:0:0:
185,17,2527,6,0,P|247:20|288:57,1,112.500004291535
313,118,3013,2,0,L|376:113,1,56.2500021457673,2|0,0:0|0:0,0:0:0:0:
389,183,3337,2,0,L|326:188,2,56.2500021457673,0|0|2,0:0|0:0|0:0,0:0:0:0:
472,200,3824,6,0,P|481:261|467:328,1,112.500004291535,0|0,0:0|0:0,0:0:0:0:
417,358,4310,2,0,P|383:351|351:354,1,56.2500021457673,2|0,0:0|0:0,0:0:0:0:
288,356,4635,2,0,P|254:363|222:360,1,56.2500021457673,0|0,0:0|0:0,0:0:0:0:
160,350,4959,1,2,0:0:0:0:
88,305,5121,6,0,B|81:224|81:224|98:186,1,112.500004291535
122,127,5608,1,2,0:0:0:0:
72,72,5770,2,0,P|42:75|6:69,1,56.2500021457673
151,35,6094,2,0,P|199:39|250:24,1,84.3750032186509
256,28,6419,6,0,L|275:152,1,112.500004291535,0|0,0:0|0:0,0:0:0:0:
282,211,6905,1,2,0:0:0:0:
283,284,7067,2,0,P|245:290|211:287,1,56.2500021457673,0|0,0:0|0:0,0:0:0:0:
226,216,7391,2,0,P|264:210|298:213,1,56.2500021457673,0|2,0:0|0:0,0:0:0:0:
366,208,7716,6,0,P|395:169|385:91,1,112.500004291535
350,48,8202,2,0,L|285:39,1,56.2500021457673,2|0,0:0|0:0,0:0:0:0:
240,90,8527,2,0,L|184:97,1,56.2500021457673,0|0,0:0|0:0,0:0:0:0:
112,86,8851,1,2,0:0:0:0:
28,99,9013,6,0,P|21:156|27:228,1,112.500004291535
56,276,9500,1,2,0:0:0:0:
125,228,9662,2,0,P|181:224|236:231,1,112.500004291535
308,244,10148,1,2,0:0:0:0:
388,218,10310,6,0,B|410:169|410:169|404:106,1,112.500004291535
331,99,10797,2,0,L|337:167,1,56.2500021457673,2|0,0:0|0:0,0:0:0:0:
263,150,11121,2,0,L|257:82,1,56.2500021457673
184,90,11446,2,0,L|190:158,1,56.2500021457673,2|0,0:0|0:0,0:0:0:0:
120,235,11770,6,0,P|77:243|16:226,1,75,6|0,0:0|0:0,0:0:0:0:
189,146,12094,2,0,P|232:138|293:155,1,75,2|0,0:0|0:0,0:0:0:0:
363,194,12419,2,0,P|400:197|436:190,1,75,2|0,0:0|0:0,0:0:0:0:
494,92,12743,1,2,0:0:0:0:
387,17,12905,6,0,P|350:14|314:21,1,75,0|2,0:0|0:0,0:0:0:0:
195,68,13229,1,0,0:0:0:0:
227,236,13391,2,0,P|265:248|299:246,1,75,2|0,0:0|0:0,0:0:0:0:
419,144,13716,2,0,P|381:132|347:134,1,75,2|0,0:0|0:0,0:0:0:0:
299,245,14040,1,2,0:0:0:0:
186,143,14202,6,0,L|199:37,1,75,0|2,0:0|0:0,0:0:0:0:
89,107,14527,2,0,L|76:213,1,75,0|2,0:0|0:0,0:0:0:0:
69,293,14851,1,0,0:0:0:0:
214,256,15013,2,0,P|246:277|268:306,1,75,2|0,0:0|0:0,0:0:0:0:
169,359,15337,1,2,0:0:0:0:
259,174,15500,6,0,P|317:217|355:286,1,150,0|0,0:0|0:0,0:0:0:0:
434,363,15986,1,2,0:0:0:0:
480,260,16148,2,0,L|487:180,1,75,0|2,0:0|0:0,0:0:0:0:
406,105,16473,2,0,L|399:185,1,75,0|2,0:0|0:0,0:0:0:0:
280,270,16797,5,4,0:0:0:0:
194,146,16959,1,2,0:0:0:0:
311,166,17121,1,0,0:0:0:0:
185,248,17283,2,0,P|184:292|205:335,1,75,2|0,0:0|0:0,0:0:0:0:
311,166,17608,2,0,P|312:122|291:79,1,75,2|0,0:0|0:0,0:0:0:0:
194,146,17932,1,2,0:0:0:0:
194,320,18094,6,0,B|252:334|312:302|312:302|290:271,1,150
196,149,18581,1,2,0:0:0:0:
47,221,18743,2,0,B|41:190|41:190|48:126,1,75,0|2,0:0|0:0,0:0:0:0:
168,26,19067,5,0,0:0:0:0:
125,184,19229,1,2,0:0:0:0:
190,32,19391,2,0,P|228:29|264:36,1,75,0|2,0:0|0:0,0:0:0:0:
343,165,19716,5,0,0:0:0:0:
185,122,19878,1,2,0:0:0:0:
337,187,20040,2,0,P|343:228|332:275,1,75,0|2,0:0|0:0,0:0:0:0:
202,295,20364,6,0,L|207:207,2,75,0|2|0,0:0|0:0|0:0,0:0:0:0:
125,164,20851,2,0,P|152:136|192:121,1,75,2|0,0:0|0:0,0:0:0:0:
303,102,21175,1,2,0:0:0:0:
410,155,21337,2,0,P|425:214|376:306,1,150,0|0,0:0|0:0,0:0:0:0:
313,212,21824,2,0,P|298:158|310:84,1,112.5,2|0,0:0|0:0,0:0:0:0:
306,74,22148,6,0,B|243:84|243:84|197:69|197:69|152:104|71:90,1,225.000008583069,4|0,0:0|0:0,0:0:0:0:
40,254,23121,1,0,0:0:0:0:
40,254,23283,2,0,L|43:327,1,56.2500021457673,0|0,0:0|0:0,0:0:0:0:
122,337,23608,2,0,L|116:204,1,112.500004291535,0|0,0:0|0:0,0:0:0:0:
179,167,24094,2,0,B|205:202|198:240|198:240|241:216|276:219|276:219|316:236,1,196.875007510186,0|0,0:0|0:0,0:0:0:0:
335,245,24743,6,0,L|325:319,1,56.2500021457673,0|0,0:0|0:0,0:0:0:0:
390,187,25067,2,0,L|411:239,1,56.2500021457673,0|0,0:0|0:0,0:0:0:0:
412,109,25391,2,0,L|456:143,2,56.2500021457673
305,97,25878,6,0,P|249:106|188:80,1,112.500004291535
121,12,26364,1,0,0:0:0:0:
37,79,26527,2,0,P|34:109|48:154,1,56.2500021457673
60,260,26851,6,0,P|38:289|8:307,2,67.4999979400635
188,191,27337,6,0,P|230:189|284:173,1,75,6|0,0:0|0:0,0:0:0:0:
344,279,27662,2,0,P|342:237|326:183,1,75,2|0,0:0|0:0,0:0:0:0:
431,122,27986,2,0,P|389:124|335:140,1,75,2|0,0:0|0:0,0:0:0:0:
273,31,28310,2,0,P|275:73|291:127,1,75,2|0,0:0|0:0,0:0:0:0:
344,279,28635,5,2,0:0:0:0:
243,330,28797,1,0,0:0:0:0:
262,181,28959,1,2,0:0:0:0:
161,232,29121,1,0,0:0:0:0:
212,121,29283,2,0,P|247:104|307:116,1,75,2|0,0:0|0:0,0:0:0:0:
412,124,29608,1,2,0:0:0:0:
446,231,29770,1,0,0:0:0:0:
344,279,29932,6,0,L|292:289,3,37.5,2|0|0|0,0:0|0:0|0:0|0:0,0:0:0:0:
236,260,30256,2,0,L|184:270,3,37.5,2|0|0|0,0:0|0:0|0:0|0:0,0:0:0:0:
125,248,30581,5,2,0:0:0:0:
112,234,30662,1,0,0:0:0:0:
102,218,30743,1,0,0:0:0:0:
95,201,30824,1,0,0:0:0:0:
92,182,30905,2,0,L|101:127,3,37.5,2|0|0|0,0:0|0:0|0:0|0:0,0:0:0:0:
122,74,31229,5,2,0:0:0:0:
133,59,31310,1,0,0:0:0:0:
148,48,31391,1,0,0:0:0:0:
165,45,31473,1,0,0:0:0:0:
183,44,31554,2,0,L|241:51,3,37.5,2|0|0|0,0:0|0:0|0:0|0:0,0:0:0:0:
235,129,31878,6,0,L|293:136,3,37.5,2|0|0|0,0:0|0:0|0:0|0:0,0:0:0:0:
294,212,32202,2,0,L|351:218,3,37.5,2|0|0|0,0:0|0:0|0:0|0:0,0:0:0:0:
430,210,32527,5,2,0:0:0:0:
451,192,32608,1,0,0:0:0:0:
466,168,32689,1,0,0:0:0:0:
474,141,32770,1,0,0:0:0:0:
473,113,32851,2,0,L|469:75,3,37.5,2|0|0|0,0:0|0:0|0:0|0:0,0:0:0:0:
360,46,33175,6,0,L|364:84,3,37.5,2|0|0|0,0:0|0:0|0:0|0:0,0:0:0:0:
260,130,33500,2,0,L|255:91,3,37.5,2|0|0|0,0:0|0:0|0:0|0:0,0:0:0:0:
164,26,33824,5,2,0:0:0:0:
130,29,33905,1,0,0:0:0:0:
98,41,33986,1,0,0:0:0:0:
75,66,34067,1,0,0:0:0:0:
61,96,34148,2,0,P|49:132|48:183,1,75,2|0,0:0|0:0,0:0:0:0:
43,325,34473,5,2,0:0:0:0:
91,248,34635,1,0,0:0:0:0:
157,315,34797,2,0,P|186:324|230:326,1,56.2500021457673
295,319,35121,6,0,P|282:269|293:217,1,97.4999955368044,6|0,0:0|0:0,0:0:0:0:
395,122,35446,2,0,P|408:172|397:224,1,97.4999955368044,8|0,0:0|0:0,0:0:0:0:
234,114,35770,2,0,P|221:64|232:12,1,97.4999955368044,2|0,0:0|0:0,0:0:0:0:
338,59,36094,1,8,0:0:0:0:
290,225,36256,6,0,P|189:239|93:203,1,194.999991073609,0|0,0:0|0:0,0:0:0:0:
163,343,36743,2,0,P|207:339|270:349,1,97.4999955368044,8|0,0:0|0:0,0:0:0:0:
405,358,37067,1,2,0:0:0:0:
463,224,37229,1,0,0:0:0:0:
463,224,37310,1,0,0:0:0:0:
463,224,37391,2,0,L|447:121,1,97.4999955368044,8|0,0:0|0:0,0:0:0:0:
275,129,37716,6,0,L|291:232,1,97.4999955368044,2|0,0:0|0:0,0:0:0:0:
151,271,38040,1,8,0:0:0:0:
53,162,38202,2,0,P|59:116|108:63,1,97.4999955368044,0|2,0:0|0:0,0:0:0:0:
227,27,38527,1,0,0:0:0:0:
159,156,38689,1,8,0:0:0:0:
303,64,38851,6,0,P|387:58|440:168,1,194.999991073609
367,330,39337,2,0,B|346:263|374:200|374:200|347:132,1,194.999991073609,8|2,0:0|0:0,0:0:0:0:
219,207,39824,2,0,P|208:254|222:323,1,97.4999955368044,0|8,0:0|0:0,0:0:0:0:
71,334,40148,6,0,P|64:238|98:120,1,194.999991073609,6|0,0:0|0:0,0:0:0:0:
209,60,40635,1,8,0:0:0:0:
219,207,40797,1,0,0:0:0:0:
118,50,40959,2,0,P|68:47|15:77,1,97.4999955368044,2|0,0:0|0:0,0:0:0:0:
2,181,41283,1,8,0:0:0:0:
71,334,41446,6,0,B|112:345|112:345|183:342,1,97.4999955368044,0|2,0:0|0:0,0:0:0:0:
312,329,41770,1,0,0:0:0:0:
368,172,41932,2,0,L|348:72,1,97.4999955368044,8|0,0:0|0:0,0:0:0:0:
454,177,42256,2,0,L|474:277,1,97.4999955368044,2|0,0:0|0:0,0:0:0:0:
291,230,42581,2,0,L|271:130,1,97.4999955368044,8|0,0:0|0:0,0:0:0:0:
150,53,42905,6,0,P|106:75|78:118,1,97.4999955368044,2|0,0:0|0:0,0:0:0:0:
61,259,43229,1,8,0:0:0:0:
192,195,43391,2,0,P|284:162|396:206,1,194.999991073609
290,321,43878,1,8,0:0:0:0:
71,368,44040,6,0,P|38:276|82:164,1,194.999991073609
150,53,44527,2,0,L|265:46,1,97.4999955368044,8|0,0:0|0:0,0:0:0:0:
402,39,44851,1,2,0:0:0:0:
470,178,45013,1,8,0:0:0:0:
472,211,45094,1,8,0:0:0:0:
465,245,45175,1,8,0:0:0:0:
449,275,45256,1,8,0:0:0:0:
426,299,45337,6,0,B|396:328|353:327|353:327|317:309|317:309|271:305|221:334,1,194.999991073609,6|0,0:0|0:0,0:0:0:0:
92,284,45824,2,0,P|77:236|72:179,1,97.4999955368044,8|0,0:0|0:0,0:0:0:0:
134,57,46148,2,0,B|203:46|203:46|258:62|258:62|346:54,1,194.999991073609,2|8,0:0|0:0,0:0:0:0:
436,144,46635,6,0,B|367:155|367:155|312:139|312:139|224:147,1,194.999991073609
104,187,47121,2,0,P|109:235|124:281,1,97.4999955368044,8|0,0:0|0:0,0:0:0:0:
249,355,47446,1,2,0:0:0:0:
304,220,47608,1,0,0:0:0:0:
104,187,47770,2,0,P|52:193|-29:184,1,97.4999955368044,8|0,0:0|0:0,0:0:0:0:
152,359,48094,6,0,P|204:353|285:362,1,97.4999955368044,2|0,0:0|0:0,0:0:0:0:
395,371,48419,1,8,0:0:0:0:
425,228,48581,2,0,P|402:126|310:62,1,194.999991073609,0|0,0:0|0:0,0:0:0:0:
232,173,49067,1,8,0:0:0:0:
128,69,49229,6,0,P|56:132|38:226,1,194.999991073609,0|0,0:0|0:0,0:0:0:0:
142,330,49716,2,0,P|214:267|232:173,1,194.999991073609,8|2,0:0|0:0,0:0:0:0:
335,70,50202,2,0,B|336:126|336:126|369:180,1,97.4999955368044,0|8,0:0|0:0,0:0:0:0:
411,219,50446,1,8,0:0:0:0:
411,219,50527,6,0,B|410:273|441:325|441:325|397:307|345:312,1,194.999991073609,6|0,0:0|0:0,0:0:0:0:
206,282,51013,2,0,P|163:258|114:256,1,97.4999955368044,8|0,0:0|0:0,0:0:0:0:
94,61,51337,2,0,P|141:73|189:62,1,97.4999955368044,2|0,0:0|0:0,0:0:0:0:
335,70,51662,1,8,0:0:0:0:
232,173,51824,6,0,P|135:156|27:196,1,194.999991073609
111,358,52310,2,0,P|163:360|229:346,1,97.4999955368044,8|0,0:0|0:0,0:0:0:0:
318,241,52635,1,2,0:0:0:0:
428,351,52797,1,0,0:0:0:0:
402,197,52959,2,0,P|363:158|308:144,1,97.4999955368044,8|0,0:0|0:0,0:0:0:0:
167,149,53283,5,2,0:0:0:0:
318,241,53446,1,0,0:0:0:0:
247,102,53608,2,0,B|241:65|241:65|250:4,1,97.4999955368044,8|0,0:0|0:0,0:0:0:0:
392,67,53932,1,2,0:0:0:0:
318,241,54094,6,0,B|281:247|281:247|220:238,1,97.4999955368044,0|8,0:0|0:0,0:0:0:0:
90,152,54419,2,0,B|127:146|127:146|188:155,1,97.4999955368044,0|2,0:0|0:0,0:0:0:0:
125,298,54743,1,0,0:0:0:0:
15,160,54905,2,0,P|25:113|84:78,1,97.4999955368044,8|0,0:0|0:0,0:0:0:0:
204,53,55229,1,2,0:0:0:0:
298,164,55391,1,8,0:0:0:0:
326,182,55472,1,8,0:0:0:0:
358,191,55553,1,8,0:0:0:0:
392,191,55634,1,8,0:0:0:0:
425,181,55716,6,0,B|475:136|458:37|458:37|414:64,1,194.999991073609,6|0,0:0|0:0,0:0:0:0:
281,94,56202,2,0,P|235:105|158:90,1,97.4999955368044,8|0,0:0|0:0,0:0:0:0:
77,200,56527,2,0,P|123:189|200:204,1,97.4999955368044,2|0,0:0|0:0,0:0:0:0:
309,243,56851,1,8,0:0:0:0:
371,110,57013,6,0,P|425:155|451:278,1,194.999991073609,0|0,0:0|0:0,0:0:0:0:
328,352,57500,2,0,B|288:361|288:361|203:350,1,97.4999955368044,8|0,0:0|0:0,0:0:0:0:
128,251,57824,2,0,B|168:242|168:242|253:253,1,97.4999955368044,2|0,0:0|0:0,0:0:0:0:
369,260,58148,1,8,0:0:0:0:
280,143,58310,6,0,B|253:66|332:11|332:11|379:28,1,194.999991073609
482,119,58797,2,0,P|491:171|481:220,1,97.4999955368044,8|0,0:0|0:0,0:0:0:0:
389,326,59121,2,0,P|337:335|288:325,1,97.4999955368044,2|0,0:0|0:0,0:0:0:0:
188,224,59446,1,8,0:0:0:0:
72,313,59608,6,0,P|45:201|87:119,1,194.999991073609
205,64,60094,1,8,0:0:0:0:
188,224,60256,1,0,0:0:0:0:
320,79,60419,1,2,0:0:0:0:
303,239,60581,1,8,0:0:0:0:
300,273,60662,1,8,0:0:0:0:
297,306,60743,1,8,0:0:0:0:
295,340,60824,1,8,0:0:0:0:
292,374,60905,6,0,B|328:391|361:383|361:383|392:369|392:369|433:363|482:381,1,165.000005035401,6|0,0:0|0:0,0:0:0:0:
507,261,61391,2,0,P|463:260|406:245,1,82.5000025177003,8|0,0:0|0:0,0:0:0:0:
303,239,61716,2,0,P|259:240|202:255,1,82.5000025177003,2|0,0:0|0:0,0:0:0:0:
101,278,62040,1,8,0:0:0:0:
38,175,62202,1,0,0:0:0:0:
38,175,62283,1,0,0:0:0:0:
38,175,62364,6,0,L|54:67,1,82.5000025177003,2|0,0:0|0:0,0:0:0:0:
159,34,62689,2,0,L|143:142,1,82.5000025177003,8|0,0:0|0:0,0:0:0:0:
189,235,63013,1,2,0:0:0:0:
263,136,63175,1,0,0:0:0:0:
238,299,63337,2,0,P|203:315|157:310,1,82.5000025177003,8|0,0:0|0:0,0:0:0:0:
80,292,63581,1,0,0:0:0:0:
80,292,63662,6,0,P|66:331|66:374,1,82.5000025177003,2|0,0:0|0:0,0:0:0:0:
131,194,63986,2,0,P|147:159|147:116,1,82.5000025177003,8|0,0:0|0:0,0:0:0:0:
279,57,64310,2,0,P|263:92|263:135,1,82.5000025177003,2|0,0:0|0:0,0:0:0:0:
300,254,64635,1,8,0:0:0:0:
384,164,64797,1,0,0:0:0:0:
384,164,64878,1,0,0:0:0:0:
384,164,64959,6,0,L|491:168,1,82.5000025177003,2|0,0:0|0:0,0:0:0:0:
382,257,65283,2,0,L|275:253,1,82.5000025177003,8|0,0:0|0:0,0:0:0:0:
167,243,65608,1,2,0:0:0:0:
57,169,65770,1,8,0:0:0:0:
49,142,65851,1,8,0:0:0:0:
49,113,65932,1,8,0:0:0:0:
57,85,66013,1,8,0:0:0:0:
72,61,66094,6,0,B|152:76|152:76|236:48,1,165.000005035401,6|0,0:0|0:0,0:0:0:0:
303,161,66581,2,0,L|215:190,1,82.5000025177003,8|0,0:0|0:0,0:0:0:0:
99,228,66905,1,2,0:0:0:0:
192,321,67067,1,0,0:0:0:0:
35,268,67229,2,0,P|24:220|45:175,1,82.5000025177003,8|0,0:0|0:0,0:0:0:0:
49,113,67473,1,0,0:0:0:0:
49,113,67554,6,0,L|155:106,1,82.5000025177003,2|0,0:0|0:0,0:0:0:0:
182,223,67878,2,0,L|76:230,1,82.5000025177003,8|0,0:0|0:0,0:0:0:0:
40,339,68202,2,0,L|146:332,1,82.5000025177003,2|0,0:0|0:0,0:0:0:0:
271,321,68527,1,8,0:0:0:0:
253,173,68689,1,0,0:0:0:0:
253,173,68770,1,0,0:0:0:0:
253,173,68851,6,0,P|246:131|263:77,1,82.5000025177003,2|0,0:0|0:0,0:0:0:0:
342,191,69175,2,0,P|349:233|332:287,1,82.5000025177003,8|0,0:0|0:0,0:0:0:0:
432,365,69500,2,0,P|425:325|434:285,1,82.5000025177003,2|0,0:0|0:0,0:0:0:0:
483,162,69824,1,8,0:0:0:0:
441,36,69986,1,0,0:0:0:0:
441,36,70067,1,0,0:0:0:0:
441,36,70148,6,0,P|394:26|336:30,1,82.5000025177003,2|0,0:0|0:0,0:0:0:0:
202,41,70473,2,0,P|169:76|144:128,1,82.5000025177003,8|0,0:0|0:0,0:0:0:0:
139,262,70797,2,0,P|174:294|226:319,1,82.5000025177003,2|0,0:0|0:0,0:0:0:0:
354,354,71121,1,8,0:0:0:0:
354,354,71202,1,8,0:0:0:0:
354,354,71283,6,0,P|405:281|407:199,1,165.000005035401,6|0,0:0|0:0,0:0:0:0:
275,162,71770,2,0,P|249:200|239:256,1,82.5000025177003,8|0,0:0|0:0,0:0:0:0:
118,180,72094,2,0,P|144:142|154:86,1,82.5000025177003,2|0,0:0|0:0,0:0:0:0:
14,85,72419,1,8,0:0:0:0:
51,219,72581,1,0,0:0:0:0:
51,219,72662,1,0,0:0:0:0:
51,219,72743,6,0,P|80:248|137:256,1,82.5000025177003,2|0,0:0|0:0,0:0:0:0:
275,162,73067,2,0,P|246:133|189:125,1,82.5000025177003,8|0,0:0|0:0,0:0:0:0:
228,259,73391,2,0,P|257:288|314:296,1,82.5000025177003,2|0,0:0|0:0,0:0:0:0:
427,275,73716,1,8,0:0:0:0:
482,131,73878,1,0,0:0:0:0:
482,131,73959,1,0,0:0:0:0:
482,131,74040,6,0,L|470:29,1,82.5000025177003,2|0,0:0|0:0,0:0:0:0:
334,72,74364,2,0,L|346:174,1,82.5000025177003,8|0,0:0|0:0,0:0:0:0:
207,123,74689,2,0,L|195:21,1,82.5000025177003,2|0,0:0|0:0,0:0:0:0:
68,95,75013,1,8,0:0:0:0:
168,192,75175,1,0,0:0:0:0:
168,192,75256,1,0,0:0:0:0:
168,192,75337,6,0,P|210:203|257:183,1,82.5000025177003,2|0,0:0|0:0,0:0:0:0:
356,279,75662,2,0,P|314:268|267:288,1,82.5000025177003,8|0,0:0|0:0,0:0:0:0:
147,331,75986,1,2,0:0:0:0:
82,207,76148,1,8,0:0:0:0:
71,181,76229,1,8,0:0:0:0:
65,153,76310,1,8,0:0:0:0:
64,124,76391,1,8,0:0:0:0:
68,95,76473,6,0,B|107:84|107:84|146:97|146:97|166:85|190:84|190:84|181:66|146:66,1,168.750006437302,6|0,0:0|0:0,0:0:0:0:
147,101,86527,6,0,L|72:96,2,56.2500021457673,0|0|0,0:0|0:0|0:0,0:0:0:0:
258,115,87013,6,0,P|284:182|254:257,1,150,2|8,0:0|0:0,0:0:0:0:
165,317,87500,1,0,0:0:0:0:
267,363,87662,2,0,P|306:370|363:359,2,75,2|0|2,0:0|0:0|0:0,0:0:0:0:
165,317,88148,6,0,P|108:266|92:189,1,150
99,83,88635,1,8,0:0:0:0:
194,23,88797,1,0,0:0:0:0:
258,115,88959,2,0,P|297:121|345:115,1,75,2|0,0:0|0:0,0:0:0:0:
442,139,89283,2,0,P|448:178|442:226,1,75,2|0,0:0|0:0,0:0:0:0:
425,324,89608,6,0,P|471:337|520:334,2,75,2|0|8,0:0|0:0|0:0,0:0:0:0:
312,329,90094,2,0,L|231:337,1,75,0|2,0:0|0:0,0:0:0:0:
312,239,90419,2,0,L|231:231,1,75,0|2,0:0|0:0,0:0:0:0:
109,249,90743,1,0,0:0:0:0:
121,114,90905,6,0,P|135:79|173:50,1,75,2|0,0:0|0:0,0:0:0:0:
274,54,91229,2,0,P|260:89|222:118,1,75,8|0,0:0|0:0,0:0:0:0:
340,146,91554,2,0,P|354:111|392:82,1,75,2|0,0:0|0:0,0:0:0:0:
484,131,91878,2,0,P|464:188|420:234,1,112.5,2|0,0:0|0:0,0:0:0:0:
427,252,92202,6,0,P|439:287|435:344,1,75,2|0,0:0|0:0,0:0:0:0:
333,364,92527,1,8,0:0:0:0:
279,225,92689,2,0,P|212:201|130:237,1,150,0|0,0:0|0:0,0:0:0:0:
212,313,93175,1,2,0:0:0:0:
356,227,93337,6,0,P|344:184|314:157,1,75,0|2,0:0|0:0,0:0:0:0:
434,182,93662,2,0,P|446:139|476:112,1,75,0|8,0:0|0:0,0:0:0:0:
391,33,93986,1,0,0:0:0:0:
290,83,94148,2,0,P|246:94|208:81,1,75,2|0,0:0|0:0,0:0:0:0:
105,94,94473,2,0,P|94:138|107:176,1,75,2|0,0:0|0:0,0:0:0:0:
84,276,94797,6,0,P|48:296|-2:303,2,75,2|0|8,0:0|0:0|0:0,0:0:0:0:
179,216,95283,2,0,B|217:213|217:213|268:223,1,75,0|2,0:0|0:0,0:0:0:0:
179,306,95608,2,0,B|217:309|217:309|268:299,1,75,0|2,0:0|0:0,0:0:0:0:
351,247,95932,1,0,0:0:0:0:
367,135,96094,6,0,L|337:50,1,75,2|0,0:0|0:0,0:0:0:0:
228,61,96419,2,0,L|258:146,1,75,8|0,0:0|0:0,0:0:0:0:
179,216,96743,2,0,P|136:220|83:210,1,75,2|0,0:0|0:0,0:0:0:0:
78,214,96986,1,0,0:0:0:0:
52,207,97067,1,0,0:0:0:0:
14,101,97229,6,0,L|25:52,3,37.5,4|0|0|0,0:0|0:0|0:0|0:0,0:0:0:0:
91,34,97554,1,0,0:0:0:0:
117,36,97635,1,0,0:0:0:0:
142,38,97716,2,0,L|191:43,3,37.5,8|0|0|0,0:0|0:0|0:0|0:0,0:0:0:0:
238,88,98040,5,2,0:0:0:0:
260,101,98121,1,0,0:0:0:0:
285,108,98202,1,0,0:0:0:0:
311,107,98283,1,0,0:0:0:0:
336,99,98364,2,0,L|386:106,3,37.5,8|0|0|0,0:0|0:0|0:0|0:0,0:0:0:0:
445,127,98689,5,2,0:0:0:0:
452,152,98770,1,0,0:0:0:0:
454,178,98851,1,0,0:0:0:0:
451,204,98932,1,0,0:0:0:0:
441,228,99013,2,0,L|459:268,3,37.5,8|0|0|0,0:0|0:0|0:0|0:0,0:0:0:0:
386,288,99337,6,0,L|368:248,3,37.5,2|0|0|0,0:0|0:0|0:0|0:0,0:0:0:0:
296,271,99662,2,0,L|311:305,3,37.5,8|0|0|0,0:0|0:0|0:0|0:0,0:0:0:0:
253,353,99986,5,2,0:0:0:0:
228,361,100067,1,0,0:0:0:0:
202,364,100148,1,0,0:0:0:0:
176,363,100229,1,0,0:0:0:0:
150,356,100310,2,0,L|80:364,3,37.5,8|0|0|0,0:0|0:0|0:0|0:0,0:0:0:0:
68,298,100635,5,2,0:0:0:0:
58,273,100716,1,0,0:0:0:0:
54,247,100797,1,0,0:0:0:0:
56,221,100878,1,0,0:0:0:0:
63,196,100959,2,0,L|49:150,3,37.5,8|0|0|0,0:0|0:0|0:0|0:0,0:0:0:0:
52,85,101283,5,2,0:0:0:0:
77,88,101364,1,0,0:0:0:0:
104,88,101445,1,0,0:0:0:0:
130,85,101526,1,0,0:0:0:0:
155,78,101608,2,0,L|222:92,3,37.5,8|0|0|0,0:0|0:0|0:0|0:0,0:0:0:0:
243,141,101932,2,0,L|310:127,3,37.5,2|0|0|0,0:0|0:0|0:0|0:0,0:0:0:0:
354,131,102256,1,8,0:0:0:0:
379,135,102337,1,0,0:0:0:0:
406,140,102419,6,0,P|421:221|399:304,1,150,6|0,0:0|0:0,0:0:0:0:
271,349,102905,6,0,L|218:345,3,37.5,8|0|0|0,0:0|0:0|0:0|0:0,0:0:0:0:
208,275,103229,2,0,L|155:279,3,37.5,2|0|0|0,0:0|0:0|0:0|0:0,0:0:0:0:
95,268,103554,1,8,0:0:0:0:
81,245,103635,1,0,0:0:0:0:
73,220,103716,1,0,0:0:0:0:
70,194,103797,1,0,0:0:0:0:
71,168,103878,6,0,L|44:128,3,37.5,2|0|0|0,0:0|0:0|0:0|0:0,0:0:0:0:
108,89,104202,2,0,L|135:129,3,37.5,8|0|0|0,0:0|0:0|0:0|0:0,0:0:0:0:
183,172,104527,5,2,0:0:0:0:
207,182,104608,1,0,0:0:0:0:
232,187,104689,1,0,0:0:0:0:
258,188,104770,1,0,0:0:0:0:
284,185,104851,1,8,0:0:0:0:
309,178,104932,1,0,0:0:0:0:
334,174,105013,6,0,P|398:212|417:303,1,150
418,307,105419,1,0,0:0:0:0:
403,329,105500,1,8,0:0:0:0:
384,346,105581,1,0,0:0:0:0:
360,357,105662,1,0,0:0:0:0:
335,362,105743,1,0,0:0:0:0:
309,357,105824,6,0,L|300:314,3,37.5,2|0|0|0,0:0|0:0|0:0|0:0,0:0:0:0:
255,260,106148,1,8,0:0:0:0:
229,254,106229,1,0,0:0:0:0:
203,249,106310,6,0,P|207:176|243:111,1,150
264,94,106716,1,0,0:0:0:0:
288,102,106797,1,8,0:0:0:0:
314,108,106878,1,0,0:0:0:0:
340,109,106959,1,0,0:0:0:0:
366,108,107040,1,0,0:0:0:0:
392,103,107121,2,0,B|432:88|432:88|465:141|463:225,1,150,2|8,0:0|0:0,0:0:0:0:
443,354,107608,6,0,B|403:362|403:362|354:358,1,75,6|0,0:0|0:0,0:0:0:0:
255,341,107932,1,0,0:0:0:0:
255,341,108013,1,0,0:0:0:0:
255,341,108094,1,8,0:0:0:0:
152,295,108256,1,0,0:0:0:0:
152,295,108337,1,0,0:0:0:0:
152,295,108418,1,2,0:0:0:0:
169,174,108581,2,0,L|159:121,2,37.5,0|0|8,0:0|0:0|0:0,0:0:0:0:
303,217,108905,6,0,P|363:228|452:196,1,150
481,55,109391,6,0,L|467:17,3,37.5,8|0|0|0,0:0|0:0|0:0|0:0,0:0:0:0:
393,31,109716,2,0,L|405:66,3,37.5,2|0|0|0,0:0|0:0|0:0|0:0,0:0:0:0:
343,108,110040,1,8,0:0:0:0:
317,112,110121,1,0,0:0:0:0:
291,116,110202,1,0,0:0:0:0:
265,113,110283,1,0,0:0:0:0:
240,107,110364,6,0,L|191:103,3,37.5,2|0|0|0,0:0|0:0|0:0|0:0,0:0:0:0:
128,116,110689,1,8,0:0:0:0:
105,128,110770,1,0,0:0:0:0:
88,148,110851,6,0,P|72:220|99:309,1,150,0|0,0:0|0:0,0:0:0:0:
194,351,111337,1,8,0:0:0:0:
293,282,111500,2,0,B|367:261|367:261|445:284,1,150
361,374,111986,1,8,0:0:0:0:
294,205,112148,2,0,B|368:184|368:184|446:207,1,150
503,103,112635,1,8,0:0:0:0:
390,62,112797,6,0,B|355:75|355:75|302:74,1,75,6|0,0:0|0:0,0:0:0:0:
210,46,113121,1,0,0:0:0:0:
210,46,113202,1,0,0:0:0:0:
210,46,113283,1,8,0:0:0:0:
104,87,113446,1,0,0:0:0:0:
104,87,113527,1,0,0:0:0:0:
104,87,113608,1,2,0:0:0:0:
136,203,113770,2,0,L|133:264,2,37.5,0|0|8,0:0|0:0|0:0,0:0:0:0:
235,151,114094,6,0,L|225:310,1,150,0|0,0:0|0:0,0:0:0:0:
323,357,114581,1,8,0:0:0:0:
349,358,114662,1,0,0:0:0:0:
374,354,114743,1,0,0:0:0:0:
399,344,114824,1,0,0:0:0:0:
420,329,114905,2,0,L|477:342,3,37.5,2|0|0|0,0:0|0:0|0:0|0:0,0:0:0:0:
469,263,115229,2,0,L|412:250,3,37.5,8|0|0|0,0:0|0:0|0:0|0:0,0:0:0:0:
359,235,115554,6,0,P|309:178|326:86,1,150,2|8,0:0|0:0,0:0:0:0:
373,16,116040,2,0,P|316:66|224:49,1,150
140,20,116527,1,8,0:0:0:0:
58,98,116689,6,0,L|72:251,1,150,0|0,0:0|0:0,0:0:0:0:
85,358,117175,1,8,0:0:0:0:
182,301,117337,2,0,P|244:282|328:303,1,150,0|8,0:0|0:0,0:0:0:0:
349,312,117743,5,8,0:0:0:0:
375,315,117824,1,8,0:0:0:0:
400,311,117905,1,8,0:0:0:0:
425,301,117986,1,8,0:0:0:0:
446,286,118067,1,8,0:0:0:0:
463,266,118148,5,6,0:0:0:0:
131,109,123175,6,0,P|163:122|219:126,1,75,4|2,0:0|0:0,0:0:0:0:
316,127,123500,2,0,L|338:86,2,37.5,0|0|2,0:0|0:0|0:0,0:0:0:0:
395,206,123824,2,0,L|436:228,2,37.5,0|0|2,0:0|0:0|0:0,0:0:0:0:
315,285,124148,2,0,L|293:326,2,37.5,0|0|2,0:0|0:0|0:0,0:0:0:0:
235,205,124473,6,0,L|192:283,1,75,0|2,0:0|0:0,0:0:0:0:
91,303,124797,2,0,L|44:307,2,37.5,0|0|2,0:0|0:0|0:0,0:0:0:0:
71,192,125121,2,0,L|24:196,2,37.5,0|0|2,0:0|0:0|0:0,0:0:0:0:
59,79,125446,2,0,L|12:83,2,37.5,0|0|2,0:0|0:0|0:0,0:0:0:0:
163,120,125770,1,0,0:0:0:0:
267,79,125932,6,0,P|305:92|371:90,1,75,2|0,0:0|0:0,0:0:0:0:
365,95,126175,1,0,0:0:0:0:
391,94,126256,1,2,0:0:0:0:
463,180,126419,2,0,L|508:186,2,37.5,0|0|2,0:0|0:0|0:0,0:0:0:0:
360,226,126743,2,0,L|315:220,2,37.5,0|0|2,0:0|0:0|0:0,0:0:0:0:
412,325,127067,1,0,0:0:0:0:
412,325,127148,1,0,0:0:0:0:
412,325,127229,6,0,L|313:310,1,75,2|0,0:0|0:0,0:0:0:0:
225,297,127554,1,2,0:0:0:0:
151,212,127716,2,0,P|157:134|206:81,1,150,0|0,0:0|0:0,0:0:0:0:
227,72,128121,1,0,0:0:0:0:
252,68,128202,1,2,0:0:0:0:
256,180,128364,1,0,0:0:0:0:
353,123,128527,6,0,L|440:135,1,75,2|0,0:0|0:0,0:0:0:0:
449,243,128851,2,0,L|362:231,1,75,2|0,0:0|0:0,0:0:0:0:
282,297,129175,1,2,0:0:0:0:
189,233,129337,1,0,0:0:0:0:
189,233,129419,1,0,0:0:0:0:
189,233,129500,2,0,L|114:243,1,75,2|0,0:0|0:0,0:0:0:0:
55,147,129824,6,0,L|129:136,1,75,2|0,0:0|0:0,0:0:0:0:
241,125,130148,1,2,0:0:0:0:
299,29,130310,2,0,P|341:76|350:142,1,112.5,0|0,0:0|0:0,0:0:0:0:
355,146,130635,5,0,0:0:0:0:
460,125,130797,1,0,0:0:0:0:
472,241,130959,1,8,0:0:0:0:
472,241,131040,1,8,0:0:0:0:
472,241,131121,6,0,P|423:321|306:326,1,194.999991073609,6|8,0:0|0:0,0:0:0:0:
186,299,131608,1,0,0:0:0:0:
118,169,131770,2,0,L|4:183,1,97.4999955368044,2|0,0:0|0:0,0:0:0:0:
112,66,132094,2,0,L|226:52,1,97.4999955368044,8|0,0:0|0:0,0:0:0:0:
286,46,132337,1,0,0:0:0:0:
286,46,132419,6,0,P|309:88|309:145,1,97.4999955368044,2|0,0:0|0:0,0:0:0:0:
264,275,132743,2,0,P|241:233|241:176,1,97.4999955368044,8|0,0:0|0:0,0:0:0:0:
424,186,133067,2,0,P|382:209|325:209,1,97.4999955368044,2|0,0:0|0:0,0:0:0:0:
166,259,133391,1,8,0:0:0:0:
63,127,133554,1,0,0:0:0:0:
63,127,133635,1,0,0:0:0:0:
63,127,133716,6,0,L|90:23,1,97.4999955368044,2|0,0:0|0:0,0:0:0:0:
191,165,134040,2,0,L|164:269,1,97.4999955368044,8|0,0:0|0:0,0:0:0:0:
326,212,134364,2,0,L|353:108,1,97.4999955368044,2|0,0:0|0:0,0:0:0:0:
454,221,134689,1,8,0:0:0:0:
316,336,134851,6,0,P|225:336|165:249,1,194.999991073609
124,118,135337,1,8,0:0:0:0:
73,286,135500,1,0,0:0:0:0:
239,183,135662,2,0,P|288:184|331:219,1,97.4999955368044,2|0,0:0|0:0,0:0:0:0:
382,346,135986,1,8,0:0:0:0:
502,218,136148,6,0,B|500:183|481:156|481:156|487:97|487:97|472:60|420:51,1,194.999991073609,6|0,0:0|0:0,0:0:0:0:
267,109,136635,2,0,P|240:68|231:13,1,97.4999955368044,8|0,0:0|0:0,0:0:0:0:
77,106,136959,2,0,P|104:147|113:202,1,97.4999955368044,2|0,0:0|0:0,0:0:0:0:
77,335,137283,1,8,0:0:0:0:
216,288,137446,6,0,B|281:275|346:294|346:294|372:271|425:278,1,194.999991073609,0|0,0:0|0:0,0:0:0:0:
481,151,137932,2,0,P|481:92|462:43,1,97.4999955368044,8|0,0:0|0:0,0:0:0:0:
322,53,138256,2,0,P|322:112|341:161,1,97.4999955368044,2|0,0:0|0:0,0:0:0:0:
406,276,138581,1,8,0:0:0:0:
234,240,138743,6,0,B|177:218|177:218|34:230,1,194.999991073609
81,87,139229,2,0,L|202:76,1,97.4999955368044,8|0,0:0|0:0,0:0:0:0:
322,53,139554,1,2,0:0:0:0:
214,152,139716,1,0,0:0:0:0:
243,8,139878,1,8,0:0:0:0:
323,185,140040,6,0,B|334:254|334:254|316:309|316:309|329:385,1,194.999991073609
252,215,140527,1,8,0:0:0:0:
401,306,140689,1,0,0:0:0:0:
230,347,140851,1,2,0:0:0:0:
171,181,141013,1,8,0:0:0:0:
178,147,141094,1,8,0:0:0:0:
198,119,141175,1,8,0:0:0:0:
228,101,141256,1,8,0:0:0:0:
263,91,141337,6,0,B|324:84|324:84|365:96|365:96|417:67|477:99,1,209.999993591309,6|0,0:0|0:0,0:0:0:0:
370,349,141824,1,8,0:0:0:0:
417,185,141986,1,0,0:0:0:0:
282,290,142148,1,2,0:0:0:0:
453,284,142310,1,0,0:0:0:0:
311,189,142472,1,8,0:0:0:0:
377,356,142635,1,0,0:0:0:0:
377,356,142716,1,0,0:0:0:0:
377,356,142797,6,0,B|328:375|328:375|237:373,1,104.999996795654,2|0,0:0|0:0,0:0:0:0:
89,277,143121,2,0,B|138:258|138:258|229:260,1,104.999996795654,8|0,0:0|0:0,0:0:0:0:
366,262,143446,1,2,0:0:0:0:
276,374,143608,1,0,0:0:0:0:
228,169,143770,1,8,0:0:0:0:
373,269,143932,1,0,0:0:0:0:
373,269,144013,1,0,0:0:0:0:
373,269,144094,6,0,B|385:229|385:229|378:149,1,104.999996795654,2|0,0:0|0:0,0:0:0:0:
286,9,144419,1,8,0:0:0:0:
282,185,144581,1,0,0:0:0:0:
180,40,144743,1,2,0:0:0:0:
348,97,144905,1,0,0:0:0:0:
177,150,145067,1,8,0:0:0:0:
293,16,145229,1,0,0:0:0:0:
293,16,145310,1,0,0:0:0:0:
293,16,145391,6,0,P|342:0|414:23,1,104.999996795654,2|0,0:0|0:0,0:0:0:0:
488,166,145716,1,8,0:0:0:0:
348,97,145878,1,0,0:0:0:0:
443,254,146040,2,0,P|405:275|330:278,1,104.999996795654,2|0,0:0|0:0,0:0:0:0:
171,236,146364,1,8,0:0:0:0:
171,236,146446,1,8,0:0:0:0:
171,236,146527,6,0,B|165:188|165:188|185:139|185:139|166:75|166:75|139:133,1,209.999993591309,6|0,0:0|0:0,0:0:0:0:
104,316,147013,2,0,P|150:338|219:329,1,104.999996795654,8|0,0:0|0:0,0:0:0:0:
315,225,147337,1,2,0:0:0:0:
171,236,147500,1,0,0:0:0:0:
284,126,147662,1,8,0:0:0:0:
296,324,147824,6,0,P|388:294|403:178,1,209.999993591309
293,21,148310,2,0,L|283:139,1,104.999996795654,8|0,0:0|0:0,0:0:0:0:
193,255,148635,1,2,0:0:0:0:
167,99,148797,1,0,0:0:0:0:
350,200,148959,1,8,0:0:0:0:
211,357,149121,6,0,P|126:333|99:215,1,209.999993591309
138,18,149608,1,8,0:0:0:0:
7,107,149770,1,0,0:0:0:0:
205,126,149932,2,0,B|261:122|261:122|328:128,1,104.999996795654,2|0,0:0|0:0,0:0:0:0:
435,221,150256,1,8,0:0:0:0:
273,356,150419,6,0,B|215:377|174:343|174:343|192:275|147:229,1,209.999993591309
61,60,150905,2,0,B|101:57|101:57|125:67|125:67|190:61,1,104.999996795654,8|0,0:0|0:0,0:0:0:0:
328,25,151229,1,2,0:0:0:0:
470,114,151391,1,8,0:0:0:0:
480,149,151472,1,8,0:0:0:0:
485,185,151553,1,8,0:0:0:0:
482,222,151634,1,8,0:0:0:0:
474,257,151716,6,0,B|412:255|361:306|361:306|350:255|292:222,1,209.999993591309,6|0,0:0|0:0,0:0:0:0:
151,263,152202,2,0,B|145:309|145:309|152:382,1,104.999996795654,8|0,0:0|0:0,0:0:0:0:
225,157,152527,2,0,B|231:111|231:111|224:38,1,104.999996795654,2|0,0:0|0:0,0:0:0:0:
110,159,152851,1,8,0:0:0:0:
242,303,153013,6,0,B|317:307|317:307|369:285|369:285|453:288,1,209.999993591309
481,122,153500,2,0,L|344:118,1,104.999996795654,8|0,0:0|0:0,0:0:0:0:
210,91,153824,1,2,0:0:0:0:
218,226,153986,1,0,0:0:0:0:
305,68,154148,1,8,0:0:0:0:
242,303,154310,6,0,B|193:315|161:281|161:281|99:320|32:264,1,209.999993591309
65,90,154797,2,0,P|115:82|180:103,1,104.999996795654,8|0,0:0|0:0,0:0:0:0:
325,213,155121,1,2,0:0:0:0:
161,281,155283,1,0,0:0:0:0:
166,95,155446,1,8,0:0:0:0:
318,291,155608,6,0,P|418:306|501:228,1,209.999993591309
402,85,156094,2,0,L|386:189,1,104.999996795654,8|0,0:0|0:0,0:0:0:0:
276,19,156419,1,2,0:0:0:0:
157,137,156581,1,0,0:0:0:0:
157,137,156662,1,0,0:0:0:0:
157,137,156743,2,0,L|90:129,1,52.4999983978272,8|0,0:0|0:0,0:0:0:0:
61,200,156905,6,0,L|238:222,1,165.000005035401,6|0,0:0|0:0,0:0:0:0:
346,241,157391,2,0,P|363:282|360:345,1,82.5000025177003,8|0,0:0|0:0,0:0:0:0:
440,220,157716,2,0,P|423:179|426:116,1,82.5000025177003,2|0,0:0|0:0,0:0:0:0:
476,31,158040,1,8,0:0:0:0:
358,70,158202,6,0,B|304:87|239:62|239:62|195:119,1,165.000005035401,0|0,0:0|0:0,0:0:0:0:
225,221,158689,2,0,P|248:258|242:332,1,82.5000025177003,8|0,0:0|0:0,0:0:0:0:
133,205,159013,2,0,P|110:168|116:94,1,82.5000025177003,2|0,0:0|0:0,0:0:0:0:
164,21,159337,1,8,0:0:0:0:
281,60,159500,6,0,B|312:103|315:156|315:156|346:140|397:142,1,165.000005035401,0|0,0:0|0:0,0:0:0:0:
411,268,159986,2,0,P|374:282|325:281,1,82.5000025177003,8|0,0:0|0:0,0:0:0:0:
231,368,160310,2,0,P|200:342|176:300,1,82.5000025177003,2|0,0:0|0:0,0:0:0:0:
53,349,160635,1,8,0:0:0:0:
29,219,160797,6,0,P|27:127|70:44,1,165.000005035401,0|0,0:0|0:0,0:0:0:0:
199,52,161283,2,0,L|312:63,1,82.5000025177003,8|0,0:0|0:0,0:0:0:0:
413,73,161608,1,2,0:0:0:0:
480,186,161770,1,8,0:0:0:0:
484,214,161851,1,8,0:0:0:0:
484,243,161932,1,8,0:0:0:0:
480,271,162013,1,8,0:0:0:0:
471,299,162094,6,0,B|446:328|410:329|410:329|365:297|293:303,1,165.000005035401,6|0,0:0|0:0,0:0:0:0:
188,290,162581,2,0,L|156:191,1,82.5000025177003,8|0,0:0|0:0,0:0:0:0:
274,142,162905,2,0,L|306:241,1,82.5000025177003,2|0,0:0|0:0,0:0:0:0:
411,151,163229,1,8,0:0:0:0:
317,57,163391,6,0,P|234:54|181:120,1,165.000005035401,0|0,0:0|0:0,0:0:0:0:
71,183,163878,2,0,P|52:143|54:82,1,82.5000025177003,8|0,0:0|0:0,0:0:0:0:
190,204,164202,2,0,P|209:241|212:282,1,82.5000025177003,2|0,0:0|0:0,0:0:0:0:
274,379,164527,1,8,0:0:0:0:
388,303,164689,6,0,B|413:247|413:247|401:124,1,165.000005035401
317,57,165175,2,0,P|308:99|276:139,1,82.5000025177003,8|0,0:0|0:0,0:0:0:0:
152,185,165500,2,0,P|161:143|193:103,1,82.5000025177003,2|0,0:0|0:0,0:0:0:0:
83,38,165824,1,8,0:0:0:0:
61,214,165986,6,0,P|114:273|208:261,1,165.000005035401,0|0,0:0|0:0,0:0:0:0:
317,250,166473,2,0,L|415:263,1,82.5000025177003,8|0,0:0|0:0,0:0:0:0:
461,126,166797,2,0,L|363:113,1,82.5000025177003,2|0,0:0|0:0,0:0:0:0:
240,63,167121,1,8,0:0:0:0:
240,63,167202,1,8,0:0:0:0:
240,63,167283,6,0,B|170:28|170:28|74:39,1,165.000005035401,6|0,0:0|0:0,0:0:0:0:
61,214,167770,2,0,L|152:204,1,82.5000025177003,8|0,0:0|0:0,0:0:0:0:
283,176,168094,2,0,P|306:211|319:260,1,82.5000025177003,2|0,0:0|0:0,0:0:0:0:
258,359,168419,1,8,0:0:0:0:
377,325,168581,6,0,B|415:311|476:328|476:328|498:295|483:237,1,165.000005035401,0|0,0:0|0:0,0:0:0:0:
446,149,169067,2,0,P|405:129|347:126,1,82.5000025177003,8|0,0:0|0:0,0:0:0:0:
245,115,169391,2,0,P|204:135|146:138,1,82.5000025177003,2|0,0:0|0:0,0:0:0:0:
172,15,169716,1,8,0:0:0:0:
283,176,169878,6,0,P|218:207|107:204,1,165.000005035401,0|0,0:0|0:0,0:0:0:0:
45,302,170364,2,0,P|86:304|154:324,1,82.5000025177003,8|0,0:0|0:0,0:0:0:0:
246,346,170689,2,0,P|287:344|355:324,1,82.5000025177003,2|0,0:0|0:0,0:0:0:0:
423,244,171013,1,8,0:0:0:0:
369,124,171175,6,0,B|348:88|299:88|299:88|279:46|224:39,1,165.000005035401
132,129,171662,2,0,P|157:160|208:179,1,82.5000025177003,8|0,0:0|0:0,0:0:0:0:
278,269,171986,1,2,0:0:0:0:
154,278,172148,1,8,0:0:0:0:
127,265,172229,1,8,0:0:0:0:
103,250,172310,1,8,0:0:0:0:
81,231,172391,1,8,0:0:0:0:
62,209,172473,6,0,B|43:171|43:171|45:139|65:93|65:93|39:107|23:129,1,168.750006437302,6|0,0:0|0:0,0:0:0:0:
