osu file format v14

[General]
AudioFilename: audio.mp3
AudioLeadIn: 0
PreviewTime: 80059
Countdown: 1
SampleSet: None
StackLeniency: 0.7
Mode: 1
LetterboxInBreaks: 0
WidescreenStoryboard: 0

[Editor]
DistanceSpacing: 0.5
BeatDivisor: 16
GridSize: 32
TimelineZoom: 2.4

[Metadata]
Title:HAELE III ~Angel Worlds~
TitleUnicode:HAELE III ~Angel Worlds~
Artist:Yu_Asahina ft. Ritsuka
ArtistUnicode:Yu_Asahina ft. Ritsuka
Creator:-[ ix Ishida xi ]-
Version:Death Stream Practice
Source:
Tags:
BeatmapID:1719383
BeatmapSetID:820154

[Difficulty]
HPDrainRate:6
CircleSize:5
OverallDifficulty:6.5
ApproachRate:5
SliderMultiplier:1.4
SliderTickRate:1

[Events]
//Background and Video events
0,0,"Konachan.com - 254149 sample.jpg",0,0
//Break Periods
//Storyboard Layer 0 (Background)
//Storyboard Layer 1 (Fail)
//Storyboard Layer 2 (Pass)
//Storyboard Layer 3 (Foreground)
//Storyboard Sound Samples

[TimingPoints]
600,324.324324324324,4,1,0,70,1,0
600,-83.3333333333333,4,1,0,70,0,0
79735,-83.3333333333333,4,1,0,70,0,0
81032,-83.3333333333333,4,1,0,70,0,1
106978,-83.3333333333333,4,1,0,70,0,0
109572,-83.3333333333333,4,1,0,70,0,1
114762,-83.3333333333333,4,1,0,70,0,0
117356,-83.3333333333333,4,1,0,70,0,1
125140,-25,4,1,0,70,0,0

[HitObjects]
126,193,600,5,0,0:0:0:0:
271,149,681,1,0,0:0:0:0:
271,149,762,1,0,0:0:0:0:
271,149,843,1,0,0:0:0:0:
271,149,924,1,8,0:0:0:0:
162,156,1086,1,0,0:0:0:0:
299,122,1167,1,0,0:0:0:0:
284,125,1248,1,0,0:0:0:0:
284,125,1329,1,0,0:0:0:0:
284,125,1410,1,8,0:0:0:0:
284,125,1491,1,0,0:0:0:0:
332,151,1572,1,8,0:0:0:0:
318,122,1613,1,8,0:0:0:0:
318,122,1654,1,8,0:0:0:0:
318,122,1694,1,8,0:0:0:0:
318,122,1735,1,0,0:0:0:0:
366,71,1897,1,0,0:0:0:0:
362,78,2059,1,0,0:0:0:0:
357,82,2140,1,0,0:0:0:0:
356,83,2302,1,0,0:0:0:0:
356,86,2464,1,0,0:0:0:0:
350,112,2708,1,0,0:0:0:0:
351,117,2870,1,0,0:0:0:0:
351,117,3032,1,8,0:0:0:0:
360,127,3194,1,0,0:0:0:0:
361,127,3275,1,0,0:0:0:0:
362,128,3356,1,0,0:0:0:0:
362,128,3437,1,0,0:0:0:0:
362,128,3518,1,8,0:0:0:0:
378,97,3681,1,0,0:0:0:0:
423,91,3735,1,0,0:0:0:0:
423,91,3789,1,0,0:0:0:0:
378,97,3843,1,0,0:0:0:0:
378,97,3924,1,0,0:0:0:0:
378,97,4005,1,0,0:0:0:0:
374,83,4167,1,8,0:0:0:0:
374,83,4248,1,0,0:0:0:0:
375,84,4329,1,8,0:0:0:0:
375,84,4410,1,0,0:0:0:0:
375,84,4491,1,0,0:0:0:0:
331,107,4654,1,0,0:0:0:0:
331,107,4735,1,0,0:0:0:0:
331,107,4816,1,8,0:0:0:0:
331,107,4978,1,0,0:0:0:0:
331,107,5059,1,0,0:0:0:0:
331,107,5140,1,8,0:0:0:0:
331,107,5221,1,8,0:0:0:0:
385,76,5302,1,0,0:0:0:0:
385,76,5464,1,8,0:0:0:0:
385,76,5627,1,0,0:0:0:0:
336,71,5789,1,0,0:0:0:0:
336,71,5870,1,0,0:0:0:0:
336,71,5951,1,8,0:0:0:0:
355,82,6005,1,0,0:0:0:0:
356,83,6059,1,0,0:0:0:0:
336,71,6113,1,8,0:0:0:0:
336,71,6194,1,8,0:0:0:0:
336,71,6275,1,0,0:0:0:0:
336,71,6356,1,0,0:0:0:0:
365,84,6437,1,8,0:0:0:0:
365,84,6491,1,0,0:0:0:0:
365,84,6545,1,0,0:0:0:0:
365,84,6599,1,8,0:0:0:0:
365,84,6654,1,0,0:0:0:0:
365,84,6708,1,0,0:0:0:0:
365,84,6762,1,8,0:0:0:0:
386,96,6843,1,8,0:0:0:0:
386,96,6924,1,0,0:0:0:0:
386,97,7005,1,0,0:0:0:0:
291,68,7086,1,8,0:0:0:0:
296,74,7329,1,0,0:0:0:0:
414,64,7410,1,8,0:0:0:0:
414,64,7464,1,8,0:0:0:0:
414,64,7518,1,0,0:0:0:0:
414,64,7572,1,8,0:0:0:0:
414,64,7627,1,8,0:0:0:0:
414,64,7681,1,0,0:0:0:0:
414,64,7735,1,8,0:0:0:0:
414,64,7789,1,0,0:0:0:0:
414,64,7843,1,0,0:0:0:0:
414,64,7897,1,8,0:0:0:0:
414,64,7951,1,0,0:0:0:0:
414,64,8005,1,0,0:0:0:0:
341,78,8059,1,8,0:0:0:0:
393,72,8140,1,0,0:0:0:0:
393,72,8221,1,0,0:0:0:0:
393,72,8302,1,0,0:0:0:0:
393,72,8383,1,8,0:0:0:0:
286,72,8545,1,0,0:0:0:0:
286,72,8627,1,8,0:0:0:0:
354,77,8789,1,0,0:0:0:0:
354,77,8870,1,8,0:0:0:0:
356,77,9032,1,0,0:0:0:0:
365,77,9194,1,0,0:0:0:0:
365,77,9275,1,0,0:0:0:0:
365,77,9356,1,8,0:0:0:0:
365,77,9437,1,8,0:0:0:0:
365,77,9518,1,8,0:0:0:0:
367,80,9599,1,8,0:0:0:0:
358,98,9843,1,12,0:0:0:0:
358,98,10167,1,4,0:0:0:0:
358,98,10491,1,12,0:0:0:0:
317,106,10654,1,8,0:0:0:0:
317,106,10735,1,8,0:0:0:0:
317,106,10816,1,8,0:0:0:0:
317,106,10897,1,8,0:0:0:0:
317,106,10978,1,4,0:0:0:0:
317,106,11140,1,0,0:0:0:0:
317,106,11302,1,8,0:0:0:0:
317,106,11464,1,4,0:0:0:0:
317,106,11789,1,0,0:0:0:0:
317,106,11951,1,8,0:0:0:0:
330,107,12437,1,0,0:0:0:0:
330,107,12599,1,8,0:0:0:0:
326,94,12843,1,0,0:0:0:0:
326,94,12924,1,0,0:0:0:0:
316,96,13086,1,0,0:0:0:0:
316,96,13248,1,8,0:0:0:0:
419,92,13302,1,0,0:0:0:0:
419,92,13356,1,0,0:0:0:0:
419,92,13410,1,8,0:0:0:0:
337,129,13491,1,8,0:0:0:0:
294,85,13572,1,0,0:0:0:0:
294,85,13654,1,0,0:0:0:0:
369,135,13735,1,8,0:0:0:0:
369,135,13789,1,8,0:0:0:0:
369,135,13843,1,8,0:0:0:0:
369,135,13897,1,0,0:0:0:0:
302,90,13978,1,0,0:0:0:0:
304,90,14059,1,0,0:0:0:0:
304,90,14140,1,0,0:0:0:0:
386,94,14221,1,8,0:0:0:0:
386,94,14302,1,0,0:0:0:0:
401,81,14383,1,8,0:0:0:0:
401,81,14424,1,8,0:0:0:0:
401,81,14464,1,8,0:0:0:0:
401,82,14545,1,8,0:0:0:0:
401,82,14586,1,8,0:0:0:0:
401,82,14627,1,8,0:0:0:0:
355,92,14708,1,0,0:0:0:0:
357,100,14789,1,0,0:0:0:0:
325,165,14870,1,8,0:0:0:0:
204,86,15194,1,12,0:0:0:0:
297,132,15681,1,0,0:0:0:0:
297,132,15762,1,0,0:0:0:0:
371,121,15843,1,8,0:0:0:0:
341,104,16167,1,4,0:0:0:0:
296,81,16275,1,0,0:0:0:0:
296,81,16329,1,0,0:0:0:0:
296,81,16383,1,0,0:0:0:0:
296,81,16491,1,0,0:0:0:0:
304,80,16599,1,0,0:0:0:0:
304,80,16654,1,0,0:0:0:0:
338,88,16708,1,0,0:0:0:0:
338,88,16816,1,0,0:0:0:0:
338,88,16870,1,0,0:0:0:0:
338,88,16924,1,0,0:0:0:0:
349,91,17032,1,0,0:0:0:0:
349,91,17140,1,0,0:0:0:0:
349,91,17248,1,0,0:0:0:0:
351,93,17356,1,8,0:0:0:0:
351,93,17464,1,8,0:0:0:0:
273,90,17572,1,8,0:0:0:0:
273,90,17627,1,0,0:0:0:0:
273,90,17681,1,0,0:0:0:0:
273,90,17789,1,8,0:0:0:0:
319,100,17897,1,0,0:0:0:0:
319,100,17951,1,0,0:0:0:0:
273,90,18005,1,0,0:0:0:0:
298,57,18113,1,8,0:0:0:0:
256,158,18167,1,8,0:0:0:0:
233,135,18221,1,8,0:0:0:0:
302,131,18329,1,8,0:0:0:0:
302,131,18437,1,0,0:0:0:0:
302,131,18491,1,0,0:0:0:0:
302,131,18545,1,0,0:0:0:0:
302,131,18654,1,0,0:0:0:0:
302,131,18762,1,8,0:0:0:0:
348,170,18816,1,0,0:0:0:0:
348,170,18870,1,0,0:0:0:0:
348,170,18924,1,8,0:0:0:0:
348,170,18978,1,0,0:0:0:0:
348,170,19032,1,0,0:0:0:0:
348,170,19086,1,8,0:0:0:0:
348,170,19140,1,8,0:0:0:0:
348,170,19194,1,0,0:0:0:0:
348,170,19248,1,8,0:0:0:0:
348,170,19302,1,8,0:0:0:0:
348,170,19356,1,0,0:0:0:0:
348,170,19410,1,0,0:0:0:0:
348,107,19464,1,0,0:0:0:0:
348,107,19518,1,0,0:0:0:0:
348,170,19572,1,8,0:0:0:0:
348,170,19627,1,0,0:0:0:0:
348,170,19681,1,0,0:0:0:0:
286,103,19735,1,8,0:0:0:0:
348,170,19789,1,8,0:0:0:0:
348,170,19843,1,8,0:0:0:0:
286,103,19897,1,0,0:0:0:0:
348,170,19951,1,0,0:0:0:0:
348,170,20005,1,0,0:0:0:0:
348,170,20059,1,8,0:0:0:0:
175,91,20167,1,8,0:0:0:0:
175,91,20221,1,8,0:0:0:0:
175,91,20275,1,0,0:0:0:0:
272,71,20383,1,8,0:0:0:0:
355,87,20491,1,0,0:0:0:0:
355,87,20545,1,0,0:0:0:0:
355,87,20599,1,0,0:0:0:0:
281,76,20708,1,0,0:0:0:0:
281,77,20762,1,8,0:0:0:0:
281,77,20816,1,0,0:0:0:0:
285,83,20870,1,8,0:0:0:0:
285,83,20924,1,8,0:0:0:0:
285,83,20978,1,8,0:0:0:0:
283,83,21032,1,0,0:0:0:0:
283,83,21086,1,8,0:0:0:0:
281,83,21140,1,0,0:0:0:0:
280,83,21194,1,8,0:0:0:0:
278,83,21248,1,0,0:0:0:0:
276,83,21302,1,8,0:0:0:0:
275,83,21356,1,8,0:0:0:0:
395,72,21410,1,0,0:0:0:0:
395,72,21464,1,0,0:0:0:0:
395,72,21518,1,8,0:0:0:0:
395,72,21572,1,0,0:0:0:0:
383,72,21627,1,0,0:0:0:0:
373,74,21681,1,8,0:0:0:0:
363,72,21735,1,0,0:0:0:0:
371,74,21789,1,0,0:0:0:0:
363,72,21843,1,8,0:0:0:0:
357,74,21897,1,0,0:0:0:0:
363,72,21951,1,0,0:0:0:0:
420,99,22005,1,8,0:0:0:0:
420,99,22113,1,0,0:0:0:0:
420,99,22167,1,0,0:0:0:0:
420,99,22221,1,0,0:0:0:0:
410,97,22329,1,0,0:0:0:0:
410,114,22437,1,0,0:0:0:0:
410,114,22491,1,0,0:0:0:0:
390,117,22545,1,8,0:0:0:0:
405,117,22654,1,8,0:0:0:0:
405,117,22708,1,8,0:0:0:0:
405,117,22762,1,8,0:0:0:0:
405,117,22870,1,0,0:0:0:0:
334,71,22978,1,8,0:0:0:0:
342,82,23032,1,8,0:0:0:0:
342,82,23086,1,8,0:0:0:0:
342,82,23194,1,0,0:0:0:0:
350,77,23302,1,0,0:0:0:0:
350,78,23356,1,0,0:0:0:0:
341,82,23410,1,8,0:0:0:0:
338,84,23464,1,0,0:0:0:0:
338,84,23518,1,8,0:0:0:0:
338,84,23572,1,8,0:0:0:0:
331,84,23627,1,0,0:0:0:0:
331,84,23681,1,0,0:0:0:0:
331,84,23735,1,8,0:0:0:0:
330,82,23789,1,0,0:0:0:0:
326,84,23843,1,8,0:0:0:0:
326,84,23897,1,8,0:0:0:0:
326,84,23951,1,0,0:0:0:0:
441,37,24032,1,8,0:0:0:0:
416,51,24113,1,8,0:0:0:0:
416,61,24194,1,8,0:0:0:0:
416,61,24275,1,8,0:0:0:0:
416,61,24356,1,8,0:0:0:0:
416,61,24437,1,8,0:0:0:0:
416,61,24518,1,8,0:0:0:0:
394,44,24599,1,0,0:0:0:0:
394,44,24681,1,8,0:0:0:0:
394,44,24762,1,8,0:0:0:0:
394,44,24843,1,8,0:0:0:0:
394,44,24924,1,8,0:0:0:0:
394,45,25005,1,8,0:0:0:0:
394,45,25086,1,8,0:0:0:0:
394,44,25167,1,8,0:0:0:0:
355,79,25248,1,0,0:0:0:0:
355,79,25329,1,8,0:0:0:0:
411,47,25410,1,8,0:0:0:0:
414,54,25464,1,8,0:0:0:0:
408,59,25518,1,8,0:0:0:0:
408,59,25572,1,0,0:0:0:0:
355,79,25654,1,8,0:0:0:0:
411,47,25735,1,8,0:0:0:0:
414,54,25789,1,8,0:0:0:0:
408,59,25843,1,8,0:0:0:0:
408,59,25897,1,0,0:0:0:0:
363,70,25951,1,8,0:0:0:0:
363,70,26005,1,8,0:0:0:0:
361,70,26059,1,0,0:0:0:0:
360,70,26113,1,8,0:0:0:0:
361,70,26167,1,8,0:0:0:0:
353,64,26221,1,0,0:0:0:0:
363,79,26302,1,0,0:0:0:0:
366,81,26383,1,8,0:0:0:0:
366,81,26464,1,8,0:0:0:0:
356,72,26545,1,4,0:0:0:0:
318,131,26708,1,0,0:0:0:0:
318,131,26789,1,0,0:0:0:0:
318,131,26870,1,8,0:0:0:0:
318,136,27194,1,0,0:0:0:0:
274,127,27275,1,0,0:0:0:0:
274,127,27356,1,0,0:0:0:0:
274,127,27437,1,0,0:0:0:0:
274,127,27518,1,8,0:0:0:0:
439,153,27843,1,0,0:0:0:0:
439,153,27924,1,0,0:0:0:0:
439,153,28005,1,8,0:0:0:0:
439,153,28086,1,0,0:0:0:0:
439,153,28167,1,8,0:0:0:0:
439,153,28248,1,8,0:0:0:0:
439,153,28329,1,0,0:0:0:0:
439,153,28410,1,8,0:0:0:0:
309,137,28491,1,0,0:0:0:0:
309,137,28545,1,8,0:0:0:0:
309,137,28599,1,8,0:0:0:0:
309,137,28654,1,0,0:0:0:0:
309,137,28708,1,8,0:0:0:0:
309,137,28762,1,8,0:0:0:0:
309,137,28816,1,0,0:0:0:0:
401,125,28897,1,0,0:0:0:0:
401,125,28978,1,8,0:0:0:0:
401,125,29059,1,8,0:0:0:0:
401,125,29140,1,0,0:0:0:0:
405,138,29464,1,8,0:0:0:0:
396,154,29627,1,0,0:0:0:0:
396,154,29681,1,0,0:0:0:0:
396,154,29735,1,0,0:0:0:0:
446,49,29789,1,0,0:0:0:0:
427,127,29870,1,0,0:0:0:0:
401,125,29951,1,0,0:0:0:0:
401,125,30032,1,0,0:0:0:0:
401,125,30113,1,8,0:0:0:0:
415,145,30194,1,0,0:0:0:0:
415,145,30275,1,8,0:0:0:0:
415,145,30356,1,8,0:0:0:0:
415,145,30437,1,0,0:0:0:0:
416,148,30599,1,0,0:0:0:0:
416,148,30681,1,0,0:0:0:0:
416,148,30762,1,8,0:0:0:0:
415,145,30924,1,0,0:0:0:0:
415,145,31005,1,8,0:0:0:0:
415,145,31086,1,0,0:0:0:0:
415,145,31167,1,0,0:0:0:0:
415,145,31248,1,8,0:0:0:0:
418,149,31329,1,0,0:0:0:0:
419,150,31410,1,8,0:0:0:0:
416,148,31572,1,8,0:0:0:0:
420,151,31735,1,0,0:0:0:0:
323,148,31897,1,0,0:0:0:0:
323,148,31978,1,0,0:0:0:0:
329,200,32059,1,8,0:0:0:0:
323,148,32302,1,8,0:0:0:0:
323,148,32383,1,8,0:0:0:0:
323,148,32464,1,8,0:0:0:0:
323,148,32545,1,8,0:0:0:0:
323,148,32627,1,8,0:0:0:0:
323,148,32708,1,8,0:0:0:0:
323,148,32789,1,8,0:0:0:0:
323,148,32870,1,8,0:0:0:0:
323,148,32951,1,8,0:0:0:0:
323,148,33032,1,0,0:0:0:0:
358,160,33356,1,8,0:0:0:0:
456,128,33681,1,8,0:0:0:0:
455,133,33735,1,0,0:0:0:0:
455,133,33789,1,0,0:0:0:0:
456,133,33843,1,8,0:0:0:0:
456,133,33897,1,0,0:0:0:0:
456,133,33951,1,0,0:0:0:0:
421,146,34005,1,8,0:0:0:0:
412,151,34059,1,8,0:0:0:0:
412,151,34113,1,8,0:0:0:0:
412,151,34167,1,0,0:0:0:0:
412,151,34221,1,8,0:0:0:0:
412,151,34275,1,8,0:0:0:0:
412,151,34329,1,0,0:0:0:0:
331,164,34654,1,8,0:0:0:0:
336,172,34897,1,0,0:0:0:0:
336,172,34978,1,0,0:0:0:0:
314,146,35140,1,8,0:0:0:0:
314,146,35302,1,0,0:0:0:0:
249,217,35383,1,0,0:0:0:0:
379,135,35464,1,8,0:0:0:0:
307,118,35545,1,0,0:0:0:0:
376,117,35627,1,8,0:0:0:0:
376,117,35681,1,8,0:0:0:0:
376,117,35735,1,8,0:0:0:0:
376,117,35789,1,0,0:0:0:0:
476,111,35870,1,0,0:0:0:0:
376,117,35951,1,8,0:0:0:0:
376,117,36005,1,8,0:0:0:0:
376,117,36059,1,8,0:0:0:0:
376,117,36113,1,0,0:0:0:0:
476,111,36194,1,0,0:0:0:0:
333,132,36275,1,8,0:0:0:0:
333,132,36329,1,8,0:0:0:0:
333,132,36383,1,8,0:0:0:0:
333,132,36437,1,0,0:0:0:0:
406,87,36491,1,0,0:0:0:0:
406,87,36545,1,0,0:0:0:0:
406,87,36599,1,8,0:0:0:0:
406,121,36681,1,8,0:0:0:0:
406,121,36762,1,8,0:0:0:0:
406,121,36843,1,8,0:0:0:0:
149,177,36924,1,0,0:0:0:0:
373,105,37086,1,0,0:0:0:0:
373,105,37167,1,0,0:0:0:0:
373,105,37248,1,8,0:0:0:0:
373,105,37329,1,0,0:0:0:0:
374,58,37410,1,8,0:0:0:0:
373,63,37464,1,8,0:0:0:0:
373,63,37518,1,8,0:0:0:0:
373,63,37572,1,0,0:0:0:0:
436,47,37654,1,8,0:0:0:0:
457,112,37735,1,8,0:0:0:0:
443,93,37789,1,0,0:0:0:0:
443,95,37843,1,0,0:0:0:0:
444,72,37897,1,8,0:0:0:0:
442,76,37951,1,8,0:0:0:0:
443,76,38005,1,8,0:0:0:0:
441,75,38059,1,0,0:0:0:0:
358,114,38140,1,8,0:0:0:0:
346,106,38221,1,0,0:0:0:0:
459,46,38302,1,0,0:0:0:0:
299,107,38383,1,8,0:0:0:0:
306,109,38437,1,0,0:0:0:0:
306,109,38491,1,0,0:0:0:0:
306,109,38545,1,8,0:0:0:0:
382,91,38627,1,0,0:0:0:0:
365,92,38708,1,8,0:0:0:0:
365,92,38762,1,8,0:0:0:0:
365,92,38816,1,8,0:0:0:0:
365,92,38870,1,0,0:0:0:0:
382,91,38951,1,8,0:0:0:0:
336,92,39032,1,0,0:0:0:0:
336,92,39086,1,0,0:0:0:0:
336,92,39140,1,0,0:0:0:0:
336,92,39194,1,8,0:0:0:0:
376,91,39275,1,0,0:0:0:0:
328,78,39356,1,8,0:0:0:0:
328,78,39410,1,8,0:0:0:0:
328,78,39464,1,0,0:0:0:0:
328,78,39518,1,0,0:0:0:0:
376,95,39599,1,8,0:0:0:0:
378,105,39681,1,8,0:0:0:0:
378,105,39762,1,8,0:0:0:0:
330,79,39843,1,0,0:0:0:0:
330,79,39897,1,0,0:0:0:0:
329,79,39951,1,0,0:0:0:0:
329,79,40005,1,0,0:0:0:0:
329,79,40059,1,0,0:0:0:0:
329,79,40113,1,0,0:0:0:0:
327,79,40167,1,8,0:0:0:0:
378,105,40248,1,0,0:0:0:0:
326,67,40329,1,8,0:0:0:0:
326,68,40383,1,8,0:0:0:0:
326,68,40437,1,8,0:0:0:0:
326,68,40491,1,0,0:0:0:0:
363,108,40572,1,8,0:0:0:0:
360,114,40654,1,8,0:0:0:0:
358,117,40735,1,8,0:0:0:0:
305,79,40816,1,0,0:0:0:0:
305,79,40870,1,0,0:0:0:0:
305,79,40924,1,0,0:0:0:0:
305,79,40978,1,8,0:0:0:0:
305,79,41032,1,8,0:0:0:0:
305,79,41086,1,8,0:0:0:0:
305,79,41140,1,0,0:0:0:0:
349,84,41221,1,0,0:0:0:0:
349,84,41302,1,8,0:0:0:0:
349,84,41383,1,0,0:0:0:0:
291,58,41464,1,8,0:0:0:0:
291,58,41518,1,8,0:0:0:0:
291,58,41572,1,8,0:0:0:0:
291,58,41627,1,0,0:0:0:0:
288,61,41681,1,0,0:0:0:0:
288,61,41735,1,0,0:0:0:0:
285,61,41789,1,8,0:0:0:0:
343,77,41870,1,8,0:0:0:0:
343,77,41951,1,8,0:0:0:0:
342,81,42032,1,8,0:0:0:0:
299,83,42113,1,0,0:0:0:0:
299,83,42167,1,8,0:0:0:0:
296,87,42221,1,8,0:0:0:0:
294,88,42329,1,0,0:0:0:0:
287,89,42383,1,8,0:0:0:0:
281,89,42437,1,8,0:0:0:0:
281,89,42545,1,0,0:0:0:0:
275,88,42599,1,8,0:0:0:0:
275,88,42654,1,8,0:0:0:0:
271,89,42708,1,8,0:0:0:0:
266,92,42762,1,0,0:0:0:0:
345,87,42843,1,0,0:0:0:0:
361,124,42924,1,8,0:0:0:0:
361,124,42978,1,8,0:0:0:0:
361,124,43032,1,8,0:0:0:0:
361,124,43086,1,0,0:0:0:0:
340,101,43167,1,8,0:0:0:0:
353,77,43248,1,0,0:0:0:0:
353,77,43302,1,0,0:0:0:0:
353,77,43356,1,0,0:0:0:0:
353,77,43410,1,8,0:0:0:0:
340,98,43491,1,0,0:0:0:0:
353,77,43572,1,8,0:0:0:0:
353,77,43627,1,8,0:0:0:0:
353,77,43681,1,0,0:0:0:0:
353,83,43735,1,0,0:0:0:0:
343,108,43816,1,8,0:0:0:0:
353,83,43897,1,0,0:0:0:0:
353,83,43951,1,0,0:0:0:0:
353,83,44005,1,8,0:0:0:0:
353,83,44059,1,0,0:0:0:0:
340,109,44140,1,8,0:0:0:0:
353,83,44221,1,8,0:0:0:0:
353,83,44275,1,8,0:0:0:0:
353,83,44329,1,0,0:0:0:0:
351,84,44383,1,8,0:0:0:0:
335,120,44464,1,0,0:0:0:0:
329,124,44545,1,8,0:0:0:0:
329,124,44627,1,8,0:0:0:0:
343,72,44708,1,0,0:0:0:0:
343,72,44762,1,0,0:0:0:0:
343,72,44816,1,0,0:0:0:0:
343,72,44870,1,8,0:0:0:0:
343,72,44924,1,0,0:0:0:0:
341,72,44978,1,0,0:0:0:0:
341,73,45032,1,8,0:0:0:0:
336,82,45086,1,0,0:0:0:0:
336,82,45140,1,0,0:0:0:0:
334,82,45194,1,8,0:0:0:0:
333,83,45248,1,8,0:0:0:0:
332,83,45302,1,8,0:0:0:0:
330,73,45356,1,0,0:0:0:0:
321,106,45437,1,0,0:0:0:0:
331,82,45518,1,8,0:0:0:0:
331,82,45572,1,8,0:0:0:0:
331,82,45627,1,8,0:0:0:0:
331,82,45681,1,0,0:0:0:0:
321,106,45762,1,0,0:0:0:0:
330,78,45843,1,8,0:0:0:0:
330,79,45897,1,8,0:0:0:0:
330,79,45951,1,8,0:0:0:0:
330,80,46005,1,0,0:0:0:0:
321,106,46086,1,8,0:0:0:0:
328,87,46167,1,0,0:0:0:0:
327,87,46221,1,0,0:0:0:0:
328,87,46275,1,0,0:0:0:0:
321,84,46329,1,8,0:0:0:0:
321,106,46410,1,0,0:0:0:0:
321,86,46491,1,0,0:0:0:0:
321,86,46545,1,0,0:0:0:0:
321,86,46599,1,8,0:0:0:0:
321,87,46654,1,8,0:0:0:0:
321,106,46735,1,0,0:0:0:0:
319,82,46816,1,0,0:0:0:0:
319,82,46870,1,8,0:0:0:0:
319,82,46924,1,8,0:0:0:0:
317,83,46978,1,8,0:0:0:0:
321,98,47059,1,0,0:0:0:0:
333,97,47140,1,8,0:0:0:0:
333,97,47194,1,8,0:0:0:0:
333,97,47248,1,8,0:0:0:0:
333,97,47302,1,0,0:0:0:0:
313,66,47464,1,0,0:0:0:0:
312,59,47545,1,0,0:0:0:0:
406,59,47627,1,8,0:0:0:0:
406,59,47681,1,8,0:0:0:0:
406,59,47735,1,0,0:0:0:0:
406,59,47789,1,8,0:0:0:0:
384,87,47870,1,8,0:0:0:0:
319,70,47951,1,0,0:0:0:0:
319,70,48005,1,8,0:0:0:0:
319,70,48059,1,0,0:0:0:0:
319,70,48113,1,0,0:0:0:0:
363,87,48194,1,0,0:0:0:0:
315,71,48275,1,8,0:0:0:0:
317,72,48329,1,8,0:0:0:0:
322,73,48383,1,8,0:0:0:0:
322,73,48437,1,0,0:0:0:0:
361,84,48518,1,0,0:0:0:0:
322,73,48599,1,8,0:0:0:0:
319,70,48654,1,8,0:0:0:0:
319,70,48708,1,8,0:0:0:0:
318,79,48762,1,0,0:0:0:0:
362,87,48843,1,0,0:0:0:0:
322,78,48924,1,8,0:0:0:0:
322,78,48978,1,8,0:0:0:0:
322,78,49032,1,8,0:0:0:0:
322,78,49086,1,0,0:0:0:0:
322,78,49140,1,0,0:0:0:0:
321,78,49194,1,0,0:0:0:0:
314,82,49248,1,8,0:0:0:0:
340,72,49329,1,8,0:0:0:0:
304,60,49410,1,0,0:0:0:0:
304,60,49464,1,0,0:0:0:0:
299,71,49518,1,0,0:0:0:0:
299,71,49572,1,8,0:0:0:0:
299,71,49627,1,8,0:0:0:0:
299,71,49681,1,8,0:0:0:0:
293,73,49735,1,0,0:0:0:0:
341,74,49816,1,8,0:0:0:0:
300,77,49897,1,0,0:0:0:0:
304,60,49951,1,0,0:0:0:0:
304,60,50005,1,8,0:0:0:0:
302,62,50059,1,8,0:0:0:0:
335,75,50140,1,8,0:0:0:0:
303,102,50221,1,0,0:0:0:0:
303,102,50275,1,0,0:0:0:0:
303,102,50329,1,8,0:0:0:0:
303,102,50383,1,8,0:0:0:0:
335,77,50464,1,0,0:0:0:0:
285,113,50545,1,8,0:0:0:0:
286,115,50599,1,8,0:0:0:0:
286,115,50654,1,8,0:0:0:0:
280,112,50708,1,0,0:0:0:0:
285,115,50762,1,8,0:0:0:0:
274,122,50816,1,8,0:0:0:0:
326,87,50870,1,0,0:0:0:0:
330,95,50951,1,0,0:0:0:0:
378,74,51032,1,8,0:0:0:0:
378,74,51086,1,8,0:0:0:0:
378,74,51140,1,8,0:0:0:0:
378,74,51194,1,0,0:0:0:0:
330,95,51275,1,8,0:0:0:0:
361,93,51356,1,0,0:0:0:0:
361,93,51410,1,0,0:0:0:0:
355,97,51464,1,0,0:0:0:0:
349,98,51518,1,8,0:0:0:0:
330,95,51599,1,0,0:0:0:0:
333,68,51681,1,8,0:0:0:0:
333,68,51735,1,8,0:0:0:0:
346,68,51789,1,8,0:0:0:0:
351,63,51843,1,0,0:0:0:0:
330,95,51924,1,8,0:0:0:0:
235,33,52005,1,0,0:0:0:0:
266,106,52059,1,0,0:0:0:0:
266,106,52113,1,0,0:0:0:0:
266,106,52167,1,8,0:0:0:0:
330,95,52248,1,0,0:0:0:0:
360,83,52329,1,8,0:0:0:0:
333,68,52383,1,8,0:0:0:0:
316,82,52437,1,0,0:0:0:0:
226,43,52491,1,0,0:0:0:0:
333,68,52572,1,8,0:0:0:0:
336,75,52654,1,0,0:0:0:0:
336,75,52708,1,0,0:0:0:0:
336,75,52762,1,0,0:0:0:0:
336,75,52816,1,8,0:0:0:0:
336,75,52870,1,0,0:0:0:0:
333,75,52924,1,0,0:0:0:0:
333,75,52978,1,8,0:0:0:0:
332,75,53032,1,0,0:0:0:0:
330,74,53086,1,0,0:0:0:0:
329,74,53140,1,8,0:0:0:0:
336,121,53221,1,0,0:0:0:0:
336,78,53302,1,0,0:0:0:0:
336,77,53356,1,0,0:0:0:0:
336,77,53410,1,0,0:0:0:0:
336,78,53464,1,8,0:0:0:0:
332,80,53518,1,0,0:0:0:0:
332,80,53572,1,0,0:0:0:0:
332,80,53627,1,8,0:0:0:0:
332,80,53681,1,0,0:0:0:0:
332,80,53735,1,0,0:0:0:0:
332,80,53789,1,8,0:0:0:0:
331,102,53870,1,8,0:0:0:0:
298,69,53951,1,0,0:0:0:0:
298,69,54005,1,0,0:0:0:0:
298,69,54059,1,0,0:0:0:0:
298,69,54113,1,8,0:0:0:0:
298,69,54167,1,0,0:0:0:0:
298,69,54221,1,0,0:0:0:0:
298,69,54275,1,8,0:0:0:0:
298,69,54329,1,0,0:0:0:0:
298,69,54383,1,0,0:0:0:0:
298,69,54437,1,8,0:0:0:0:
318,82,54491,1,8,0:0:0:0:
318,82,54545,1,8,0:0:0:0:
318,82,54599,1,0,0:0:0:0:
298,69,54654,1,0,0:0:0:0:
298,69,54708,1,0,0:0:0:0:
323,89,54762,1,8,0:0:0:0:
316,66,54816,1,8,0:0:0:0:
309,72,54870,1,0,0:0:0:0:
301,80,54924,1,8,0:0:0:0:
283,86,55248,1,0,0:0:0:0:
283,86,55410,1,8,0:0:0:0:
271,92,55572,1,0,0:0:0:0:
351,89,55735,1,0,0:0:0:0:
351,89,55897,1,0,0:0:0:0:
351,89,56059,1,8,0:0:0:0:
348,81,56140,1,8,0:0:0:0:
348,81,56221,1,0,0:0:0:0:
351,89,56383,1,0,0:0:0:0:
345,87,56464,1,0,0:0:0:0:
340,92,56545,1,0,0:0:0:0:
332,94,56627,1,0,0:0:0:0:
328,92,56708,1,8,0:0:0:0:
405,87,56951,1,8,0:0:0:0:
405,87,57032,1,0,0:0:0:0:
405,87,57113,1,8,0:0:0:0:
405,87,57194,1,8,0:0:0:0:
405,97,57356,1,0,0:0:0:0:
406,102,57437,1,8,0:0:0:0:
406,102,57518,1,8,0:0:0:0:
406,102,57599,1,8,0:0:0:0:
401,102,57681,1,0,0:0:0:0:
396,140,57843,1,8,0:0:0:0:
396,140,58005,1,8,0:0:0:0:
396,140,58086,1,8,0:0:0:0:
396,140,58167,1,0,0:0:0:0:
396,140,58248,1,0,0:0:0:0:
396,140,58329,1,0,0:0:0:0:
396,140,58491,1,0,0:0:0:0:
396,140,58572,1,0,0:0:0:0:
396,140,58654,1,8,0:0:0:0:
396,140,58735,1,8,0:0:0:0:
396,140,58816,1,0,0:0:0:0:
387,141,58897,1,0,0:0:0:0:
387,141,58978,1,8,0:0:0:0:
401,95,59140,1,8,0:0:0:0:
401,95,59221,1,8,0:0:0:0:
357,128,59302,1,0,0:0:0:0:
356,112,59464,1,8,0:0:0:0:
237,46,59627,1,8,0:0:0:0:
246,62,59708,1,8,0:0:0:0:
242,63,59789,1,0,0:0:0:0:
242,57,59951,1,8,0:0:0:0:
321,112,60113,1,0,0:0:0:0:
321,112,60275,1,0,0:0:0:0:
262,119,60599,1,8,0:0:0:0:
262,119,60681,1,8,0:0:0:0:
262,119,60762,1,8,0:0:0:0:
262,119,60843,1,8,0:0:0:0:
262,119,60924,1,8,0:0:0:0:
262,119,61005,1,8,0:0:0:0:
262,119,61086,1,8,0:0:0:0:
262,119,61167,1,8,0:0:0:0:
262,119,61248,1,8,0:0:0:0:
456,173,61410,1,0,0:0:0:0:
456,173,61464,1,0,0:0:0:0:
456,173,61518,1,0,0:0:0:0:
456,173,61572,1,0,0:0:0:0:
440,84,62059,1,0,0:0:0:0:
387,117,62140,1,0,0:0:0:0:
387,117,62221,1,0,0:0:0:0:
299,100,62464,1,0,0:0:0:0:
299,100,62708,1,0,0:0:0:0:
297,111,62870,1,0,0:0:0:0:
298,111,63518,1,8,0:0:0:0:
298,111,63599,1,8,0:0:0:0:
298,111,63681,1,0,0:0:0:0:
398,114,63843,1,0,0:0:0:0:
398,114,64005,1,0,0:0:0:0:
398,114,64086,1,0,0:0:0:0:
398,114,64167,1,0,0:0:0:0:
402,110,64654,1,0,0:0:0:0:
402,110,64816,1,0,0:0:0:0:
398,114,64978,1,0,0:0:0:0:
398,114,65059,1,8,0:0:0:0:
398,114,65140,1,0,0:0:0:0:
358,98,65302,1,0,0:0:0:0:
358,98,65464,1,0,0:0:0:0:
361,104,65789,1,8,0:0:0:0:
361,104,65870,1,8,0:0:0:0:
361,104,65951,1,8,0:0:0:0:
361,104,66032,1,8,0:0:0:0:
360,103,66113,1,0,0:0:0:0:
357,88,66437,1,8,0:0:0:0:
357,88,66518,1,8,0:0:0:0:
357,88,66599,1,8,0:0:0:0:
357,88,66681,1,8,0:0:0:0:
254,107,66762,1,0,0:0:0:0:
409,100,66924,1,8,0:0:0:0:
409,100,66964,1,8,0:0:0:0:
409,100,67005,1,8,0:0:0:0:
413,104,67045,1,8,0:0:0:0:
413,104,67086,1,0,0:0:0:0:
413,104,67248,1,8,0:0:0:0:
413,104,67289,1,8,0:0:0:0:
415,107,67329,1,8,0:0:0:0:
415,107,67370,1,8,0:0:0:0:
415,107,67410,1,0,0:0:0:0:
417,91,67491,1,8,0:0:0:0:
417,91,67532,1,8,0:0:0:0:
417,91,67572,1,0,0:0:0:0:
417,91,67654,1,8,0:0:0:0:
417,91,67694,1,8,0:0:0:0:
423,98,67735,1,0,0:0:0:0:
425,100,67775,1,8,0:0:0:0:
425,100,67816,1,0,0:0:0:0:
425,100,67856,1,8,0:0:0:0:
425,100,67897,1,0,0:0:0:0:
427,102,67937,1,8,0:0:0:0:
429,104,67978,1,0,0:0:0:0:
429,104,68018,1,8,0:0:0:0:
429,104,68059,1,0,0:0:0:0:
346,161,68383,1,8,0:0:0:0:
358,162,68627,1,0,0:0:0:0:
326,122,68708,1,0,0:0:0:0:
267,108,68870,1,0,0:0:0:0:
326,122,69032,1,8,0:0:0:0:
283,122,69113,1,0,0:0:0:0:
283,122,69194,1,8,0:0:0:0:
283,122,69275,1,0,0:0:0:0:
283,123,69356,1,0,0:0:0:0:
290,142,69599,1,0,0:0:0:0:
290,142,69681,1,8,0:0:0:0:
317,163,69843,1,0,0:0:0:0:
317,163,69924,1,0,0:0:0:0:
293,145,70005,1,0,0:0:0:0:
225,100,70086,1,0,0:0:0:0:
293,145,70167,1,0,0:0:0:0:
295,146,70248,1,0,0:0:0:0:
295,146,70329,1,8,0:0:0:0:
276,145,70491,1,0,0:0:0:0:
211,52,70654,1,0,0:0:0:0:
297,105,70897,1,0,0:0:0:0:
297,105,70978,1,8,0:0:0:0:
306,117,71140,1,0,0:0:0:0:
213,166,71221,1,0,0:0:0:0:
213,166,71302,1,0,0:0:0:0:
306,128,71464,1,0,0:0:0:0:
306,128,71545,1,0,0:0:0:0:
306,128,71627,1,8,0:0:0:0:
307,135,71708,1,0,0:0:0:0:
309,138,71789,1,0,0:0:0:0:
310,139,71870,1,0,0:0:0:0:
310,139,71951,1,8,0:0:0:0:
310,141,72194,1,0,0:0:0:0:
310,141,72275,1,8,0:0:0:0:
332,112,72356,1,8,0:0:0:0:
332,112,72437,1,8,0:0:0:0:
332,112,72518,1,0,0:0:0:0:
332,112,72599,1,8,0:0:0:0:
332,112,72681,1,8,0:0:0:0:
332,112,72762,1,8,0:0:0:0:
332,112,72843,1,0,0:0:0:0:
332,117,72924,1,8,0:0:0:0:
332,117,73005,1,0,0:0:0:0:
332,117,73086,1,8,0:0:0:0:
332,117,73167,1,0,0:0:0:0:
332,117,73248,1,0,0:0:0:0:
362,132,73572,1,0,0:0:0:0:
362,132,73654,1,0,0:0:0:0:
362,132,73735,1,0,0:0:0:0:
362,132,73816,1,0,0:0:0:0:
362,132,73897,1,8,0:0:0:0:
362,132,74140,1,8,0:0:0:0:
298,83,74383,1,8,0:0:0:0:
301,89,74545,1,0,0:0:0:0:
201,73,75194,1,0,0:0:0:0:
347,127,75356,1,8,0:0:0:0:
346,132,75681,1,4,0:0:0:0:
346,132,76005,1,0,0:0:0:0:
346,137,76167,1,0,0:0:0:0:
346,137,76329,1,0,0:0:0:0:
346,138,76491,1,0,0:0:0:0:
346,138,76654,1,0,0:0:0:0:
345,138,76816,1,0,0:0:0:0:
288,124,76978,1,0,0:0:0:0:
508,76,77059,1,0,0:0:0:0:
300,136,77140,1,0,0:0:0:0:
300,136,77302,1,0,0:0:0:0:
300,136,77464,1,0,0:0:0:0:
300,136,77627,1,0,0:0:0:0:
300,136,77789,1,0,0:0:0:0:
301,137,77951,1,0,0:0:0:0:
300,136,78113,1,0,0:0:0:0:
431,181,78194,1,0,0:0:0:0:
326,102,78275,1,8,0:0:0:0:
339,114,78437,1,8,0:0:0:0:
339,114,78518,1,8,0:0:0:0:
339,114,78599,1,0,0:0:0:0:
339,114,78681,1,0,0:0:0:0:
339,114,78762,1,0,0:0:0:0:
339,114,78843,1,8,0:0:0:0:
323,193,78924,1,8,0:0:0:0:
323,193,79005,1,0,0:0:0:0:
323,193,79086,1,0,0:0:0:0:
362,79,79167,1,8,0:0:0:0:
362,79,79208,1,8,0:0:0:0:
362,79,79248,1,0,0:0:0:0:
362,79,79329,1,8,0:0:0:0:
362,79,79370,1,8,0:0:0:0:
362,79,79410,1,0,0:0:0:0:
362,79,79491,1,8,0:0:0:0:
362,79,79532,1,8,0:0:0:0:
362,79,79572,1,0,0:0:0:0:
244,168,80059,1,0,0:0:0:0:
268,141,80383,1,8,0:0:0:0:
268,141,80708,1,0,0:0:0:0:
251,131,81032,1,8,0:0:0:0:
251,131,81086,1,8,0:0:0:0:
256,133,81140,1,8,0:0:0:0:
284,122,81194,1,0,0:0:0:0:
256,141,81275,1,0,0:0:0:0:
342,106,81356,1,8,0:0:0:0:
365,97,81437,1,0,0:0:0:0:
371,103,81518,1,0,0:0:0:0:
371,103,81599,1,0,0:0:0:0:
331,115,81681,1,8,0:0:0:0:
331,115,81735,1,0,0:0:0:0:
331,115,81789,1,0,0:0:0:0:
331,115,81843,1,0,0:0:0:0:
315,133,81924,1,0,0:0:0:0:
315,133,82005,1,8,0:0:0:0:
340,147,82086,1,0,0:0:0:0:
340,147,82167,1,0,0:0:0:0:
428,111,82248,1,8,0:0:0:0:
428,111,82329,1,8,0:0:0:0:
331,115,82437,1,0,0:0:0:0:
331,115,82491,1,0,0:0:0:0:
331,115,82545,1,0,0:0:0:0:
326,109,82599,1,0,0:0:0:0:
246,94,82654,1,8,0:0:0:0:
246,94,82762,1,0,0:0:0:0:
246,94,82816,1,0,0:0:0:0:
246,94,82870,1,0,0:0:0:0:
326,109,82924,1,0,0:0:0:0:
321,106,82978,1,8,0:0:0:0:
350,126,83086,1,0,0:0:0:0:
350,126,83194,1,0,0:0:0:0:
350,126,83302,1,8,0:0:0:0:
391,87,83383,1,0,0:0:0:0:
391,87,83464,1,0,0:0:0:0:
391,87,83545,1,8,0:0:0:0:
391,87,83627,1,8,0:0:0:0:
300,81,83681,1,0,0:0:0:0:
300,81,83735,1,0,0:0:0:0:
300,81,83789,1,0,0:0:0:0:
331,138,83870,1,8,0:0:0:0:
331,138,83951,1,8,0:0:0:0:
382,112,84005,1,0,0:0:0:0:
382,112,84059,1,0,0:0:0:0:
382,112,84113,1,8,0:0:0:0:
320,126,84194,1,8,0:0:0:0:
322,170,84275,1,8,0:0:0:0:
377,89,84329,1,0,0:0:0:0:
377,89,84383,1,0,0:0:0:0:
377,89,84437,1,8,0:0:0:0:
377,89,84491,1,0,0:0:0:0:
377,89,84545,1,8,0:0:0:0:
377,89,84599,1,8,0:0:0:0:
325,107,84681,1,0,0:0:0:0:
325,107,84762,1,8,0:0:0:0:
381,93,84816,1,8,0:0:0:0:
381,93,84870,1,0,0:0:0:0:
381,93,84924,1,8,0:0:0:0:
371,134,85005,1,8,0:0:0:0:
372,145,85086,1,0,0:0:0:0:
425,77,85167,1,8,0:0:0:0:
363,123,85248,1,8,0:0:0:0:
313,148,85302,1,0,0:0:0:0:
313,148,85356,1,0,0:0:0:0:
313,148,85410,1,0,0:0:0:0:
394,86,85491,1,8,0:0:0:0:
298,165,85572,1,0,0:0:0:0:
298,165,85627,1,8,0:0:0:0:
298,165,85681,1,8,0:0:0:0:
298,165,85735,1,0,0:0:0:0:
298,165,85789,1,8,0:0:0:0:
298,165,85843,1,8,0:0:0:0:
298,165,85897,1,0,0:0:0:0:
361,107,85951,1,0,0:0:0:0:
361,107,86005,1,8,0:0:0:0:
361,107,86059,1,0,0:0:0:0:
361,107,86113,1,0,0:0:0:0:
361,107,86167,1,8,0:0:0:0:
361,107,86221,1,0,0:0:0:0:
256,115,86302,1,0,0:0:0:0:
256,115,86383,1,8,0:0:0:0:
376,68,86437,1,0,0:0:0:0:
371,93,86491,1,0,0:0:0:0:
371,93,86545,1,8,0:0:0:0:
376,114,86627,1,8,0:0:0:0:
376,114,86708,1,0,0:0:0:0:
376,114,86789,1,8,0:0:0:0:
376,114,86870,1,8,0:0:0:0:
454,92,86924,1,0,0:0:0:0:
454,92,86978,1,0,0:0:0:0:
449,100,87032,1,0,0:0:0:0:
439,83,87113,1,8,0:0:0:0:
439,85,87194,1,8,0:0:0:0:
423,133,87275,1,0,0:0:0:0:
423,133,87356,1,8,0:0:0:0:
394,143,87410,1,8,0:0:0:0:
394,143,87464,1,8,0:0:0:0:
394,143,87518,1,0,0:0:0:0:
439,102,87599,1,8,0:0:0:0:
439,102,87640,1,8,0:0:0:0:
439,102,87681,1,0,0:0:0:0:
439,102,87762,1,8,0:0:0:0:
439,102,87802,1,8,0:0:0:0:
439,102,87843,1,0,0:0:0:0:
393,106,87924,1,0,0:0:0:0:
393,106,88005,1,8,0:0:0:0:
393,106,88086,1,8,0:0:0:0:
400,119,88167,1,0,0:0:0:0:
320,97,88208,1,0,0:0:0:0:
271,69,88248,1,8,0:0:0:0:
271,69,88329,1,0,0:0:0:0:
217,62,88410,1,8,0:0:0:0:
320,97,88451,1,8,0:0:0:0:
290,160,88491,1,0,0:0:0:0:
324,106,88572,1,0,0:0:0:0:
401,77,88654,1,8,0:0:0:0:
484,73,88708,1,8,0:0:0:0:
484,73,88762,1,8,0:0:0:0:
484,73,88816,1,0,0:0:0:0:
463,87,88897,1,8,0:0:0:0:
463,87,88978,1,8,0:0:0:0:
437,80,89032,1,8,0:0:0:0:
437,80,89086,1,0,0:0:0:0:
437,80,89140,1,0,0:0:0:0:
446,90,89221,1,0,0:0:0:0:
446,90,89302,1,8,0:0:0:0:
426,102,89356,1,8,0:0:0:0:
425,111,89410,1,8,0:0:0:0:
365,117,89464,1,0,0:0:0:0:
365,117,89518,1,0,0:0:0:0:
365,117,89572,1,8,0:0:0:0:
365,117,89627,1,0,0:0:0:0:
365,117,89681,1,0,0:0:0:0:
365,117,89735,1,8,0:0:0:0:
365,117,89789,1,0,0:0:0:0:
362,129,89870,1,0,0:0:0:0:
362,129,89951,1,8,0:0:0:0:
362,129,90032,1,8,0:0:0:0:
414,127,90113,1,0,0:0:0:0:
426,86,90167,1,0,0:0:0:0:
426,86,90221,1,0,0:0:0:0:
426,86,90275,1,8,0:0:0:0:
436,102,90356,1,8,0:0:0:0:
426,87,90437,1,0,0:0:0:0:
426,86,90491,1,0,0:0:0:0:
426,86,90545,1,0,0:0:0:0:
426,86,90599,1,0,0:0:0:0:
347,113,90681,1,8,0:0:0:0:
363,133,90762,1,8,0:0:0:0:
362,129,90843,1,8,0:0:0:0:
362,129,90924,1,0,0:0:0:0:
461,77,90978,1,0,0:0:0:0:
461,77,91032,1,0,0:0:0:0:
461,77,91086,1,8,0:0:0:0:
405,130,91140,1,0,0:0:0:0:
405,130,91194,1,0,0:0:0:0:
274,79,91248,1,0,0:0:0:0:
372,163,91329,1,8,0:0:0:0:
274,79,91410,1,8,0:0:0:0:
206,68,91518,1,0,0:0:0:0:
192,65,91572,1,8,0:0:0:0:
192,65,91627,1,8,0:0:0:0:
192,65,91681,1,8,0:0:0:0:
333,97,91735,1,8,0:0:0:0:
335,97,91843,1,8,0:0:0:0:
335,97,91951,1,8,0:0:0:0:
336,97,92059,1,8,0:0:0:0:
63,90,92167,1,8,0:0:0:0:
269,80,92275,1,8,0:0:0:0:
346,96,92383,1,0,0:0:0:0:
346,96,92437,1,0,0:0:0:0:
346,96,92491,1,8,0:0:0:0:
346,96,92545,1,0,0:0:0:0:
347,96,92599,1,8,0:0:0:0:
348,96,92654,1,8,0:0:0:0:
348,96,92708,1,0,0:0:0:0:
187,72,92789,1,0,0:0:0:0:
187,72,92870,1,0,0:0:0:0:
187,72,92951,1,8,0:0:0:0:
260,96,93032,1,0,0:0:0:0:
359,133,93086,1,0,0:0:0:0:
359,133,93140,1,0,0:0:0:0:
359,133,93194,1,8,0:0:0:0:
271,88,93275,1,8,0:0:0:0:
271,88,93356,1,0,0:0:0:0:
274,102,93437,1,0,0:0:0:0:
435,107,93518,1,0,0:0:0:0:
435,107,93572,1,0,0:0:0:0:
435,107,93627,1,8,0:0:0:0:
435,107,93681,1,8,0:0:0:0:
473,113,93762,1,0,0:0:0:0:
432,88,93843,1,8,0:0:0:0:
432,89,93897,1,8,0:0:0:0:
432,89,93951,1,8,0:0:0:0:
432,89,94005,1,0,0:0:0:0:
435,64,94045,1,0,0:0:0:0:
435,64,94086,1,0,0:0:0:0:
435,64,94167,1,8,0:0:0:0:
435,64,94208,1,8,0:0:0:0:
435,64,94248,1,8,0:0:0:0:
435,64,94329,1,0,0:0:0:0:
435,64,94370,1,0,0:0:0:0:
435,64,94410,1,0,0:0:0:0:
435,64,94491,1,8,0:0:0:0:
435,64,94532,1,8,0:0:0:0:
435,64,94572,1,8,0:0:0:0:
342,124,94654,1,0,0:0:0:0:
342,124,94735,1,0,0:0:0:0:
342,124,94816,1,0,0:0:0:0:
342,124,94897,1,0,0:0:0:0:
384,128,94978,1,0,0:0:0:0:
384,128,95018,1,8,0:0:0:0:
384,128,95059,1,8,0:0:0:0:
384,128,95099,1,0,0:0:0:0:
384,128,95140,1,8,0:0:0:0:
384,128,95181,1,8,0:0:0:0:
384,128,95221,1,0,0:0:0:0:
384,128,95262,1,8,0:0:0:0:
384,128,95302,1,0,0:0:0:0:
300,110,95383,1,0,0:0:0:0:
300,110,95464,1,0,0:0:0:0:
300,110,95545,1,8,0:0:0:0:
446,67,95627,1,0,0:0:0:0:
327,112,95681,1,8,0:0:0:0:
327,112,95735,1,8,0:0:0:0:
338,99,95789,1,8,0:0:0:0:
351,114,95870,1,0,0:0:0:0:
448,115,95951,1,8,0:0:0:0:
448,115,96005,1,8,0:0:0:0:
448,115,96059,1,8,0:0:0:0:
448,115,96113,1,8,0:0:0:0:
418,99,96194,1,0,0:0:0:0:
418,99,96275,1,8,0:0:0:0:
418,99,96356,1,0,0:0:0:0:
418,99,96437,1,0,0:0:0:0:
418,99,96518,1,0,0:0:0:0:
405,87,96599,1,0,0:0:0:0:
405,87,96640,1,0,0:0:0:0:
321,100,96762,1,0,0:0:0:0:
321,100,96843,1,0,0:0:0:0:
321,100,96924,1,8,0:0:0:0:
409,97,97005,1,8,0:0:0:0:
409,97,97086,1,8,0:0:0:0:
372,105,97140,1,0,0:0:0:0:
372,105,97194,1,0,0:0:0:0:
376,111,97248,1,0,0:0:0:0:
383,90,97289,1,0,0:0:0:0:
383,90,97410,1,0,0:0:0:0:
383,90,97451,1,0,0:0:0:0:
383,90,97572,1,8,0:0:0:0:
383,90,97613,1,8,0:0:0:0:
383,90,97735,1,0,0:0:0:0:
383,90,97775,1,0,0:0:0:0:
483,107,97897,1,8,0:0:0:0:
483,107,97951,1,8,0:0:0:0:
483,107,98005,1,8,0:0:0:0:
483,107,98059,1,0,0:0:0:0:
446,86,98140,1,0,0:0:0:0:
446,86,98221,1,8,0:0:0:0:
437,70,98275,1,0,0:0:0:0:
437,73,98329,1,0,0:0:0:0:
446,86,98383,1,8,0:0:0:0:
446,86,98464,1,0,0:0:0:0:
425,97,98545,1,8,0:0:0:0:
425,97,98599,1,8,0:0:0:0:
425,97,98654,1,8,0:0:0:0:
425,97,98708,1,0,0:0:0:0:
414,110,98789,1,0,0:0:0:0:
414,110,98870,1,8,0:0:0:0:
389,119,98924,1,8,0:0:0:0:
389,119,98978,1,8,0:0:0:0:
389,119,99032,1,0,0:0:0:0:
454,49,99113,1,0,0:0:0:0:
356,130,99194,1,0,0:0:0:0:
391,92,99248,1,0,0:0:0:0:
391,92,99302,1,0,0:0:0:0:
391,92,99356,1,0,0:0:0:0:
356,130,99437,1,8,0:0:0:0:
391,92,99491,1,8,0:0:0:0:
391,92,99545,1,8,0:0:0:0:
391,92,99599,1,0,0:0:0:0:
356,130,99681,1,0,0:0:0:0:
391,92,99735,1,8,0:0:0:0:
391,92,99789,1,8,0:0:0:0:
391,92,99843,1,8,0:0:0:0:
356,130,99924,1,0,0:0:0:0:
391,92,99978,1,0,0:0:0:0:
391,92,100032,1,8,0:0:0:0:
391,92,100086,1,0,0:0:0:0:
356,130,100167,1,8,0:0:0:0:
391,92,100221,1,8,0:0:0:0:
391,92,100275,1,8,0:0:0:0:
391,92,100329,1,0,0:0:0:0:
120,159,100410,1,0,0:0:0:0:
371,130,100491,1,8,0:0:0:0:
371,130,100572,1,0,0:0:0:0:
371,130,100654,1,0,0:0:0:0:
297,148,100735,1,8,0:0:0:0:
275,109,100816,1,0,0:0:0:0:
371,103,100870,1,8,0:0:0:0:
368,107,100924,1,8,0:0:0:0:
366,100,100978,1,8,0:0:0:0:
451,85,101059,1,0,0:0:0:0:
399,75,101140,1,0,0:0:0:0:
399,78,101181,1,0,0:0:0:0:
398,81,101221,1,0,0:0:0:0:
398,82,101302,1,0,0:0:0:0:
226,87,101343,1,0,0:0:0:0:
398,82,101383,1,0,0:0:0:0:
262,116,101464,1,8,0:0:0:0:
201,122,101627,1,0,0:0:0:0:
352,118,101789,1,8,0:0:0:0:
335,124,101843,1,0,0:0:0:0:
335,124,101897,1,0,0:0:0:0:
335,124,101951,1,8,0:0:0:0:
335,124,102005,1,0,0:0:0:0:
335,124,102059,1,0,0:0:0:0:
335,124,102113,1,8,0:0:0:0:
336,127,102167,1,0,0:0:0:0:
336,127,102221,1,0,0:0:0:0:
336,127,102275,1,0,0:0:0:0:
336,127,102329,1,0,0:0:0:0:
336,127,102383,1,0,0:0:0:0:
336,127,102437,1,8,0:0:0:0:
371,106,102518,1,0,0:0:0:0:
371,106,102599,1,0,0:0:0:0:
375,97,102681,1,8,0:0:0:0:
388,100,102762,1,0,0:0:0:0:
388,100,102816,1,0,0:0:0:0:
386,102,102870,1,0,0:0:0:0:
386,102,102924,1,0,0:0:0:0:
386,133,103005,1,0,0:0:0:0:
386,133,103086,1,8,0:0:0:0:
386,133,103167,1,0,0:0:0:0:
423,119,103248,1,8,0:0:0:0:
423,119,103302,1,8,0:0:0:0:
423,119,103356,1,8,0:0:0:0:
423,119,103410,1,0,0:0:0:0:
395,153,103464,1,0,0:0:0:0:
395,153,103518,1,8,0:0:0:0:
395,153,103572,1,0,0:0:0:0:
395,153,103627,1,0,0:0:0:0:
395,153,103681,1,0,0:0:0:0:
395,153,103735,1,8,0:0:0:0:
395,153,103789,1,0,0:0:0:0:
395,153,103843,1,0,0:0:0:0:
395,153,103897,1,8,0:0:0:0:
395,153,103951,1,8,0:0:0:0:
395,153,104005,1,8,0:0:0:0:
395,153,104059,1,0,0:0:0:0:
395,153,104113,1,0,0:0:0:0:
331,87,104167,1,0,0:0:0:0:
395,153,104221,1,0,0:0:0:0:
395,153,104275,1,8,0:0:0:0:
395,153,104329,1,8,0:0:0:0:
395,153,104383,1,0,0:0:0:0:
439,99,104464,1,8,0:0:0:0:
439,99,104545,1,8,0:0:0:0:
438,110,104627,1,8,0:0:0:0:
296,97,104708,1,0,0:0:0:0:
322,148,104762,1,0,0:0:0:0:
322,148,104816,1,0,0:0:0:0:
322,148,104870,1,8,0:0:0:0:
469,63,104951,1,8,0:0:0:0:
416,104,105032,1,0,0:0:0:0:
416,104,105113,1,8,0:0:0:0:
413,122,105194,1,0,0:0:0:0:
408,133,105248,1,0,0:0:0:0:
408,133,105302,1,0,0:0:0:0:
408,133,105356,1,8,0:0:0:0:
429,113,105437,1,0,0:0:0:0:
337,134,105518,1,8,0:0:0:0:
337,134,105545,1,8,0:0:0:0:
337,134,105599,1,8,0:0:0:0:
337,134,105627,1,8,0:0:0:0:
340,136,105681,1,0,0:0:0:0:
468,139,105735,1,0,0:0:0:0:
468,139,105789,1,8,0:0:0:0:
468,139,105843,1,0,0:0:0:0:
468,139,105897,1,0,0:0:0:0:
468,139,105951,1,8,0:0:0:0:
396,126,106005,1,0,0:0:0:0:
396,129,106059,1,8,0:0:0:0:
396,129,106113,1,8,0:0:0:0:
396,129,106167,1,0,0:0:0:0:
396,129,106221,1,8,0:0:0:0:
396,129,106275,1,8,0:0:0:0:
406,150,106329,1,0,0:0:0:0:
427,138,106410,1,8,0:0:0:0:
426,138,106491,1,8,0:0:0:0:
426,140,106572,1,8,0:0:0:0:
421,149,106654,1,8,0:0:0:0:
416,192,106735,1,8,0:0:0:0:
416,192,106816,1,8,0:0:0:0:
416,192,106897,1,8,0:0:0:0:
416,192,106978,1,4,0:0:0:0:
295,153,107302,1,0,0:0:0:0:
295,153,107464,1,8,0:0:0:0:
227,102,107627,1,0,0:0:0:0:
233,107,107708,1,0,0:0:0:0:
233,107,107789,1,0,0:0:0:0:
367,122,107951,1,8,0:0:0:0:
367,122,108113,1,0,0:0:0:0:
367,122,108275,1,4,0:0:0:0:
287,64,108762,1,0,0:0:0:0:
291,75,108924,1,4,0:0:0:0:
298,102,109167,1,8,0:0:0:0:
298,102,109410,1,8,0:0:0:0:
298,102,109572,1,4,0:0:0:0:
273,118,109654,1,0,0:0:0:0:
273,118,109735,1,0,0:0:0:0:
273,118,109816,1,0,0:0:0:0:
273,118,109897,1,0,0:0:0:0:
316,87,110059,1,4,0:0:0:0:
324,102,110140,1,0,0:0:0:0:
324,102,110221,1,0,0:0:0:0:
324,102,110302,1,0,0:0:0:0:
324,104,110383,1,0,0:0:0:0:
324,106,110545,1,4,0:0:0:0:
324,106,110708,1,0,0:0:0:0:
324,106,110789,1,0,0:0:0:0:
325,105,111032,1,4,0:0:0:0:
325,115,111113,1,0,0:0:0:0:
325,115,111194,1,0,0:0:0:0:
325,115,111275,1,0,0:0:0:0:
325,115,111356,1,0,0:0:0:0:
325,117,111518,1,4,0:0:0:0:
325,117,111599,1,0,0:0:0:0:
325,117,111681,1,0,0:0:0:0:
325,117,111762,1,0,0:0:0:0:
325,118,111843,1,0,0:0:0:0:
400,87,111897,1,8,0:0:0:0:
400,87,111951,1,8,0:0:0:0:
400,87,112005,1,0,0:0:0:0:
400,87,112059,1,8,0:0:0:0:
400,87,112113,1,8,0:0:0:0:
400,87,112167,1,4,0:0:0:0:
377,78,112248,1,0,0:0:0:0:
377,78,112329,1,0,0:0:0:0:
376,79,112410,1,0,0:0:0:0:
376,79,112491,1,0,0:0:0:0:
335,131,112654,1,4,0:0:0:0:
335,131,112735,1,0,0:0:0:0:
335,131,112816,1,0,0:0:0:0:
335,131,112897,1,0,0:0:0:0:
335,131,112978,1,0,0:0:0:0:
335,131,113140,1,4,0:0:0:0:
335,131,113221,1,0,0:0:0:0:
335,131,113302,1,0,0:0:0:0:
336,137,113383,1,0,0:0:0:0:
390,75,113464,1,4,0:0:0:0:
437,46,113545,1,0,0:0:0:0:
487,63,113627,1,8,0:0:0:0:
487,63,113681,1,8,0:0:0:0:
487,63,113735,1,8,0:0:0:0:
487,63,113789,1,0,0:0:0:0:
473,108,113870,1,0,0:0:0:0:
473,108,113951,1,0,0:0:0:0:
473,108,114032,1,0,0:0:0:0:
473,108,114113,1,8,0:0:0:0:
473,108,114194,1,0,0:0:0:0:
466,121,114275,1,0,0:0:0:0:
466,121,114356,1,0,0:0:0:0:
369,122,114437,1,8,0:0:0:0:
369,122,114491,1,8,0:0:0:0:
369,122,114545,1,8,0:0:0:0:
369,122,114599,1,8,0:0:0:0:
420,162,114681,1,8,0:0:0:0:
420,162,114762,1,4,0:0:0:0:
227,119,115086,1,8,0:0:0:0:
275,135,115248,1,0,0:0:0:0:
275,135,115329,1,0,0:0:0:0:
275,135,115410,1,0,0:0:0:0:
275,135,115572,1,0,0:0:0:0:
275,135,115654,1,0,0:0:0:0:
275,135,115735,1,8,0:0:0:0:
400,117,116059,1,0,0:0:0:0:
400,117,116221,1,0,0:0:0:0:
400,117,116383,1,0,0:0:0:0:
416,137,116545,1,0,0:0:0:0:
415,143,116708,1,8,0:0:0:0:
415,143,116789,1,8,0:0:0:0:
415,143,116870,1,0,0:0:0:0:
415,143,117032,1,8,0:0:0:0:
415,148,117194,1,0,0:0:0:0:
415,145,117356,1,4,0:0:0:0:
434,156,117518,1,0,0:0:0:0:
434,156,117599,1,0,0:0:0:0:
416,150,117681,1,12,0:0:0:0:
438,160,117843,1,0,0:0:0:0:
438,161,117924,1,0,0:0:0:0:
422,151,118005,1,12,0:0:0:0:
450,174,118167,1,0,0:0:0:0:
450,174,118248,1,0,0:0:0:0:
422,151,118329,1,12,0:0:0:0:
463,185,118491,1,8,0:0:0:0:
463,185,118572,1,0,0:0:0:0:
463,185,118654,1,12,0:0:0:0:
463,185,118816,1,0,0:0:0:0:
466,188,118897,1,0,0:0:0:0:
467,190,118978,1,8,0:0:0:0:
418,143,119032,1,0,0:0:0:0:
418,143,119086,1,0,0:0:0:0:
418,143,119140,1,8,0:0:0:0:
420,138,119221,1,0,0:0:0:0:
443,118,119302,1,8,0:0:0:0:
443,118,119356,1,8,0:0:0:0:
443,118,119410,1,0,0:0:0:0:
443,118,119464,1,8,0:0:0:0:
444,95,119545,1,0,0:0:0:0:
413,108,119627,1,8,0:0:0:0:
413,108,119681,1,8,0:0:0:0:
413,108,119735,1,0,0:0:0:0:
413,108,119789,1,8,0:0:0:0:
413,108,119843,1,8,0:0:0:0:
256,192,120275,5,12,0:0:0:0:
256,192,120295,12,12,124998,0:0:0:0:
427,220,125140,5,4,0:0:0:0:
