osu file format v14

[General]
AudioFilename: audio.mp3
AudioLeadIn: 0
PreviewTime: 81186
Countdown: 0
SampleSet: Normal
StackLeniency: 0.7
Mode: 1
LetterboxInBreaks: 0
WidescreenStoryboard: 1

[Editor]
DistanceSpacing: 1.3
BeatDivisor: 4
GridSize: 8
TimelineZoom: 2.500001

[Metadata]
Title:Trickstarz
TitleUnicode:Trickstarz
Artist:Yu_Asahina
ArtistUnicode:Yu_Asahina
Creator:kitafuma
Version:Inner Oni
Source:
Tags:HAELEQUIN/HAELEQ∩INZ comic market comiket C87 KLAMNOP NEXT electronic 1st instrumental album
BeatmapID:2335498
BeatmapSetID:1118075

[Difficulty]
HPDrainRate:6
CircleSize:5
OverallDifficulty:6.5
ApproachRate:5
SliderMultiplier:1.4
SliderTickRate:1

[Events]
//Background and Video events
0,0,"background.png",0,130
//Break Periods
//Storyboard Layer 0 (Background)
//Storyboard Layer 1 (Fail)
//Storyboard Layer 2 (Pass)
//Storyboard Layer 3 (Foreground)
//Storyboard Layer 4 (Overlay)
//Storyboard Sound Samples

[TimingPoints]
1209,338.983050847458,4,1,0,90,1,0
13412,338.983050847458,4,1,0,90,1,0
55528,-102.040816326531,4,1,0,90,0,0
55613,-103.092783505155,4,1,0,90,0,0
55698,-104.166666666667,4,1,0,90,0,0
55782,-105.263157894737,4,1,0,90,0,0
55867,-106.382978723404,4,1,0,90,0,0
55952,-107.52688172043,4,1,0,90,0,0
56121,-109.89010989011,4,1,0,90,0,0
56291,-112.359550561798,4,1,0,90,0,0
56376,-113.636363636364,4,1,0,90,0,0
56460,-114.942528735632,4,1,0,90,0,0
56630,-116.279069767442,4,1,0,90,0,0
56799,-117.647058823529,4,1,0,90,0,0
57308,-133.333333333333,4,1,0,90,0,0
64935,-129.87012987013,4,1,0,90,0,0
65104,-126.582278481013,4,1,0,90,0,0
65274,-123.456790123457,4,1,0,90,0,0
65443,-120.481927710843,4,1,0,90,0,0
65613,-116.279069767442,4,1,0,90,0,0
65782,-112.359550561798,4,1,0,90,0,0
65952,-108.695652173913,4,1,0,90,0,0
66121,-105.263157894737,4,1,0,90,0,0
66291,-101.010101010101,4,1,0,90,0,0
66630,-100,4,1,0,90,0,0
78325,-95.2380952380952,4,1,0,90,0,0
81208,338.983050847458,4,1,0,100,1,1
81208,-90.9090909090909,4,1,0,100,0,1
100191,-93.4579439252336,4,1,0,90,0,0
100867,-96.1538461538461,4,1,0,90,0,0
101544,-99.009900990099,4,1,0,90,0,0
102053,-102.040816326531,4,1,0,90,0,0
102307,-102.040816326531,4,1,0,90,0,0
102392,-100,4,1,0,90,0,0
102477,-98.0392156862745,4,1,0,90,0,0
102561,-96.1538461538461,4,1,0,90,0,0
102646,-94.3396226415094,4,1,0,90,0,0
102731,-92.5925925925926,4,1,0,90,0,0
102902,-90.9090909090909,4,1,0,100,0,1
124597,-90.9090909090909,4,1,0,90,0,0
132733,338.983050847458,4,1,0,90,1,0
132733,-90.9090909090909,4,1,0,90,0,0
142222,-90.9090909090909,4,1,0,80,0,0

[HitObjects]
256,192,701,5,0,0:0:0:0:
256,192,870,1,0,0:0:0:0:
256,192,1040,1,0,0:0:0:0:
256,192,1209,1,6,0:0:0:0:
256,192,1547,1,0,0:0:0:0:
256,192,1717,1,2,0:0:0:0:
256,192,2056,1,0,0:0:0:0:
256,192,2395,1,2,0:0:0:0:
256,192,2903,1,0,0:0:0:0:
256,192,3242,1,0,0:0:0:0:
256,192,3581,1,2,0:0:0:0:
256,192,3920,1,2,0:0:0:0:
256,192,4259,1,0,0:0:0:0:
256,192,4429,1,2,0:0:0:0:
256,192,4768,1,0,0:0:0:0:
256,192,5107,1,2,0:0:0:0:
256,192,5446,1,0,0:0:0:0:
256,192,5615,1,0,0:0:0:0:
256,192,5954,1,2,0:0:0:0:
256,192,6124,1,0,0:0:0:0:
256,192,6293,1,2,0:0:0:0:
256,192,6463,1,2,0:0:0:0:
256,192,6632,1,0,0:0:0:0:
256,192,7480,1,0,0:0:0:0:
256,192,7649,1,2,0:0:0:0:
256,192,7819,1,2,0:0:0:0:
256,192,8327,1,0,0:0:0:0:
256,192,8666,1,2,0:0:0:0:
256,192,9005,1,2,0:0:0:0:
256,192,9344,1,2,0:0:0:0:
256,192,10022,1,0,0:0:0:0:
256,192,10192,1,2,0:0:0:0:
256,192,10361,1,2,0:0:0:0:
256,192,10531,1,0,0:0:0:0:
272,176,11209,1,2,0:0:0:0:
272,176,11293,1,2,0:0:0:0:
272,176,11378,1,0,0:0:0:0:
272,176,11886,1,2,0:0:0:0:
272,176,11971,1,0,0:0:0:0:
272,176,12056,1,0,0:0:0:0:
272,176,12225,1,2,0:0:0:0:
272,176,12310,1,0,0:0:0:0:
272,176,12395,1,2,0:0:0:0:
272,176,12480,1,2,0:0:0:0:
272,176,12564,1,0,0:0:0:0:
272,176,12649,1,0,0:0:0:0:
272,176,12734,1,2,0:0:0:0:
272,176,12819,1,0,0:0:0:0:
272,176,12903,1,0,0:0:0:0:
272,176,12988,1,0,0:0:0:0:
272,176,13073,1,2,0:0:0:0:
272,176,13158,1,2,0:0:0:0:
272,176,13242,1,2,0:0:0:0:
272,176,13327,1,2,0:0:0:0:
272,176,13412,1,0,0:0:0:0:
272,176,13581,1,0,0:0:0:0:
272,176,13750,1,2,0:0:0:0:
272,176,13920,1,0,0:0:0:0:
272,176,14089,1,2,0:0:0:0:
272,176,14259,1,0,0:0:0:0:
272,176,14428,1,2,0:0:0:0:
272,176,14598,1,2,0:0:0:0:
272,176,14767,1,2,0:0:0:0:
272,176,14937,1,0,0:0:0:0:
272,176,15106,1,2,0:0:0:0:
272,176,15276,1,0,0:0:0:0:
272,176,15445,1,0,0:0:0:0:
272,176,15615,1,2,0:0:0:0:
272,176,15784,1,0,0:0:0:0:
272,176,15954,1,2,0:0:0:0:
272,176,16123,1,2,0:0:0:0:
272,176,16293,1,0,0:0:0:0:
272,176,16462,1,2,0:0:0:0:
272,176,16632,1,2,0:0:0:0:
272,176,16801,1,2,0:0:0:0:
272,176,16971,1,0,0:0:0:0:
272,176,17140,1,2,0:0:0:0:
272,176,17310,1,0,0:0:0:0:
272,176,17479,1,0,0:0:0:0:
272,176,17649,1,2,0:0:0:0:
272,176,17818,1,2,0:0:0:0:
272,176,17988,1,0,0:0:0:0:
272,176,18157,1,2,0:0:0:0:
272,176,18327,1,0,0:0:0:0:
272,176,18412,1,0,0:0:0:0:
272,176,18496,1,0,0:0:0:0:
272,176,18666,1,2,0:0:0:0:
272,176,18835,1,0,0:0:0:0:
272,176,19005,1,0,0:0:0:0:
272,176,19174,1,2,0:0:0:0:
272,176,19344,1,0,0:0:0:0:
272,176,19513,1,2,0:0:0:0:
272,176,19683,1,2,0:0:0:0:
272,176,19852,1,0,0:0:0:0:
272,176,20022,1,2,0:0:0:0:
272,176,20191,1,2,0:0:0:0:
272,176,20361,1,0,0:0:0:0:
272,176,20530,1,0,0:0:0:0:
272,176,20700,1,2,0:0:0:0:
272,176,20869,1,0,0:0:0:0:
272,176,21039,1,0,0:0:0:0:
272,176,21208,1,2,0:0:0:0:
272,176,21378,1,0,0:0:0:0:
272,176,21547,1,2,0:0:0:0:
272,176,21717,1,0,0:0:0:0:
272,176,21886,1,2,0:0:0:0:
272,176,22056,1,2,0:0:0:0:
272,176,22225,1,0,0:0:0:0:
272,176,22395,1,2,0:0:0:0:
272,176,22564,1,2,0:0:0:0:
272,176,22734,1,0,0:0:0:0:
272,176,22903,1,0,0:0:0:0:
272,176,23073,1,2,0:0:0:0:
272,176,23242,1,0,0:0:0:0:
272,176,23412,1,0,0:0:0:0:
272,176,23581,1,2,0:0:0:0:
272,176,23750,1,0,0:0:0:0:
272,176,23920,1,2,0:0:0:0:
272,176,24089,1,0,0:0:0:0:
272,176,24174,1,2,0:0:0:0:
272,176,24259,1,0,0:0:0:0:
272,176,24428,1,0,0:0:0:0:
272,176,24513,1,0,0:0:0:0:
272,176,24598,1,2,0:0:0:0:
272,176,24683,1,0,0:0:0:0:
272,176,24767,1,2,0:0:0:0:
272,176,24852,1,2,0:0:0:0:
272,176,24937,1,0,0:0:0:0:
272,176,25106,1,2,0:0:0:0:
272,176,25191,1,0,0:0:0:0:
272,176,25276,1,2,0:0:0:0:
272,176,25361,1,2,0:0:0:0:
272,176,25445,1,0,0:0:0:0:
272,176,25615,1,2,0:0:0:0:
272,176,25784,1,0,0:0:0:0:
272,176,25869,1,2,0:0:0:0:
272,176,25954,1,0,0:0:0:0:
272,176,26039,1,0,0:0:0:0:
272,176,26123,1,2,0:0:0:0:
272,176,26208,1,2,0:0:0:0:
272,176,26293,1,0,0:0:0:0:
272,176,26462,1,0,0:0:0:0:
272,176,26547,1,0,0:0:0:0:
272,176,26632,1,2,0:0:0:0:
272,176,26717,1,2,0:0:0:0:
272,176,26801,1,0,0:0:0:0:
272,176,26971,1,2,0:0:0:0:
272,176,27140,1,0,0:0:0:0:
272,176,27225,1,0,0:0:0:0:
272,176,27310,1,2,0:0:0:0:
272,176,27395,1,0,0:0:0:0:
272,176,27479,1,2,0:0:0:0:
272,176,27564,1,2,0:0:0:0:
272,176,27649,1,0,0:0:0:0:
272,176,27818,1,2,0:0:0:0:
272,176,27903,1,0,0:0:0:0:
272,176,27988,1,2,0:0:0:0:
272,176,28073,1,2,0:0:0:0:
272,176,28157,1,0,0:0:0:0:
272,176,28327,1,2,0:0:0:0:
272,176,28496,1,0,0:0:0:0:
272,176,28581,1,2,0:0:0:0:
272,176,28666,1,0,0:0:0:0:
272,176,28750,1,0,0:0:0:0:
272,176,28835,1,2,0:0:0:0:
272,176,28920,1,2,0:0:0:0:
272,176,29005,1,0,0:0:0:0:
272,176,29174,1,0,0:0:0:0:
272,176,29259,1,2,0:0:0:0:
272,176,29344,1,0,0:0:0:0:
272,176,29428,1,0,0:0:0:0:
272,176,29513,1,2,0:0:0:0:
272,176,29683,1,0,0:0:0:0:
272,176,29767,1,0,0:0:0:0:
272,176,29852,1,0,0:0:0:0:
272,176,29937,1,0,0:0:0:0:
272,176,30022,1,2,0:0:0:0:
272,176,30106,1,2,0:0:0:0:
272,176,30191,1,0,0:0:0:0:
272,176,30276,1,0,0:0:0:0:
272,176,30361,1,2,0:0:0:0:
272,176,30445,1,2,0:0:0:0:
272,176,30530,1,0,0:0:0:0:
272,176,30615,1,2,0:0:0:0:
272,176,30700,1,0,0:0:0:0:
272,176,30784,1,0,0:0:0:0:
272,176,30869,1,2,0:0:0:0:
272,176,30954,1,2,0:0:0:0:
272,176,31039,1,0,0:0:0:0:
272,176,31123,1,0,0:0:0:0:
272,176,31208,1,0,0:0:0:0:
272,176,31293,1,0,0:0:0:0:
272,176,31378,1,2,0:0:0:0:
272,176,31462,1,2,0:0:0:0:
272,176,31547,1,0,0:0:0:0:
272,176,31632,1,0,0:0:0:0:
272,176,31717,1,2,0:0:0:0:
272,176,31801,1,2,0:0:0:0:
272,176,31886,1,0,0:0:0:0:
272,176,31971,1,2,0:0:0:0:
272,176,32056,1,0,0:0:0:0:
272,176,32140,1,0,0:0:0:0:
272,176,32225,1,2,0:0:0:0:
272,176,32395,1,0,0:0:0:0:
272,176,32564,1,2,0:0:0:0:
272,176,32649,1,2,0:0:0:0:
272,176,32734,1,0,0:0:0:0:
272,176,32903,1,0,0:0:0:0:
272,176,32988,1,2,0:0:0:0:
272,176,33073,1,0,0:0:0:0:
272,176,33242,1,2,0:0:0:0:
272,176,33327,1,2,0:0:0:0:
272,176,33412,1,0,0:0:0:0:
272,176,33581,1,2,0:0:0:0:
272,176,33637,1,2,0:0:0:0:
272,176,33694,1,2,0:0:0:0:
272,176,33750,1,0,0:0:0:0:
272,176,33835,1,0,0:0:0:0:
272,176,33920,1,2,0:0:0:0:
272,176,34005,1,2,0:0:0:0:
272,176,34089,1,0,0:0:0:0:
272,176,34174,1,0,0:0:0:0:
272,176,34259,1,2,0:0:0:0:
272,176,34344,1,2,0:0:0:0:
272,176,34428,1,0,0:0:0:0:
272,176,34485,1,0,0:0:0:0:
272,176,34541,1,0,0:0:0:0:
272,176,34598,1,2,0:0:0:0:
272,176,34683,1,2,0:0:0:0:
272,176,34767,1,0,0:0:0:0:
272,176,34824,1,2,0:0:0:0:
272,176,34880,1,2,0:0:0:0:
272,176,34937,1,0,0:0:0:0:
272,176,35106,1,4,0:0:0:0:
272,176,35445,1,2,0:0:0:0:
272,176,35615,1,0,0:0:0:0:
272,176,35784,1,0,0:0:0:0:
272,176,35869,1,0,0:0:0:0:
272,176,35954,1,0,0:0:0:0:
272,176,36123,1,2,0:0:0:0:
272,176,36293,1,0,0:0:0:0:
272,176,36462,1,0,0:0:0:0:
272,176,36632,1,2,0:0:0:0:
272,176,36717,1,2,0:0:0:0:
272,176,36801,1,0,0:0:0:0:
272,176,36971,1,2,0:0:0:0:
272,176,37140,1,0,0:0:0:0:
272,176,37225,1,2,0:0:0:0:
272,176,37310,1,0,0:0:0:0:
272,176,37395,1,0,0:0:0:0:
272,176,37479,1,2,0:0:0:0:
272,176,37649,1,2,0:0:0:0:
272,176,37734,1,2,0:0:0:0:
272,176,37818,1,0,0:0:0:0:
272,176,38073,1,0,0:0:0:0:
272,176,38157,1,2,0:0:0:0:
272,176,38327,1,2,0:0:0:0:
272,176,38496,1,0,0:0:0:0:
272,176,38666,1,2,0:0:0:0:
272,176,38750,1,0,0:0:0:0:
272,176,38835,1,0,0:0:0:0:
272,176,39005,1,0,0:0:0:0:
272,176,39174,1,2,0:0:0:0:
272,176,39344,1,0,0:0:0:0:
272,176,39428,1,2,0:0:0:0:
272,176,39513,1,0,0:0:0:0:
272,176,39683,1,2,0:0:0:0:
272,176,39852,1,0,0:0:0:0:
272,176,40022,1,2,0:0:0:0:
272,176,40106,1,0,0:0:0:0:
272,176,40191,1,2,0:0:0:0:
272,176,40276,1,2,0:0:0:0:
272,176,40361,1,0,0:0:0:0:
272,176,40530,1,2,0:0:0:0:
272,176,40784,1,2,0:0:0:0:
272,176,40869,1,0,0:0:0:0:
272,176,41039,1,2,0:0:0:0:
272,176,41208,1,2,0:0:0:0:
272,176,41378,1,0,0:0:0:0:
272,176,41462,1,0,0:0:0:0:
272,176,41547,1,0,0:0:0:0:
272,176,41717,1,2,0:0:0:0:
272,176,41886,1,0,0:0:0:0:
272,176,42056,1,2,0:0:0:0:
272,176,42140,1,2,0:0:0:0:
272,176,42225,1,0,0:0:0:0:
272,176,42395,1,2,0:0:0:0:
272,176,42564,1,0,0:0:0:0:
272,176,42734,1,0,0:0:0:0:
272,176,42818,1,0,0:0:0:0:
272,176,42903,1,2,0:0:0:0:
272,176,43073,1,2,0:0:0:0:
272,176,43242,1,0,0:0:0:0:
272,176,43412,1,2,0:0:0:0:
272,176,43496,1,0,0:0:0:0:
272,176,43581,1,0,0:0:0:0:
272,176,43750,1,0,0:0:0:0:
272,176,43920,1,2,0:0:0:0:
272,176,44005,1,2,0:0:0:0:
272,176,44089,1,0,0:0:0:0:
272,176,44259,1,2,0:0:0:0:
272,176,44428,1,0,0:0:0:0:
272,176,44598,1,2,0:0:0:0:
272,176,44852,1,0,0:0:0:0:
272,176,44937,1,2,0:0:0:0:
272,176,45106,1,2,0:0:0:0:
272,176,45191,1,2,0:0:0:0:
272,176,45276,1,0,0:0:0:0:
272,176,45361,1,0,0:0:0:0:
272,176,45445,1,2,0:0:0:0:
272,176,45615,1,2,0:0:0:0:
272,176,45700,1,2,0:0:0:0:
272,176,45784,1,0,0:0:0:0:
272,176,45954,1,4,0:0:0:0:
272,176,46208,1,0,0:0:0:0:
272,176,46293,1,2,0:0:0:0:
272,176,46462,1,0,0:0:0:0:
272,176,46632,1,0,0:0:0:0:
272,176,46801,1,2,0:0:0:0:
272,176,46886,1,0,0:0:0:0:
272,176,46971,1,2,0:0:0:0:
272,176,47140,1,0,0:0:0:0:
272,176,47310,1,2,0:0:0:0:
272,176,47564,1,0,0:0:0:0:
272,176,47649,1,2,0:0:0:0:
272,176,47818,1,0,0:0:0:0:
272,176,47988,1,2,0:0:0:0:
272,176,48073,1,0,0:0:0:0:
272,176,48157,1,0,0:0:0:0:
272,176,48327,1,2,0:0:0:0:
272,176,48496,1,0,0:0:0:0:
272,176,48581,1,2,0:0:0:0:
272,176,48666,1,0,0:0:0:0:
272,176,48835,1,0,0:0:0:0:
272,176,48920,1,0,0:0:0:0:
264,240,49005,1,2,0:0:0:0:
272,176,49174,1,2,0:0:0:0:
272,176,49344,1,0,0:0:0:0:
272,176,49428,1,0,0:0:0:0:
272,176,49513,1,2,0:0:0:0:
272,176,49598,1,0,0:0:0:0:
272,176,49683,1,2,0:0:0:0:
272,176,49767,1,2,0:0:0:0:
272,176,49852,1,0,0:0:0:0:
272,176,49937,1,2,0:0:0:0:
272,176,50022,1,0,0:0:0:0:
272,176,50276,1,0,0:0:0:0:
272,176,50361,1,2,0:0:0:0:
272,176,50530,1,0,0:0:0:0:
272,176,50615,1,0,0:0:0:0:
272,176,50700,1,2,0:0:0:0:
272,176,50869,1,0,0:0:0:0:
272,176,51039,1,2,0:0:0:0:
272,176,51123,1,0,0:0:0:0:
272,176,51208,1,0,0:0:0:0:
272,176,51293,1,2,0:0:0:0:
272,176,51378,1,0,0:0:0:0:
272,176,51632,1,0,0:0:0:0:
272,176,51717,1,2,0:0:0:0:
272,176,51886,1,0,0:0:0:0:
272,176,52056,1,2,0:0:0:0:
272,176,52140,1,2,0:0:0:0:
272,176,52225,1,0,0:0:0:0:
272,176,52395,1,2,0:0:0:0:
272,176,52564,1,0,0:0:0:0:
272,176,52649,1,0,0:0:0:0:
272,176,52818,1,0,0:0:0:0:
272,176,52903,1,2,0:0:0:0:
272,176,53073,1,0,0:0:0:0:
272,176,53242,1,2,0:0:0:0:
272,176,53327,1,0,0:0:0:0:
272,176,53412,1,0,0:0:0:0:
272,176,53581,1,2,0:0:0:0:
272,176,53750,1,0,0:0:0:0:
272,176,53835,1,2,0:0:0:0:
272,176,53920,1,2,0:0:0:0:
272,176,54089,1,0,0:0:0:0:
272,176,54259,1,2,0:0:0:0:
272,176,54344,1,0,0:0:0:0:
272,176,54428,1,2,0:0:0:0:
272,176,54598,1,2,0:0:0:0:
272,176,54767,1,0,0:0:0:0:
272,176,54852,1,0,0:0:0:0:
272,176,54937,1,2,0:0:0:0:
272,176,55106,1,2,0:0:0:0:
272,176,55276,1,4,0:0:0:0:
272,176,55530,1,0,0:0:0:0:
272,176,55615,1,2,0:0:0:0:
272,176,55700,1,0,0:0:0:0:
272,176,55784,1,0,0:0:0:0:
272,176,55869,1,2,0:0:0:0:
272,176,55954,1,0,0:0:0:0:
272,176,56123,1,2,0:0:0:0:
272,176,56293,1,0,0:0:0:0:
272,176,56378,1,2,0:0:0:0:
272,176,56462,1,0,0:0:0:0:
272,176,56632,1,2,0:0:0:0:
272,176,56801,1,0,0:0:0:0:
272,176,57310,1,0,0:0:0:0:
272,176,57479,1,0,0:0:0:0:
272,176,57818,1,2,0:0:0:0:
272,176,57988,1,0,0:0:0:0:
272,176,58327,1,0,0:0:0:0:
272,176,58666,1,0,0:0:0:0:
272,176,59005,1,0,0:0:0:0:
272,176,59089,1,0,0:0:0:0:
272,176,59174,1,2,0:0:0:0:
272,176,59344,1,2,0:0:0:0:
272,176,59513,1,0,0:0:0:0:
272,176,60022,1,0,0:0:0:0:
272,176,60191,1,0,0:0:0:0:
272,176,60530,1,2,0:0:0:0:
272,176,60700,1,0,0:0:0:0:
272,176,61039,1,0,0:0:0:0:
272,176,61378,1,0,0:0:0:0:
272,176,61717,1,0,0:0:0:0:
272,176,61801,1,0,0:0:0:0:
272,176,61886,1,2,0:0:0:0:
272,176,62056,1,2,0:0:0:0:
272,176,62225,1,0,0:0:0:0:
272,176,62734,1,0,0:0:0:0:
272,176,62903,1,0,0:0:0:0:
272,176,63242,1,2,0:0:0:0:
272,176,63412,1,0,0:0:0:0:
272,176,63750,1,0,0:0:0:0:
262,171,64089,1,0,0:0:0:0:
272,176,64428,1,0,0:0:0:0:
272,176,64513,1,0,0:0:0:0:
272,176,64598,1,2,0:0:0:0:
272,176,64937,1,0,0:0:0:0:
272,176,65276,1,2,0:0:0:0:
272,176,65445,1,0,0:0:0:0:
272,176,65615,1,0,0:0:0:0:
272,176,65954,1,2,0:0:0:0:
272,176,66123,1,0,0:0:0:0:
272,176,66293,1,4,0:0:0:0:
272,176,66632,1,6,0:0:0:0:
272,176,66801,1,4,0:0:0:0:
272,176,67140,1,2,0:0:0:0:
272,176,67225,1,2,0:0:0:0:
272,176,67310,1,2,0:0:0:0:
272,176,67395,1,2,0:0:0:0:
272,176,67479,1,2,0:0:0:0:
272,176,67649,1,4,0:0:0:0:
272,176,67988,1,2,0:0:0:0:
272,176,68073,1,0,0:0:0:0:
272,176,68157,1,2,0:0:0:0:
272,176,68242,1,2,0:0:0:0:
272,176,68327,1,0,0:0:0:0:
272,176,68496,1,2,0:0:0:0:
272,176,68581,1,0,0:0:0:0:
272,176,68666,1,0,0:0:0:0:
272,176,68835,1,2,0:0:0:0:
272,176,69005,1,0,0:0:0:0:
272,176,69174,1,0,0:0:0:0:
272,176,69259,1,0,0:0:0:0:
272,176,69344,1,2,0:0:0:0:
272,176,69428,1,2,0:0:0:0:
272,176,69513,1,0,0:0:0:0:
272,176,69683,1,2,0:0:0:0:
272,176,69852,1,0,0:0:0:0:
272,176,69937,1,0,0:0:0:0:
272,176,70022,1,2,0:0:0:0:
272,176,70191,1,2,0:0:0:0:
272,176,70361,1,0,0:0:0:0:
272,176,70530,1,2,0:0:0:0:
272,176,70700,1,0,0:0:0:0:
272,176,70784,1,0,0:0:0:0:
272,176,70869,1,2,0:0:0:0:
272,176,70954,1,2,0:0:0:0:
264,208,71039,1,0,0:0:0:0:
272,176,71208,1,2,0:0:0:0:
272,176,71293,1,0,0:0:0:0:
272,176,71378,1,0,0:0:0:0:
272,176,71547,1,2,0:0:0:0:
264,208,71632,1,0,0:0:0:0:
264,208,71801,1,0,0:0:0:0:
264,208,71886,1,2,0:0:0:0:
272,176,72056,1,0,0:0:0:0:
272,176,72140,1,2,0:0:0:0:
226,181,72225,1,0,0:0:0:0:
272,176,72310,1,0,0:0:0:0:
272,176,72395,1,2,0:0:0:0:
272,176,72564,1,2,0:0:0:0:
272,176,72734,1,0,0:0:0:0:
208,160,72903,1,2,0:0:0:0:
208,160,72988,1,2,0:0:0:0:
208,160,73073,1,0,0:0:0:0:
290,175,73327,1,0,0:0:0:0:
272,176,73412,1,2,0:0:0:0:
272,176,73496,1,0,0:0:0:0:
272,176,73581,1,2,0:0:0:0:
272,176,73666,1,2,0:0:0:0:
272,176,73750,1,0,0:0:0:0:
272,176,73920,1,0,0:0:0:0:
272,176,74089,1,2,0:0:0:0:
272,176,74174,1,2,0:0:0:0:
272,176,74259,1,0,0:0:0:0:
272,176,74428,1,2,0:0:0:0:
272,176,74598,1,0,0:0:0:0:
272,176,74767,1,2,0:0:0:0:
272,176,74852,1,2,0:0:0:0:
272,176,74937,1,0,0:0:0:0:
272,176,75106,1,2,0:0:0:0:
272,176,75276,1,0,0:0:0:0:
272,176,75445,1,2,0:0:0:0:
272,176,75530,1,0,0:0:0:0:
272,176,75615,1,2,0:0:0:0:
272,176,75700,1,2,0:0:0:0:
272,176,75784,1,0,0:0:0:0:
272,176,75954,1,0,0:0:0:0:
272,176,76039,1,0,0:0:0:0:
272,176,76123,1,2,0:0:0:0:
272,176,76293,1,2,0:0:0:0:
272,176,76462,1,0,0:0:0:0:
272,176,76632,1,2,0:0:0:0:
272,176,76717,1,2,0:0:0:0:
272,176,76801,1,0,0:0:0:0:
272,176,76971,1,2,0:0:0:0:
272,176,77140,1,0,0:0:0:0:
272,176,77225,1,2,0:0:0:0:
272,176,77310,1,0,0:0:0:0:
272,176,77479,1,0,0:0:0:0:
272,176,77649,1,2,0:0:0:0:
272,176,77734,1,0,0:0:0:0:
272,176,77903,1,0,0:0:0:0:
272,176,77988,1,2,0:0:0:0:
272,176,78157,1,0,0:0:0:0:
272,176,78327,1,2,0:0:0:0:
272,176,78412,1,2,0:0:0:0:
248,200,78496,1,0,0:0:0:0:
248,200,78581,1,0,0:0:0:0:
248,200,78666,1,2,0:0:0:0:
248,200,78750,1,0,0:0:0:0:
248,200,78835,1,2,0:0:0:0:
248,200,78920,1,2,0:0:0:0:
248,200,79005,1,0,0:0:0:0:
248,200,79089,1,2,0:0:0:0:
248,200,79174,1,0,0:0:0:0:
248,200,79259,1,0,0:0:0:0:
248,200,79344,1,2,0:0:0:0:
248,200,79428,1,2,0:0:0:0:
248,200,79513,1,0,0:0:0:0:
248,200,79598,1,0,0:0:0:0:
248,200,79683,1,2,0:0:0:0:
248,200,79767,1,2,0:0:0:0:
248,200,79852,1,0,0:0:0:0:
248,200,79937,1,2,0:0:0:0:
248,200,80022,1,0,0:0:0:0:
248,200,80106,1,0,0:0:0:0:
248,200,80191,1,2,0:0:0:0:
248,200,80248,1,2,0:0:0:0:
248,200,80304,1,0,0:0:0:0:
248,200,80361,1,2,0:0:0:0:
248,200,80417,1,0,0:0:0:0:
248,200,80474,1,0,0:0:0:0:
248,200,80530,1,2,0:0:0:0:
248,200,80700,1,0,0:0:0:0:
248,200,80784,1,0,0:0:0:0:
248,200,80869,1,2,0:0:0:0:
248,200,81039,1,2,0:0:0:0:
248,200,81208,1,4,0:0:0:0:
248,200,81462,1,0,0:0:0:0:
248,200,81546,1,2,0:0:0:0:
248,200,81716,1,2,0:0:0:0:
248,200,81885,1,0,0:0:0:0:
248,200,81970,1,0,0:0:0:0:
248,200,82055,1,2,0:0:0:0:
248,200,82224,1,0,0:0:0:0:
248,200,82394,1,2,0:0:0:0:
248,200,82479,1,2,0:0:0:0:
248,200,82563,1,0,0:0:0:0:
248,200,82733,1,0,0:0:0:0:
248,200,82902,1,2,0:0:0:0:
248,200,83072,1,0,0:0:0:0:
248,200,83157,1,0,0:0:0:0:
248,200,83241,1,2,0:0:0:0:
248,200,83326,1,2,0:0:0:0:
248,200,83411,1,0,0:0:0:0:
248,200,83580,1,2,0:0:0:0:
248,200,83665,1,2,0:0:0:0:
248,200,83750,1,2,0:0:0:0:
248,200,83919,1,2,0:0:0:0:
248,200,84089,1,0,0:0:0:0:
248,200,84258,1,2,0:0:0:0:
248,200,84343,1,0,0:0:0:0:
248,200,84428,1,2,0:0:0:0:
248,200,84597,1,0,0:0:0:0:
248,200,84767,1,2,0:0:0:0:
248,200,84852,1,2,0:0:0:0:
248,200,84936,1,0,0:0:0:0:
248,200,85106,1,2,0:0:0:0:
248,200,85191,1,0,0:0:0:0:
248,200,85360,1,0,0:0:0:0:
248,200,85445,1,2,0:0:0:0:
248,200,85530,1,0,0:0:0:0:
248,200,85614,1,2,0:0:0:0:
248,200,85784,1,0,0:0:0:0:
248,200,85953,1,2,0:0:0:0:
248,200,86038,1,2,0:0:0:0:
248,200,86123,1,0,0:0:0:0:
248,200,86208,1,2,0:0:0:0:
248,200,86292,1,0,0:0:0:0:
248,200,86377,1,0,0:0:0:0:
248,200,86462,1,2,0:0:0:0:
248,200,86631,1,0,0:0:0:0:
248,200,86885,1,0,0:0:0:0:
248,200,86970,1,2,0:0:0:0:
248,200,87140,1,2,0:0:0:0:
248,200,87309,1,0,0:0:0:0:
248,200,87479,1,2,0:0:0:0:
248,200,87563,1,2,0:0:0:0:
248,200,87648,1,0,0:0:0:0:
248,200,87733,1,0,0:0:0:0:
248,200,87818,1,2,0:0:0:0:
248,200,87987,1,0,0:0:0:0:
248,200,88157,1,2,0:0:0:0:
248,200,88241,1,2,0:0:0:0:
248,200,88326,1,0,0:0:0:0:
248,200,88496,1,2,0:0:0:0:
248,200,88665,1,0,0:0:0:0:
248,200,88750,1,0,0:0:0:0:
248,200,88835,1,0,0:0:0:0:
248,200,89004,1,2,0:0:0:0:
248,200,89089,1,0,0:0:0:0:
248,200,89174,1,2,0:0:0:0:
248,200,89258,1,2,0:0:0:0:
248,200,89343,1,0,0:0:0:0:
248,200,89597,1,2,0:0:0:0:
248,200,89682,1,0,0:0:0:0:
248,200,89852,1,2,0:0:0:0:
248,200,90021,1,0,0:0:0:0:
248,200,90106,1,0,0:0:0:0:
248,200,90191,1,2,0:0:0:0:
248,200,90360,1,2,0:0:0:0:
248,200,90530,1,0,0:0:0:0:
248,200,90614,1,0,0:0:0:0:
248,200,90784,1,2,0:0:0:0:
248,200,90869,1,0,0:0:0:0:
248,200,91038,1,2,0:0:0:0:
248,200,91208,1,0,0:0:0:0:
248,200,91292,1,2,0:0:0:0:
248,200,91377,1,0,0:0:0:0:
248,200,91462,1,0,0:0:0:0:
248,200,91546,1,2,0:0:0:0:
248,200,91631,1,2,0:0:0:0:
248,200,91716,1,0,0:0:0:0:
248,200,91885,1,2,0:0:0:0:
248,200,92055,1,4,0:0:0:0:
248,200,92224,1,0,0:0:0:0:
248,200,92309,1,0,0:0:0:0:
248,200,92394,1,2,0:0:0:0:
248,200,92563,1,2,0:0:0:0:
248,200,92648,1,0,0:0:0:0:
248,200,92818,1,0,0:0:0:0:
248,200,92902,1,2,0:0:0:0:
248,200,93072,1,0,0:0:0:0:
248,200,93241,1,6,0:0:0:0:
248,200,93496,1,0,0:0:0:0:
248,200,93580,1,2,0:0:0:0:
248,200,93750,1,0,0:0:0:0:
248,200,93919,1,2,0:0:0:0:
248,200,94004,1,2,0:0:0:0:
248,200,94089,1,0,0:0:0:0:
248,200,94258,1,2,0:0:0:0:
248,200,94428,1,0,0:0:0:0:
248,200,94513,1,0,0:0:0:0:
248,200,94597,1,2,0:0:0:0:
248,200,94767,1,4,0:0:0:0:
248,200,94936,1,0,0:0:0:0:
248,200,95021,1,0,0:0:0:0:
248,200,95106,1,2,0:0:0:0:
248,200,95275,1,2,0:0:0:0:
248,200,95445,1,0,0:0:0:0:
248,200,95530,1,2,0:0:0:0:
248,200,95614,1,2,0:0:0:0:
248,200,95784,1,0,0:0:0:0:
248,200,95953,1,6,0:0:0:0:
248,200,96208,1,0,0:0:0:0:
248,200,96292,1,2,0:0:0:0:
248,200,96462,1,0,0:0:0:0:
248,200,96631,1,2,0:0:0:0:
248,200,96716,1,0,0:0:0:0:
248,200,96801,1,2,0:0:0:0:
248,200,96885,1,2,0:0:0:0:
248,200,96970,1,0,0:0:0:0:
248,200,97140,1,2,0:0:0:0:
248,200,97196,1,2,0:0:0:0:
248,200,97253,1,2,0:0:0:0:
248,200,97309,1,0,0:0:0:0:
248,200,97479,1,0,0:0:0:0:
248,200,97733,1,0,0:0:0:0:
248,200,97818,1,2,0:0:0:0:
248,200,97987,1,2,0:0:0:0:
248,200,98157,1,0,0:0:0:0:
248,200,98241,1,0,0:0:0:0:
248,200,98326,1,2,0:0:0:0:
248,200,98496,1,0,0:0:0:0:
248,200,98665,1,2,0:0:0:0:
248,200,98750,1,2,0:0:0:0:
248,200,98835,1,0,0:0:0:0:
248,200,99004,1,2,0:0:0:0:
248,200,99174,1,0,0:0:0:0:
248,200,99343,1,2,0:0:0:0:
248,200,99428,1,2,0:0:0:0:
248,200,99513,1,0,0:0:0:0:
248,200,99682,1,0,0:0:0:0:
248,200,99852,1,2,0:0:0:0:
248,200,100021,1,0,0:0:0:0:
248,200,100191,1,4,0:0:0:0:
248,200,100360,1,0,0:0:0:0:
248,200,100530,1,2,0:0:0:0:
248,200,100699,1,0,0:0:0:0:
248,200,100869,1,4,0:0:0:0:
248,200,101038,1,0,0:0:0:0:
248,200,101208,1,2,0:0:0:0:
248,200,101377,1,0,0:0:0:0:
248,200,101546,1,4,0:0:0:0:
248,200,101716,1,0,0:0:0:0:
248,200,101885,1,2,0:0:0:0:
248,200,102055,1,4,0:0:0:0:
248,200,102224,1,0,0:0:0:0:
248,200,102394,1,2,0:0:0:0:
248,200,102479,1,2,0:0:0:0:
248,200,102563,1,2,0:0:0:0:
248,200,102648,1,2,0:0:0:0:
248,200,102733,1,2,0:0:0:0:
248,200,102902,1,4,0:0:0:0:
248,200,103157,1,0,0:0:0:0:
248,200,103241,1,2,0:0:0:0:
248,200,103411,1,2,0:0:0:0:
248,200,103496,1,2,0:0:0:0:
248,200,103580,1,0,0:0:0:0:
248,200,103665,1,0,0:0:0:0:
248,200,103750,1,2,0:0:0:0:
248,200,103919,1,0,0:0:0:0:
248,200,104089,1,2,0:0:0:0:
248,200,104174,1,2,0:0:0:0:
248,200,104258,1,0,0:0:0:0:
248,200,104428,1,0,0:0:0:0:
248,200,104597,1,2,0:0:0:0:
248,200,104682,1,0,0:0:0:0:
248,200,104767,1,2,0:0:0:0:
248,200,104852,1,2,0:0:0:0:
248,200,104936,1,0,0:0:0:0:
248,200,105106,1,0,0:0:0:0:
248,200,105275,1,2,0:0:0:0:
248,200,105360,1,2,0:0:0:0:
248,200,105445,1,2,0:0:0:0:
248,200,105614,1,2,0:0:0:0:
248,200,105784,1,0,0:0:0:0:
248,200,105869,1,0,0:0:0:0:
248,200,105953,1,2,0:0:0:0:
248,200,106038,1,0,0:0:0:0:
248,200,106123,1,2,0:0:0:0:
248,200,106292,1,0,0:0:0:0:
248,200,106377,1,0,0:0:0:0:
248,200,106462,1,2,0:0:0:0:
248,200,106631,1,0,0:0:0:0:
248,200,106801,1,2,0:0:0:0:
248,200,106885,1,0,0:0:0:0:
248,200,107055,1,0,0:0:0:0:
248,200,107140,1,2,0:0:0:0:
248,200,107224,1,0,0:0:0:0:
248,200,107309,1,2,0:0:0:0:
248,200,107479,1,0,0:0:0:0:
248,200,107648,1,2,0:0:0:0:
248,200,107733,1,2,0:0:0:0:
248,200,107818,1,0,0:0:0:0:
248,200,107902,1,2,0:0:0:0:
248,200,107987,1,0,0:0:0:0:
248,200,108072,1,0,0:0:0:0:
248,200,108157,1,2,0:0:0:0:
248,200,108326,1,0,0:0:0:0:
248,200,108580,1,0,0:0:0:0:
248,200,108665,1,2,0:0:0:0:
248,200,108835,1,0,0:0:0:0:
248,200,109004,1,2,0:0:0:0:
248,200,109174,1,0,0:0:0:0:
248,200,109258,1,2,0:0:0:0:
248,200,109343,1,0,0:0:0:0:
248,200,109428,1,0,0:0:0:0:
248,200,109513,1,2,0:0:0:0:
248,200,109682,1,0,0:0:0:0:
248,200,109852,1,2,0:0:0:0:
248,200,109936,1,2,0:0:0:0:
248,200,110021,1,0,0:0:0:0:
248,200,110191,1,2,0:0:0:0:
248,200,110360,1,0,0:0:0:0:
248,200,110445,1,0,0:0:0:0:
248,200,110530,1,0,0:0:0:0:
248,200,110699,1,2,0:0:0:0:
248,200,110784,1,0,0:0:0:0:
248,200,110869,1,2,0:0:0:0:
248,200,110953,1,2,0:0:0:0:
248,200,111038,1,0,0:0:0:0:
248,200,111292,1,2,0:0:0:0:
248,200,111377,1,0,0:0:0:0:
248,200,111546,1,2,0:0:0:0:
248,200,111716,1,0,0:0:0:0:
248,200,111801,1,0,0:0:0:0:
248,200,111885,1,2,0:0:0:0:
248,200,112055,1,2,0:0:0:0:
248,200,112224,1,0,0:0:0:0:
248,200,112309,1,2,0:0:0:0:
248,200,112479,1,2,0:0:0:0:
248,200,112563,1,0,0:0:0:0:
248,200,112733,1,2,0:0:0:0:
248,200,112902,1,0,0:0:0:0:
248,200,112987,1,2,0:0:0:0:
248,200,113072,1,0,0:0:0:0:
248,200,113157,1,0,0:0:0:0:
248,200,113241,1,2,0:0:0:0:
248,200,113326,1,2,0:0:0:0:
248,200,113411,1,0,0:0:0:0:
248,200,113580,1,2,0:0:0:0:
248,200,113750,1,4,0:0:0:0:
248,200,113919,1,0,0:0:0:0:
248,200,114004,1,0,0:0:0:0:
248,200,114089,1,2,0:0:0:0:
248,200,114258,1,2,0:0:0:0:
248,200,114343,1,0,0:0:0:0:
248,200,114513,1,0,0:0:0:0:
248,200,114597,1,2,0:0:0:0:
248,200,114767,1,0,0:0:0:0:
248,200,114936,1,6,0:0:0:0:
248,200,115191,1,0,0:0:0:0:
248,200,115275,1,2,0:0:0:0:
248,200,115445,1,0,0:0:0:0:
248,200,115614,1,2,0:0:0:0:
248,200,115699,1,2,0:0:0:0:
248,200,115784,1,0,0:0:0:0:
248,200,115953,1,2,0:0:0:0:
248,200,116123,1,0,0:0:0:0:
248,200,116208,1,0,0:0:0:0:
248,200,116292,1,2,0:0:0:0:
248,200,116462,1,4,0:0:0:0:
248,200,116631,1,0,0:0:0:0:
248,200,116716,1,0,0:0:0:0:
248,200,116801,1,2,0:0:0:0:
248,200,116970,1,0,0:0:0:0:
248,200,117140,1,2,0:0:0:0:
248,200,117224,1,0,0:0:0:0:
248,200,117309,1,2,0:0:0:0:
248,200,117394,1,2,0:0:0:0:
248,200,117479,1,0,0:0:0:0:
248,200,117648,1,6,0:0:0:0:
248,200,117902,1,2,0:0:0:0:
248,200,117987,1,0,0:0:0:0:
248,200,118157,1,0,0:0:0:0:
248,200,118326,1,2,0:0:0:0:
248,200,118411,1,0,0:0:0:0:
248,200,118496,1,2,0:0:0:0:
248,200,118580,1,2,0:0:0:0:
248,200,118665,1,0,0:0:0:0:
248,200,118835,1,2,0:0:0:0:
248,200,118891,1,2,0:0:0:0:
248,200,118948,1,2,0:0:0:0:
248,200,119004,1,0,0:0:0:0:
248,200,119174,1,2,0:0:0:0:
248,200,119343,1,0,0:0:0:0:
248,200,119428,1,0,0:0:0:0:
248,200,119513,1,2,0:0:0:0:
248,200,119597,1,0,0:0:0:0:
248,200,119682,1,2,0:0:0:0:
248,200,119767,1,2,0:0:0:0:
248,200,119852,1,0,0:0:0:0:
248,200,120021,1,2,0:0:0:0:
248,200,120106,1,2,0:0:0:0:
248,200,120191,1,0,0:0:0:0:
248,200,120275,1,2,0:0:0:0:
248,200,120360,1,0,0:0:0:0:
248,200,120445,1,0,0:0:0:0:
248,200,120530,1,2,0:0:0:0:
248,200,120699,1,0,0:0:0:0:
248,200,120784,1,2,0:0:0:0:
248,200,120869,1,0,0:0:0:0:
248,200,120953,1,0,0:0:0:0:
248,200,121038,1,2,0:0:0:0:
248,200,121123,1,0,0:0:0:0:
248,200,121208,1,2,0:0:0:0:
248,200,121377,1,2,0:0:0:0:
248,200,121462,1,2,0:0:0:0:
248,200,121546,1,0,0:0:0:0:
248,200,121716,1,2,0:0:0:0:
248,200,121885,1,4,0:0:0:0:
248,200,122055,1,0,0:0:0:0:
248,200,122140,1,2,0:0:0:0:
248,200,122224,1,0,0:0:0:0:
248,200,122394,1,2,0:0:0:0:
248,200,122563,1,4,0:0:0:0:
248,200,122733,1,2,0:0:0:0:
248,200,122818,1,2,0:0:0:0:
248,200,122902,1,0,0:0:0:0:
248,200,123072,1,2,0:0:0:0:
248,200,123241,1,4,0:0:0:0:
248,200,123411,1,2,0:0:0:0:
248,200,123496,1,2,0:0:0:0:
248,200,123580,1,2,0:0:0:0:
248,200,123750,1,2,0:0:0:0:
248,200,123919,1,4,0:0:0:0:
248,200,124089,1,0,0:0:0:0:
248,200,124174,1,0,0:0:0:0:
248,200,124258,1,2,0:0:0:0:
248,200,124428,1,0,0:0:0:0:
248,200,124597,1,6,0:0:0:0:
248,200,124767,1,2,0:0:0:0:
248,200,124936,1,0,0:0:0:0:
248,200,125106,1,2,0:0:0:0:
248,200,125275,1,0,0:0:0:0:
248,200,125445,1,0,0:0:0:0:
248,200,125614,1,2,0:0:0:0:
248,200,125784,1,2,0:0:0:0:
248,200,125953,1,2,0:0:0:0:
248,200,126123,1,0,0:0:0:0:
248,200,126292,1,0,0:0:0:0:
248,200,126462,1,2,0:0:0:0:
248,200,126631,1,0,0:0:0:0:
248,200,126801,1,0,0:0:0:0:
248,200,126970,1,2,0:0:0:0:
248,200,127140,1,0,0:0:0:0:
248,200,127309,1,2,0:0:0:0:
248,200,127479,1,2,0:0:0:0:
248,200,127648,1,0,0:0:0:0:
248,200,127818,1,2,0:0:0:0:
248,200,127987,1,0,0:0:0:0:
248,200,128157,1,0,0:0:0:0:
248,200,128326,1,2,0:0:0:0:
248,200,128496,1,0,0:0:0:0:
248,200,128665,1,2,0:0:0:0:
248,200,128835,1,2,0:0:0:0:
248,200,129004,1,2,0:0:0:0:
248,200,129174,1,0,0:0:0:0:
248,200,129343,1,0,0:0:0:0:
248,200,129513,1,2,0:0:0:0:
248,200,129682,1,0,0:0:0:0:
248,200,129739,1,0,0:0:0:0:
248,200,129795,1,0,0:0:0:0:
248,200,129852,1,2,0:0:0:0:
248,200,130021,1,2,0:0:0:0:
248,200,130191,1,2,0:0:0:0:
248,200,130275,1,2,0:0:0:0:
248,200,130360,1,0,0:0:0:0:
248,200,130530,1,2,0:0:0:0:
248,200,130699,1,0,0:0:0:0:
248,200,130784,1,0,0:0:0:0:
248,200,130869,1,0,0:0:0:0:
248,200,131038,1,2,0:0:0:0:
248,200,131208,1,2,0:0:0:0:
248,200,131292,1,2,0:0:0:0:
248,200,131377,1,0,0:0:0:0:
248,200,131546,1,2,0:0:0:0:
248,200,131716,1,0,0:0:0:0:
248,200,131801,1,0,0:0:0:0:
248,200,131885,1,2,0:0:0:0:
248,200,132055,1,0,0:0:0:0:
248,200,132140,1,0,0:0:0:0:
248,200,132224,1,2,0:0:0:0:
248,200,132309,1,2,0:0:0:0:
248,200,132394,1,2,0:0:0:0:
248,200,132563,1,0,0:0:0:0:
248,200,132733,1,6,0:0:0:0:
248,200,132987,1,0,0:0:0:0:
248,200,133071,1,2,0:0:0:0:
248,200,133241,1,0,0:0:0:0:
248,200,133410,1,2,0:0:0:0:
248,200,133495,1,0,0:0:0:0:
248,200,133580,1,2,0:0:0:0:
248,200,133749,1,0,0:0:0:0:
248,200,133919,1,2,0:0:0:0:
248,200,134004,1,0,0:0:0:0:
248,200,134173,1,0,0:0:0:0:
248,200,134258,1,2,0:0:0:0:
248,200,134427,1,0,0:0:0:0:
248,200,134512,1,0,0:0:0:0:
248,200,134597,1,0,0:0:0:0:
248,200,134766,1,2,0:0:0:0:
248,200,134851,1,0,0:0:0:0:
248,200,134936,1,0,0:0:0:0:
248,200,135105,1,0,0:0:0:0:
248,200,135275,1,2,0:0:0:0:
248,200,135444,1,4,0:0:0:0:
248,200,135699,1,0,0:0:0:0:
248,200,135783,1,2,0:0:0:0:
248,200,135953,1,0,0:0:0:0:
248,200,136122,1,2,0:0:0:0:
248,200,136207,1,0,0:0:0:0:
248,200,136292,1,2,0:0:0:0:
248,200,136377,1,2,0:0:0:0:
248,200,136461,1,0,0:0:0:0:
248,200,136631,1,2,0:0:0:0:
248,200,136716,1,0,0:0:0:0:
248,200,136885,1,0,0:0:0:0:
248,200,136970,1,2,0:0:0:0:
248,200,137139,1,0,0:0:0:0:
248,200,137224,1,2,0:0:0:0:
248,200,137309,1,0,0:0:0:0:
248,200,137478,1,2,0:0:0:0:
248,200,137563,1,0,0:0:0:0:
248,200,137648,1,2,0:0:0:0:
248,200,137733,1,2,0:0:0:0:
248,200,137817,1,0,0:0:0:0:
248,200,137987,1,2,0:0:0:0:
248,200,138156,1,0,0:0:0:0:
248,200,138241,1,0,0:0:0:0:
248,200,138326,1,0,0:0:0:0:
248,200,138410,1,0,0:0:0:0:
248,200,138495,1,2,0:0:0:0:
248,200,138580,1,2,0:0:0:0:
248,200,138665,1,0,0:0:0:0:
248,200,138749,1,0,0:0:0:0:
248,200,138834,1,2,0:0:0:0:
248,200,138919,1,0,0:0:0:0:
248,200,139004,1,2,0:0:0:0:
248,200,139088,1,2,0:0:0:0:
248,200,139173,1,0,0:0:0:0:
248,200,139258,1,2,0:0:0:0:
248,200,139343,1,0,0:0:0:0:
248,200,139427,1,0,0:0:0:0:
248,200,139512,1,2,0:0:0:0:
248,200,139597,1,2,0:0:0:0:
248,200,139682,1,0,0:0:0:0:
248,200,139766,1,2,0:0:0:0:
248,200,139851,1,0,0:0:0:0:
248,200,139936,1,0,0:0:0:0:
248,200,140021,1,2,0:0:0:0:
248,200,140105,1,2,0:0:0:0:
248,200,140190,1,0,0:0:0:0:
248,200,140275,1,2,0:0:0:0:
248,200,140360,1,2,0:0:0:0:
248,200,140444,1,0,0:0:0:0:
248,200,140529,1,2,0:0:0:0:
248,200,140614,1,2,0:0:0:0:
248,200,140699,1,0,0:0:0:0:
248,200,140783,1,0,0:0:0:0:
248,200,140868,1,2,0:0:0:0:
248,200,140925,1,0,0:0:0:0:
248,200,140981,1,0,0:0:0:0:
248,200,141038,1,2,0:0:0:0:
248,200,141122,1,2,0:0:0:0:
248,200,141207,1,0,0:0:0:0:
248,200,141264,1,2,0:0:0:0:
248,200,141320,1,2,0:0:0:0:
248,200,141377,1,0,0:0:0:0:
248,200,141461,1,0,0:0:0:0:
248,200,141546,1,2,0:0:0:0:
248,200,141603,1,0,0:0:0:0:
248,200,141659,1,0,0:0:0:0:
248,200,141716,1,2,0:0:0:0:
248,200,141800,1,2,0:0:0:0:
248,200,141885,1,0,0:0:0:0:
248,200,141942,1,2,0:0:0:0:
248,200,141998,1,0,0:0:0:0:
248,200,142055,1,0,0:0:0:0:
248,200,142111,1,2,0:0:0:0:
248,200,142168,1,2,0:0:0:0:
248,200,142224,1,0,0:0:0:0:
256,192,142394,12,0,143749,0:0:0:0:
