osu file format v14

[General]
AudioFilename: audio.mp3
AudioLeadIn: 0
PreviewTime: 81186
Countdown: 0
SampleSet: Normal
StackLeniency: 0.7
Mode: 1
LetterboxInBreaks: 0
WidescreenStoryboard: 1

[Editor]
DistanceSpacing: 1.3
BeatDivisor: 4
GridSize: 32
TimelineZoom: 2.200001

[Metadata]
Title:Trickstarz
TitleUnicode:Trickstarz
Artist:Yu_Asahina
ArtistUnicode:Yu_Asahina
Creator:kitafuma
Version:Kantan
Source:
Tags:HAELEQUIN/HAELEQ∩INZ comic market comiket C87 KLAMNOP NEXT electronic 1st instrumental album
BeatmapID:2395065
BeatmapSetID:1118075

[Difficulty]
HPDrainRate:7
CircleSize:5
OverallDifficulty:3
ApproachRate:5
SliderMultiplier:1.4
SliderTickRate:1

[Events]
//Background and Video events
0,0,"background.png",0,130
//Break Periods
//Storyboard Layer 0 (Background)
//Storyboard Layer 1 (Fail)
//Storyboard Layer 2 (Pass)
//Storyboard Layer 3 (Foreground)
//Storyboard Layer 4 (Overlay)
//Storyboard Sound Samples

[TimingPoints]
1209,338.983050847458,4,1,0,90,1,0
13412,338.983050847458,4,1,0,90,1,0
81208,338.983050847458,4,1,0,100,1,1
81208,-100,4,1,0,100,0,1
100191,-100,4,1,0,90,0,0
102902,-100,4,1,0,100,0,1
124597,-100,4,1,0,90,0,0
132733,338.983050847458,4,1,0,90,1,0
142226,-100,4,1,0,80,0,0

[HitObjects]
256,192,1209,5,4,0:0:0:0:
256,192,2395,1,0,0:0:0:0:
256,192,3242,1,0,0:0:0:0:
256,192,3920,1,2,0:0:0:0:
256,192,5107,1,2,0:0:0:0:
256,192,5954,1,2,0:0:0:0:
256,192,6632,1,0,0:0:0:0:
256,192,7819,1,2,0:0:0:0:
256,192,8666,1,2,0:0:0:0:
256,192,9344,1,0,0:0:0:0:
256,192,10022,1,2,0:0:0:0:
256,192,10531,1,2,0:0:0:0:
272,176,11378,1,0,0:0:0:0:
272,176,12056,1,0,0:0:0:0:
272,176,13412,1,4,0:0:0:0:
272,176,14089,1,2,0:0:0:0:
272,176,14767,1,0,0:0:0:0:
272,176,15106,1,0,0:0:0:0:
272,176,15445,1,2,0:0:0:0:
272,176,16123,1,0,0:0:0:0:
272,176,16801,1,2,0:0:0:0:
272,176,17479,1,0,0:0:0:0:
272,176,17818,1,0,0:0:0:0:
272,176,18157,1,2,0:0:0:0:
272,176,18496,1,2,0:0:0:0:
272,176,18835,1,0,0:0:0:0:
272,176,19513,1,2,0:0:0:0:
272,176,20191,1,0,0:0:0:0:
272,176,20530,1,0,0:0:0:0:
272,176,20869,1,2,0:0:0:0:
272,176,21547,1,0,0:0:0:0:
272,176,22225,1,2,0:0:0:0:
272,176,22903,1,0,0:0:0:0:
272,176,24259,1,0,0:0:0:0:
272,176,24937,1,2,0:0:0:0:
272,176,25615,1,0,0:0:0:0:
272,176,25954,1,2,0:0:0:0:
272,176,26293,1,0,0:0:0:0:
272,176,26971,1,2,0:0:0:0:
272,176,27649,1,0,0:0:0:0:
272,176,28327,1,2,0:0:0:0:
272,176,28666,1,0,0:0:0:0:
272,176,29005,1,2,0:0:0:0:
272,176,29683,1,0,0:0:0:0:
272,176,30022,1,0,0:0:0:0:
272,176,30361,1,0,0:0:0:0:
272,176,31039,1,0,0:0:0:0:
272,176,31378,1,0,0:0:0:0:
272,176,31717,1,0,0:0:0:0:
272,176,32395,1,0,0:0:0:0:
272,176,33073,1,2,0:0:0:0:
272,176,33750,1,0,0:0:0:0:
272,176,34428,1,2,0:0:0:0:
272,176,34767,1,2,0:0:0:0:
272,176,35106,1,4,0:0:0:0:
272,176,35784,1,2,0:0:0:0:
272,176,36293,1,0,0:0:0:0:
272,176,37479,1,2,0:0:0:0:
272,176,37818,1,0,0:0:0:0:
272,176,38327,1,2,0:0:0:0:
272,176,39005,1,0,0:0:0:0:
272,176,40191,1,2,0:0:0:0:
272,176,40530,1,0,0:0:0:0:
272,176,41039,1,2,0:0:0:0:
272,176,41717,1,2,0:0:0:0:
272,176,42225,1,0,0:0:0:0:
272,176,42564,1,0,0:0:0:0:
272,176,43242,1,2,0:0:0:0:
272,176,44089,1,0,0:0:0:0:
272,176,44428,1,2,0:0:0:0:
272,176,45954,1,4,0:0:0:0:
272,176,46632,1,2,0:0:0:0:
272,176,47140,1,0,0:0:0:0:
272,176,48327,1,2,0:0:0:0:
272,176,48666,1,0,0:0:0:0:
272,176,49174,1,2,0:0:0:0:
272,176,49513,1,2,0:0:0:0:
272,176,49852,1,2,0:0:0:0:
272,176,50361,1,0,0:0:0:0:
272,176,50700,1,0,0:0:0:0:
272,176,51378,1,2,0:0:0:0:
272,176,51886,1,2,0:0:0:0:
272,176,52225,1,0,0:0:0:0:
272,176,52564,1,2,0:0:0:0:
272,176,53750,1,2,0:0:0:0:
272,176,54089,1,0,0:0:0:0:
272,176,54598,1,2,0:0:0:0:
272,176,55276,1,6,0:0:0:0:
272,176,56801,1,0,0:0:0:0:
272,176,57310,1,2,0:0:0:0:
272,176,57988,1,0,0:0:0:0:
272,176,58666,1,0,0:0:0:0:
272,176,59513,1,0,0:0:0:0:
272,176,60022,1,2,0:0:0:0:
272,176,60700,1,0,0:0:0:0:
272,176,62225,1,0,0:0:0:0:
272,176,62734,1,2,0:0:0:0:
272,176,63412,1,0,0:0:0:0:
272,176,64259,1,2,0:0:0:0:
272,176,64937,1,0,0:0:0:0:
272,176,65615,1,2,0:0:0:0:
272,176,66293,1,4,0:0:0:0:
272,176,66801,1,4,0:0:0:0:
272,176,67649,1,6,0:0:0:0:
272,176,68835,1,0,0:0:0:0:
272,176,69683,1,2,0:0:0:0:
272,176,70022,1,2,0:0:0:0:
272,176,70361,1,0,0:0:0:0:
272,176,70869,1,2,0:0:0:0:
272,176,71547,1,0,0:0:0:0:
272,176,72734,1,2,0:0:0:0:
208,160,73073,1,0,0:0:0:0:
272,176,74259,1,2,0:0:0:0:
272,176,75106,1,0,0:0:0:0:
272,176,75615,1,2,0:0:0:0:
272,176,76801,1,2,0:0:0:0:
272,176,77140,1,0,0:0:0:0:
248,200,77818,1,0,0:0:0:0:
248,200,78327,1,2,0:0:0:0:
248,200,79174,1,2,0:0:0:0:
248,200,79852,1,2,0:0:0:0:
248,200,80700,1,6,0:0:0:0:
248,200,81208,1,4,0:0:0:0:
248,200,81716,1,2,0:0:0:0:
248,200,82055,1,0,0:0:0:0:
248,200,82394,1,2,0:0:0:0:
248,200,82902,1,0,0:0:0:0:
248,200,83241,1,2,0:0:0:0:
248,200,83919,1,2,0:0:0:0:
248,200,84428,1,2,0:0:0:0:
248,200,84767,1,0,0:0:0:0:
248,200,85106,1,2,0:0:0:0:
248,200,85953,1,2,0:0:0:0:
248,200,86292,1,2,0:0:0:0:
248,200,86631,1,0,0:0:0:0:
248,200,87479,1,0,0:0:0:0:
248,200,87818,1,2,0:0:0:0:
248,200,88326,1,0,0:0:0:0:
248,200,88665,1,2,0:0:0:0:
248,200,89343,1,2,0:0:0:0:
248,200,90021,1,2,0:0:0:0:
248,200,90530,1,2,0:0:0:0:
248,200,91716,1,2,0:0:0:0:
248,200,92055,1,4,0:0:0:0:
248,200,92563,1,2,0:0:0:0:
248,200,93241,1,0,0:0:0:0:
248,200,94428,1,2,0:0:0:0:
248,200,94767,1,0,0:0:0:0:
248,200,95275,1,0,0:0:0:0:
248,200,95953,1,2,0:0:0:0:
248,200,96801,1,2,0:0:0:0:
248,200,97140,1,0,0:0:0:0:
248,200,97479,1,0,0:0:0:0:
248,200,97987,1,0,0:0:0:0:
248,200,98665,1,2,0:0:0:0:
248,200,99513,1,2,0:0:0:0:
248,200,99852,1,2,0:0:0:0:
248,200,100191,1,4,0:0:0:0:
248,200,100869,1,4,0:0:0:0:
248,200,101546,1,4,0:0:0:0:
248,200,102055,1,4,0:0:0:0:
248,200,102902,1,4,0:0:0:0:
248,200,103411,1,2,0:0:0:0:
248,200,103750,1,0,0:0:0:0:
248,200,104089,1,2,0:0:0:0:
248,200,104597,1,0,0:0:0:0:
248,200,104936,1,2,0:0:0:0:
248,200,105614,1,2,0:0:0:0:
248,200,106123,1,2,0:0:0:0:
248,200,106462,1,0,0:0:0:0:
248,200,106801,1,2,0:0:0:0:
248,200,107648,1,2,0:0:0:0:
248,200,107987,1,2,0:0:0:0:
248,200,108326,1,0,0:0:0:0:
248,200,109174,1,0,0:0:0:0:
248,200,109513,1,2,0:0:0:0:
248,200,110021,1,0,0:0:0:0:
248,200,110360,1,2,0:0:0:0:
248,200,111038,1,2,0:0:0:0:
248,200,111716,1,2,0:0:0:0:
248,200,112224,1,2,0:0:0:0:
248,200,113072,1,0,0:0:0:0:
248,200,113750,1,4,0:0:0:0:
248,200,114258,1,2,0:0:0:0:
248,200,114936,1,0,0:0:0:0:
248,200,116123,1,2,0:0:0:0:
248,200,116462,1,0,0:0:0:0:
248,200,116970,1,2,0:0:0:0:
248,200,117309,1,2,0:0:0:0:
248,200,117648,1,2,0:0:0:0:
248,200,118496,1,2,0:0:0:0:
248,200,118835,1,2,0:0:0:0:
248,200,119174,1,0,0:0:0:0:
248,200,119852,1,2,0:0:0:0:
248,200,120530,1,0,0:0:0:0:
248,200,120869,1,0,0:0:0:0:
248,200,121208,1,2,0:0:0:0:
248,200,121885,1,4,0:0:0:0:
248,200,122563,1,6,0:0:0:0:
248,200,123241,1,4,0:0:0:0:
248,200,123919,1,6,0:0:0:0:
248,200,124597,1,6,0:0:0:0:
248,200,125275,1,2,0:0:0:0:
248,200,125953,1,0,0:0:0:0:
248,200,126292,1,0,0:0:0:0:
248,200,126631,1,2,0:0:0:0:
248,200,127309,1,0,0:0:0:0:
248,200,127987,1,2,0:0:0:0:
248,200,128665,1,0,0:0:0:0:
248,200,129004,1,0,0:0:0:0:
248,200,129343,1,2,0:0:0:0:
248,200,130021,1,0,0:0:0:0:
248,200,130699,1,2,0:0:0:0:
248,200,131377,1,0,0:0:0:0:
248,200,132733,1,4,0:0:0:0:
268,193,133241,1,2,0:0:0:0:
324,200,133919,1,0,0:0:0:0:
248,200,134766,1,2,0:0:0:0:
248,200,135444,1,4,0:0:0:0:
248,200,135953,1,2,0:0:0:0:
248,200,136631,1,2,0:0:0:0:
248,200,137478,1,0,0:0:0:0:
248,200,137817,1,2,0:0:0:0:
248,200,138156,1,0,0:0:0:0:
248,200,138834,1,2,0:0:0:0:
248,200,139512,1,0,0:0:0:0:
248,200,139851,1,0,0:0:0:0:
248,200,140190,1,0,0:0:0:0:
248,200,140868,2,0,L|661:82,1,420
256,192,142224,12,0,143749,0:0:0:0:
