osu file format v14

[General]
AudioFilename: audio.mp3
AudioLeadIn: 0
PreviewTime: 81186
Countdown: 0
SampleSet: Normal
StackLeniency: 0.7
Mode: 1
LetterboxInBreaks: 0
WidescreenStoryboard: 1

[Editor]
DistanceSpacing: 1.3
BeatDivisor: 4
GridSize: 32
TimelineZoom: 2.200001

[Metadata]
Title:Trickstarz
TitleUnicode:Trickstarz
Artist:Yu_Asahina
ArtistUnicode:Yu_Asahina
Creator:kitafuma
Version:Futsuu
Source:
Tags:HAELEQUIN/HAELEQ∩INZ comic market comiket C87 KLAMNOP NEXT electronic 1st instrumental album
BeatmapID:2337087
BeatmapSetID:1118075

[Difficulty]
HPDrainRate:6.5
CircleSize:5
OverallDifficulty:4
ApproachRate:5
SliderMultiplier:1.4
SliderTickRate:1

[Events]
//Background and Video events
0,0,"background.png",0,130
//Break Periods
//Storyboard Layer 0 (Background)
//Storyboard Layer 1 (Fail)
//Storyboard Layer 2 (Pass)
//Storyboard Layer 3 (Foreground)
//Storyboard Layer 4 (Overlay)
//Storyboard Sound Samples

[TimingPoints]
1209,338.983050847458,4,1,0,90,1,0
13412,338.983050847458,4,1,0,90,1,0
81208,338.983050847458,4,1,0,100,1,1
81208,-100,4,1,0,100,0,1
100191,-100,4,1,0,90,0,0
102902,-100,4,1,0,100,0,1
124597,-100,4,1,0,90,0,0
132733,338.983050847458,4,1,0,90,1,0
142226,-100,4,1,0,80,0,0

[HitObjects]
256,192,1209,5,4,0:0:0:0:
256,192,1717,1,2,0:0:0:0:
256,192,2056,1,0,0:0:0:0:
256,192,2395,1,2,0:0:0:0:
256,192,2903,1,0,0:0:0:0:
256,192,3242,1,0,0:0:0:0:
256,192,3581,1,2,0:0:0:0:
256,192,3920,1,2,0:0:0:0:
256,192,4429,1,2,0:0:0:0:
256,192,4768,1,0,0:0:0:0:
256,192,5107,1,2,0:0:0:0:
256,192,5446,1,0,0:0:0:0:
256,192,5615,1,0,0:0:0:0:
256,192,5954,1,2,0:0:0:0:
256,192,6293,1,2,0:0:0:0:
256,192,6632,1,0,0:0:0:0:
256,192,7480,1,0,0:0:0:0:
256,192,7649,1,2,0:0:0:0:
256,192,7819,1,2,0:0:0:0:
256,192,8327,1,0,0:0:0:0:
256,192,8666,1,2,0:0:0:0:
256,192,9005,1,2,0:0:0:0:
256,192,9344,1,2,0:0:0:0:
256,192,10022,1,0,0:0:0:0:
256,192,10361,1,2,0:0:0:0:
256,192,10531,1,0,0:0:0:0:
272,176,11378,1,0,0:0:0:0:
272,176,12056,1,0,0:0:0:0:
272,176,12395,1,2,0:0:0:0:
272,176,12564,1,0,0:0:0:0:
272,176,12734,1,0,0:0:0:0:
272,176,13073,1,2,0:0:0:0:
272,176,13412,1,4,0:0:0:0:
272,176,13750,1,2,0:0:0:0:
272,176,14089,1,0,0:0:0:0:
272,176,14259,1,0,0:0:0:0:
272,176,14428,1,2,0:0:0:0:
272,176,14767,1,0,0:0:0:0:
272,176,15106,1,2,0:0:0:0:
272,176,15276,1,2,0:0:0:0:
272,176,15445,1,0,0:0:0:0:
272,176,15784,1,2,0:0:0:0:
272,176,16123,1,0,0:0:0:0:
272,176,16462,1,2,0:0:0:0:
272,176,16801,1,0,0:0:0:0:
272,176,16971,1,0,0:0:0:0:
272,176,17140,1,2,0:0:0:0:
272,176,17479,1,0,0:0:0:0:
272,176,17818,1,2,0:0:0:0:
272,176,17988,1,2,0:0:0:0:
272,176,18157,1,0,0:0:0:0:
272,176,18835,1,0,0:0:0:0:
272,176,19174,1,2,0:0:0:0:
272,176,19513,1,0,0:0:0:0:
272,176,19683,1,0,0:0:0:0:
272,176,19852,1,2,0:0:0:0:
272,176,20191,1,0,0:0:0:0:
272,176,20530,1,2,0:0:0:0:
272,176,20700,1,2,0:0:0:0:
272,176,20869,1,0,0:0:0:0:
272,176,21208,1,2,0:0:0:0:
272,176,21547,1,0,0:0:0:0:
272,176,21886,1,2,0:0:0:0:
272,176,22225,1,0,0:0:0:0:
272,176,22395,1,0,0:0:0:0:
272,176,22564,1,2,0:0:0:0:
272,176,22903,1,0,0:0:0:0:
272,176,23242,1,2,0:0:0:0:
272,176,23412,1,2,0:0:0:0:
272,176,23581,1,0,0:0:0:0:
272,176,24259,1,0,0:0:0:0:
272,176,24598,1,2,0:0:0:0:
272,176,24767,1,0,0:0:0:0:
272,176,25106,1,2,0:0:0:0:
272,176,25615,1,2,0:0:0:0:
272,176,25954,1,0,0:0:0:0:
272,176,26123,1,2,0:0:0:0:
272,176,26462,1,0,0:0:0:0:
272,176,26632,1,0,0:0:0:0:
272,176,26971,1,2,0:0:0:0:
272,176,27310,1,2,0:0:0:0:
272,176,27479,1,2,0:0:0:0:
272,176,27818,1,2,0:0:0:0:
272,176,28327,1,2,0:0:0:0:
272,176,28666,1,0,0:0:0:0:
272,176,28835,1,0,0:0:0:0:
272,176,29005,1,2,0:0:0:0:
272,176,29683,1,0,0:0:0:0:
272,176,30022,1,2,0:0:0:0:
272,176,30361,1,0,0:0:0:0:
272,176,30530,1,2,0:0:0:0:
272,176,30700,1,2,0:0:0:0:
272,176,31039,1,0,0:0:0:0:
272,176,31378,1,2,0:0:0:0:
272,176,31717,1,2,0:0:0:0:
272,176,31886,1,2,0:0:0:0:
272,176,32056,1,0,0:0:0:0:
272,176,32395,1,0,0:0:0:0:
272,176,32734,1,2,0:0:0:0:
272,176,33073,1,0,0:0:0:0:
272,176,33412,1,2,0:0:0:0:
272,176,33750,1,0,0:0:0:0:
272,176,34428,1,2,0:0:0:0:
272,176,34767,1,2,0:0:0:0:
272,176,35106,1,4,0:0:0:0:
272,176,35784,1,0,0:0:0:0:
272,176,35954,1,0,0:0:0:0:
272,176,36123,1,2,0:0:0:0:
272,176,36293,1,0,0:0:0:0:
272,176,36801,1,0,0:0:0:0:
272,176,37310,1,0,0:0:0:0:
272,176,37479,1,2,0:0:0:0:
272,176,37818,1,0,0:0:0:0:
272,176,38157,1,2,0:0:0:0:
272,176,38327,1,2,0:0:0:0:
272,176,38666,1,2,0:0:0:0:
272,176,39005,1,0,0:0:0:0:
272,176,40022,1,2,0:0:0:0:
272,176,40191,1,2,0:0:0:0:
272,176,40361,1,2,0:0:0:0:
272,176,40530,1,0,0:0:0:0:
272,176,40869,1,0,0:0:0:0:
272,176,41039,1,2,0:0:0:0:
272,176,41378,1,0,0:0:0:0:
272,176,41717,1,2,0:0:0:0:
272,176,42225,1,0,0:0:0:0:
272,176,42564,1,0,0:0:0:0:
272,176,42903,1,2,0:0:0:0:
272,176,43242,1,0,0:0:0:0:
272,176,44089,1,0,0:0:0:0:
272,176,44259,1,2,0:0:0:0:
272,176,44428,1,2,0:0:0:0:
272,176,44598,1,0,0:0:0:0:
272,176,44937,1,2,0:0:0:0:
272,176,45106,1,2,0:0:0:0:
272,176,45445,1,2,0:0:0:0:
272,176,45784,1,2,0:0:0:0:
272,176,45954,1,4,0:0:0:0:
272,176,46632,1,2,0:0:0:0:
272,176,46971,1,2,0:0:0:0:
272,176,47140,1,0,0:0:0:0:
272,176,47310,1,0,0:0:0:0:
272,176,47988,1,0,0:0:0:0:
272,176,48327,1,2,0:0:0:0:
272,176,48496,1,2,0:0:0:0:
272,176,48666,1,2,0:0:0:0:
272,176,49005,1,0,0:0:0:0:
264,240,49174,1,2,0:0:0:0:
272,176,49513,1,2,0:0:0:0:
272,176,49852,1,2,0:0:0:0:
272,176,50361,1,0,0:0:0:0:
272,176,50700,1,2,0:0:0:0:
272,176,51039,1,0,0:0:0:0:
272,176,51378,1,0,0:0:0:0:
272,176,51717,1,2,0:0:0:0:
272,176,51886,1,2,0:0:0:0:
272,176,52225,1,0,0:0:0:0:
272,176,52564,1,2,0:0:0:0:
272,176,53581,1,2,0:0:0:0:
272,176,53750,1,0,0:0:0:0:
272,176,53920,1,0,0:0:0:0:
272,176,54089,1,2,0:0:0:0:
272,176,54428,1,0,0:0:0:0:
272,176,54598,1,2,0:0:0:0:
272,176,54937,1,2,0:0:0:0:
272,176,55276,1,4,0:0:0:0:
272,176,55784,1,2,0:0:0:0:
272,176,56123,1,2,0:0:0:0:
272,176,56462,1,2,0:0:0:0:
272,176,56801,1,0,0:0:0:0:
272,176,57310,1,0,0:0:0:0:
272,176,57818,1,2,0:0:0:0:
272,176,57988,1,0,0:0:0:0:
272,176,58327,1,0,0:0:0:0:
272,176,58666,1,0,0:0:0:0:
272,176,59005,1,0,0:0:0:0:
272,176,59174,1,2,0:0:0:0:
272,176,59513,1,0,0:0:0:0:
272,176,59852,1,0,0:0:0:0:
272,176,60022,1,2,0:0:0:0:
272,176,60361,1,0,0:0:0:0:
272,176,60530,1,2,0:0:0:0:
272,176,60700,1,0,0:0:0:0:
272,176,61886,1,2,0:0:0:0:
272,176,62225,1,0,0:0:0:0:
272,176,62564,1,0,0:0:0:0:
272,176,62734,1,2,0:0:0:0:
272,176,63073,1,0,0:0:0:0:
272,176,63242,1,2,0:0:0:0:
272,176,63412,1,0,0:0:0:0:
272,176,63750,1,0,0:0:0:0:
272,176,64089,1,0,0:0:0:0:
272,176,64428,1,0,0:0:0:0:
272,176,64598,1,2,0:0:0:0:
272,176,64937,1,0,0:0:0:0:
272,176,65615,1,2,0:0:0:0:
272,176,66293,1,4,0:0:0:0:
272,176,66632,1,4,0:0:0:0:
272,176,66801,1,4,0:0:0:0:
272,176,67140,1,6,0:0:0:0:
272,176,67649,1,4,0:0:0:0:
272,176,68496,1,2,0:0:0:0:
272,176,68666,1,0,0:0:0:0:
272,176,68835,1,0,0:0:0:0:
272,176,69174,1,2,0:0:0:0:
272,176,69683,1,2,0:0:0:0:
272,176,70022,1,2,0:0:0:0:
272,176,70361,1,0,0:0:0:0:
272,176,70700,1,0,0:0:0:0:
272,176,70869,1,0,0:0:0:0:
272,176,71208,1,2,0:0:0:0:
272,176,71547,1,0,0:0:0:0:
272,176,72734,1,2,0:0:0:0:
208,160,72903,1,2,0:0:0:0:
208,160,73073,1,0,0:0:0:0:
272,176,73412,1,2,0:0:0:0:
272,176,73581,1,2,0:0:0:0:
272,176,73920,1,2,0:0:0:0:
272,176,74259,1,0,0:0:0:0:
272,176,74767,1,2,0:0:0:0:
272,176,75106,1,0,0:0:0:0:
272,176,75276,1,0,0:0:0:0:
272,176,75615,1,2,0:0:0:0:
272,176,76123,1,2,0:0:0:0:
272,176,76462,1,0,0:0:0:0:
272,176,76801,1,2,0:0:0:0:
272,176,76971,1,2,0:0:0:0:
272,176,77140,1,0,0:0:0:0:
272,176,77479,1,2,0:0:0:0:
272,176,77649,1,2,0:0:0:0:
272,176,77988,1,2,0:0:0:0:
272,176,78327,1,0,0:0:0:0:
248,200,78835,1,0,0:0:0:0:
248,200,79174,1,2,0:0:0:0:
248,200,79852,1,2,0:0:0:0:
248,200,80022,1,2,0:0:0:0:
248,200,80191,1,2,0:0:0:0:
248,200,80361,1,0,0:0:0:0:
248,200,80700,1,6,0:0:0:0:
248,200,81208,1,4,0:0:0:0:
248,200,81546,1,2,0:0:0:0:
248,200,81716,1,2,0:0:0:0:
248,200,82055,1,0,0:0:0:0:
248,200,82394,1,2,0:0:0:0:
248,200,82902,1,2,0:0:0:0:
248,200,83241,1,0,0:0:0:0:
248,200,83580,1,2,0:0:0:0:
248,200,83919,1,2,0:0:0:0:
248,200,84258,1,0,0:0:0:0:
248,200,84428,1,2,0:0:0:0:
248,200,84767,1,0,0:0:0:0:
248,200,85106,1,2,0:0:0:0:
248,200,85445,1,2,0:0:0:0:
248,200,85614,1,0,0:0:0:0:
248,200,85953,1,2,0:0:0:0:
248,200,86292,1,0,0:0:0:0:
248,200,86462,1,2,0:0:0:0:
248,200,86631,1,0,0:0:0:0:
248,200,87479,1,0,0:0:0:0:
248,200,87648,1,2,0:0:0:0:
248,200,87818,1,2,0:0:0:0:
248,200,88326,1,0,0:0:0:0:
248,200,88665,1,2,0:0:0:0:
248,200,89004,1,2,0:0:0:0:
248,200,89343,1,2,0:0:0:0:
248,200,90021,1,2,0:0:0:0:
248,200,90360,1,2,0:0:0:0:
248,200,90530,1,0,0:0:0:0:
248,200,90869,1,0,0:0:0:0:
248,200,91038,1,0,0:0:0:0:
248,200,91377,1,2,0:0:0:0:
248,200,91716,1,2,0:0:0:0:
248,200,91885,1,2,0:0:0:0:
248,200,92055,1,4,0:0:0:0:
248,200,92394,1,2,0:0:0:0:
248,200,92563,1,2,0:0:0:0:
248,200,92902,1,2,0:0:0:0:
248,200,93241,1,0,0:0:0:0:
248,200,94258,1,0,0:0:0:0:
248,200,94428,1,2,0:0:0:0:
248,200,94767,1,0,0:0:0:0:
248,200,95106,1,2,0:0:0:0:
248,200,95275,1,0,0:0:0:0:
248,200,95614,1,0,0:0:0:0:
248,200,95953,1,2,0:0:0:0:
248,200,96462,1,2,0:0:0:0:
248,200,96801,1,0,0:0:0:0:
248,200,97140,1,2,0:0:0:0:
248,200,97479,1,0,0:0:0:0:
248,200,97818,1,2,0:0:0:0:
248,200,97987,1,2,0:0:0:0:
248,200,98326,1,0,0:0:0:0:
248,200,98665,1,2,0:0:0:0:
248,200,99343,1,0,0:0:0:0:
248,200,99513,1,2,0:0:0:0:
248,200,99852,1,2,0:0:0:0:
248,200,100191,1,4,0:0:0:0:
248,200,100869,1,4,0:0:0:0:
248,200,101546,1,4,0:0:0:0:
248,200,102055,1,4,0:0:0:0:
248,200,102394,1,2,0:0:0:0:
248,200,102563,1,2,0:0:0:0:
248,200,102902,1,4,0:0:0:0:
248,200,103241,1,2,0:0:0:0:
248,200,103411,1,2,0:0:0:0:
248,200,103750,1,0,0:0:0:0:
248,200,104089,1,2,0:0:0:0:
248,200,104597,1,2,0:0:0:0:
248,200,104936,1,0,0:0:0:0:
248,200,105275,1,2,0:0:0:0:
248,200,105614,1,2,0:0:0:0:
248,200,105953,1,0,0:0:0:0:
248,200,106123,1,2,0:0:0:0:
248,200,106462,1,0,0:0:0:0:
248,200,106801,1,2,0:0:0:0:
248,200,107140,1,2,0:0:0:0:
248,200,107309,1,2,0:0:0:0:
248,200,107648,1,2,0:0:0:0:
248,200,107987,1,0,0:0:0:0:
248,200,108157,1,2,0:0:0:0:
248,200,108326,1,0,0:0:0:0:
248,200,109174,1,0,0:0:0:0:
248,200,109343,1,2,0:0:0:0:
248,200,109513,1,2,0:0:0:0:
248,200,110021,1,0,0:0:0:0:
248,200,110360,1,2,0:0:0:0:
248,200,110699,1,2,0:0:0:0:
248,200,111038,1,2,0:0:0:0:
248,200,111716,1,2,0:0:0:0:
248,200,112055,1,2,0:0:0:0:
248,200,112224,1,0,0:0:0:0:
248,200,112563,1,0,0:0:0:0:
248,200,112733,1,0,0:0:0:0:
248,200,113072,1,2,0:0:0:0:
248,200,113411,1,2,0:0:0:0:
248,200,113580,1,2,0:0:0:0:
248,200,113750,1,4,0:0:0:0:
248,200,114089,1,2,0:0:0:0:
248,200,114258,1,2,0:0:0:0:
248,200,114597,1,2,0:0:0:0:
248,200,114936,1,0,0:0:0:0:
248,200,115953,1,0,0:0:0:0:
248,200,116123,1,2,0:0:0:0:
248,200,116292,1,2,0:0:0:0:
248,200,116462,1,0,0:0:0:0:
248,200,116801,1,2,0:0:0:0:
248,200,116970,1,0,0:0:0:0:
248,200,117309,1,2,0:0:0:0:
248,200,117648,1,2,0:0:0:0:
248,200,118157,1,2,0:0:0:0:
248,200,118496,1,0,0:0:0:0:
248,200,118835,1,2,0:0:0:0:
248,200,119174,1,0,0:0:0:0:
248,200,119682,1,0,0:0:0:0:
248,200,119852,1,0,0:0:0:0:
248,200,120360,1,2,0:0:0:0:
248,200,120530,1,0,0:0:0:0:
248,200,121038,1,0,0:0:0:0:
248,200,121208,1,0,0:0:0:0:
248,200,121546,1,2,0:0:0:0:
248,200,121885,1,4,0:0:0:0:
248,200,122563,1,6,0:0:0:0:
248,200,123241,1,4,0:0:0:0:
248,200,123919,1,6,0:0:0:0:
248,200,124597,1,6,0:0:0:0:
248,200,124936,1,2,0:0:0:0:
248,200,125275,1,0,0:0:0:0:
248,200,125445,1,0,0:0:0:0:
248,200,125614,1,2,0:0:0:0:
248,200,125953,1,0,0:0:0:0:
248,200,126292,1,2,0:0:0:0:
248,200,126462,1,2,0:0:0:0:
248,200,126631,1,0,0:0:0:0:
248,200,127309,1,0,0:0:0:0:
248,200,127648,1,2,0:0:0:0:
248,200,127987,1,0,0:0:0:0:
248,200,128157,1,0,0:0:0:0:
248,200,128326,1,2,0:0:0:0:
248,200,128665,1,0,0:0:0:0:
248,200,129004,1,2,0:0:0:0:
248,200,129174,1,2,0:0:0:0:
248,200,129513,1,0,0:0:0:0:
248,200,130021,1,2,0:0:0:0:
248,200,130360,1,0,0:0:0:0:
248,200,130699,1,0,0:0:0:0:
248,200,130869,1,0,0:0:0:0:
248,200,131038,1,2,0:0:0:0:
248,200,131377,1,0,0:0:0:0:
248,200,131716,1,2,0:0:0:0:
248,200,132055,1,0,0:0:0:0:
248,200,132733,1,4,0:0:0:0:
248,200,133071,1,2,0:0:0:0:
248,200,133241,1,0,0:0:0:0:
248,200,133580,1,2,0:0:0:0:
248,200,133919,1,0,0:0:0:0:
248,200,134936,1,2,0:0:0:0:
248,200,135105,1,0,0:0:0:0:
248,200,135275,1,0,0:0:0:0:
248,200,135444,1,2,0:0:0:0:
248,200,135783,1,2,0:0:0:0:
248,200,135953,1,0,0:0:0:0:
248,200,136292,1,2,0:0:0:0:
248,200,136631,1,2,0:0:0:0:
248,200,137139,1,0,0:0:0:0:
248,200,137478,1,2,0:0:0:0:
248,200,137817,1,2,0:0:0:0:
248,200,138156,1,0,0:0:0:0:
248,200,138326,1,0,0:0:0:0:
248,200,138495,1,2,0:0:0:0:
248,200,138834,1,2,0:0:0:0:
248,200,139004,1,2,0:0:0:0:
248,200,139173,1,2,0:0:0:0:
248,200,139512,1,0,0:0:0:0:
248,200,139851,1,2,0:0:0:0:
248,200,140021,1,2,0:0:0:0:
248,200,140190,1,2,0:0:0:0:
248,200,140529,1,2,0:0:0:0:
248,200,140868,2,0,L|202:196,14,35
256,192,142224,12,0,143749,0:0:0:0:
