osu file format v14

[General]
AudioFilename: audio.mp3
AudioLeadIn: 0
PreviewTime: 77117
Countdown: 0
SampleSet: Soft
StackLeniency: 0.7
Mode: 3
LetterboxInBreaks: 0
SpecialStyle: 0
WidescreenStoryboard: 1

[Editor]
DistanceSpacing: 1
BeatDivisor: 4
GridSize: 4
TimelineZoom: 2.199999

[Metadata]
Title:The Clown of 24stairs
TitleUnicode:The Clown of 24stairs
Artist:Yu_Asahina
ArtistUnicode:Yu_Asahina
Creator:Shima Rin
Version:Aruel's EXHAUST
Source:SOUND VOLTEX EXCEED GEAR
Tags:Tofu1222 Touru0711 Aruel Fresh Chicken _FrEsH_ChICkEn_ _Stan HARLEQUIN 制作決定記念 キャラクターテーマ楽曲コンテスト SDVX VI BEMANI Electronic Video Game Instrumental
BeatmapID:3369087
BeatmapSetID:1588699

[Difficulty]
HPDrainRate:8
CircleSize:4
OverallDifficulty:7.5
ApproachRate:5
SliderMultiplier:1.4
SliderTickRate:1

[Events]
//Background and Video events
0,0,"BG.jpg",0,0
//Break Periods
//Storyboard Layer 0 (Background)
//Storyboard Layer 1 (Fail)
//Storyboard Layer 2 (Pass)
//Storyboard Layer 3 (Foreground)
//Storyboard Layer 4 (Overlay)
//Storyboard Sound Samples

[TimingPoints]
2341,294.117647058824,4,2,1,60,1,0
16605,294.117647058824,4,2,1,60,1,0
17929,294.117647058824,4,2,1,60,1,0
60134,294.117647058824,4,2,1,60,1,0
61163,294.117647058824,4,2,1,60,1,0
63368,294.117647058824,4,2,1,60,1,0
64397,294.117647058824,4,2,1,60,1,0
65426,294.117647058824,4,2,1,60,1,0
67778,-100,4,2,1,60,0,1
76406,-100,4,2,1,60,0,0
77190,-100,4,2,1,60,0,1
85867,-100,4,2,1,60,0,0
86602,-100,4,2,1,60,0,1
96014,-100,4,2,1,60,0,0

[HitObjects]
64,192,2046,5,0,0:1:0:0:
192,192,2120,1,0,0:1:0:0:
320,192,2193,1,0,0:1:0:0:
448,192,2267,1,0,0:1:0:0:
64,192,2341,1,0,0:1:0:0:
192,192,2341,128,0,2733:0:1:0:0:
320,192,2733,1,0,0:1:0:0:
192,192,2831,1,0,0:1:0:0:
64,192,2929,128,0,3149:0:1:0:0:
448,192,2929,1,0,0:1:0:0:
192,192,3149,128,0,3370:0:1:0:0:
320,192,3370,128,0,3517:0:1:0:0:
64,192,3517,1,0,0:1:0:0:
448,192,3517,128,0,3664:0:1:0:0:
192,192,3664,1,0,0:1:0:0:
64,192,3713,1,0,0:1:0:0:
320,192,3762,1,0,0:1:0:0:
448,192,3811,1,0,0:1:0:0:
64,192,3958,1,0,0:1:0:0:
192,192,4007,1,0,0:1:0:0:
448,192,4056,1,0,0:1:0:0:
320,192,4105,1,0,0:1:0:0:
64,192,4252,1,0,0:1:0:0:
192,192,4301,1,0,0:1:0:0:
320,192,4350,1,0,0:1:0:0:
448,192,4399,1,0,0:1:0:0:
448,192,4546,1,0,0:1:0:0:
320,192,4595,1,0,0:1:0:0:
192,192,4644,1,0,0:1:0:0:
64,192,4693,128,0,5086:0:1:0:0:
192,192,5086,1,0,0:1:0:0:
320,192,5184,1,0,0:1:0:0:
448,192,5282,1,0,0:1:0:0:
192,192,5282,1,0,0:1:0:0:
320,192,5478,1,0,0:1:0:0:
192,192,5478,1,0,0:1:0:0:
320,192,5674,1,0,0:1:0:0:
64,192,5674,1,0,0:1:0:0:
192,192,5870,128,0,6164:0:1:0:0:
320,192,5870,1,0,0:1:0:0:
448,192,6164,1,0,0:1:0:0:
320,192,6213,1,0,0:1:0:0:
192,192,6262,1,0,0:1:0:0:
64,192,6311,1,0,0:1:0:0:
448,192,6360,1,0,0:1:0:0:
320,192,6409,1,0,0:1:0:0:
192,192,6458,1,0,0:1:0:0:
64,192,6507,1,0,0:1:0:0:
448,192,6556,1,0,0:1:0:0:
320,192,6605,1,0,0:1:0:0:
192,192,6654,1,0,0:1:0:0:
64,192,6703,1,0,0:1:0:0:
448,192,6752,1,0,0:1:0:0:
320,192,6801,1,0,0:1:0:0:
192,192,6850,1,0,0:1:0:0:
64,192,6899,1,0,0:1:0:0:
448,192,6948,1,0,0:1:0:0:
320,192,6997,1,0,0:1:0:0:
64,192,7046,1,0,0:1:0:0:
192,192,7046,128,0,7341:0:1:0:0:
448,192,7341,1,0,0:1:0:0:
320,192,7414,1,0,0:1:0:0:
192,192,7488,1,0,0:1:0:0:
64,192,7561,1,0,0:1:0:0:
448,192,7635,1,0,0:1:0:0:
320,192,7708,1,0,0:1:0:0:
192,192,7782,1,0,0:1:0:0:
64,192,7855,1,0,0:1:0:0:
448,192,7929,1,0,0:1:0:0:
320,192,8002,1,0,0:1:0:0:
192,192,8076,1,0,0:1:0:0:
64,192,8149,1,0,0:1:0:0:
320,192,8223,1,0,0:1:0:0:
448,192,8223,1,0,0:1:0:0:
192,192,8321,1,0,0:1:0:0:
320,192,8419,1,0,0:1:0:0:
448,192,8517,1,0,0:1:0:0:
320,192,8615,1,0,0:1:0:0:
192,192,8713,1,0,0:1:0:0:
448,192,8811,1,0,0:1:0:0:
64,192,8811,1,0,0:1:0:0:
192,192,8909,1,0,0:1:0:0:
320,192,9007,1,0,0:1:0:0:
448,192,9105,1,0,0:1:0:0:
320,192,9203,1,0,0:1:0:0:
192,192,9301,1,0,0:1:0:0:
448,192,9399,1,0,0:1:0:0:
64,192,9399,1,0,0:1:0:0:
192,192,9497,1,0,0:1:0:0:
320,192,9595,1,0,0:1:0:0:
448,192,9693,1,0,0:1:0:0:
192,192,9791,1,0,0:1:0:0:
320,192,9890,1,0,0:1:0:0:
448,192,9988,1,0,0:1:0:0:
64,192,9988,1,0,0:1:0:0:
320,192,10086,1,0,0:1:0:0:
192,192,10184,1,0,0:1:0:0:
448,192,10282,1,0,0:1:0:0:
64,192,10282,1,0,0:1:0:0:
320,192,10380,1,0,0:1:0:0:
192,192,10478,1,0,0:1:0:0:
64,192,10478,1,0,0:1:0:0:
320,192,10576,1,0,0:1:0:0:
448,192,10576,1,0,0:1:0:0:
64,192,10674,1,0,0:1:0:0:
192,192,10772,1,0,0:1:0:0:
320,192,10870,1,0,0:1:0:0:
192,192,10968,1,0,0:1:0:0:
64,192,11066,1,0,0:1:0:0:
320,192,11164,1,0,0:1:0:0:
448,192,11164,1,0,0:1:0:0:
64,192,11262,1,0,0:1:0:0:
192,192,11360,1,0,0:1:0:0:
320,192,11458,1,0,0:1:0:0:
192,192,11556,1,0,0:1:0:0:
64,192,11654,1,0,0:1:0:0:
320,192,11752,1,0,0:1:0:0:
448,192,11752,1,0,0:1:0:0:
64,192,11850,1,0,0:1:0:0:
192,192,11948,1,0,0:1:0:0:
64,192,12046,1,0,0:1:0:0:
192,192,12144,1,0,0:1:0:0:
320,192,12242,1,0,0:1:0:0:
448,192,12341,1,0,0:1:0:0:
64,192,12341,1,0,0:1:0:0:
192,192,12439,1,0,0:1:0:0:
320,192,12537,1,0,0:1:0:0:
448,192,12635,1,0,0:1:0:0:
64,192,12635,1,0,0:1:0:0:
320,192,12733,1,0,0:1:0:0:
192,192,12831,1,0,0:1:0:0:
448,192,12831,1,0,0:1:0:0:
320,192,12929,1,0,0:1:0:0:
64,192,12929,1,0,0:1:0:0:
192,192,13027,1,0,0:1:0:0:
320,192,13125,1,0,0:1:0:0:
448,192,13223,1,0,0:1:0:0:
64,192,13223,1,0,0:1:0:0:
320,192,13321,1,0,0:1:0:0:
192,192,13419,1,0,0:1:0:0:
320,192,13517,1,0,0:1:0:0:
448,192,13517,1,0,0:1:0:0:
192,192,13615,1,0,0:1:0:0:
320,192,13713,1,0,0:1:0:0:
448,192,13811,1,0,0:1:0:0:
64,192,13811,1,0,0:1:0:0:
320,192,13909,1,0,0:1:0:0:
192,192,14007,1,0,0:1:0:0:
64,192,14007,1,0,0:1:0:0:
320,192,14105,1,0,0:1:0:0:
448,192,14105,1,0,0:1:0:0:
192,192,14203,1,0,0:1:0:0:
320,192,14301,1,0,0:1:0:0:
448,192,14399,1,0,0:1:0:0:
192,192,14399,1,0,0:1:0:0:
320,192,14497,1,0,0:1:0:0:
448,192,14595,1,0,0:1:0:0:
320,192,14693,1,0,0:1:0:0:
64,192,14693,1,0,0:1:0:0:
192,192,14791,1,0,0:1:0:0:
320,192,14890,1,0,0:1:0:0:
192,192,14988,1,0,0:1:0:0:
64,192,14988,1,0,0:1:0:0:
320,192,15086,1,0,0:1:0:0:
448,192,15184,1,0,0:1:0:0:
320,192,15282,1,0,0:1:0:0:
64,192,15282,1,0,0:1:0:0:
192,192,15355,1,0,0:1:0:0:
448,192,15502,1,0,0:1:0:0:
64,192,15502,1,0,0:1:0:0:
192,192,15796,1,0,0:1:0:0:
448,192,15796,1,0,0:1:0:0:
320,192,15870,1,0,0:1:0:0:
448,192,16017,1,0,0:1:0:0:
64,192,16017,1,0,0:1:0:0:
64,192,16311,1,0,0:1:0:0:
192,192,16385,1,0,0:1:0:0:
320,192,16458,1,0,0:1:0:0:
448,192,16532,1,0,0:1:0:0:
320,192,16605,1,0,0:1:0:0:
64,192,16605,1,0,0:1:0:0:
192,192,16678,1,0,0:1:0:0:
448,192,16825,1,0,0:1:0:0:
64,192,16825,1,0,0:1:0:0:
448,192,17119,1,0,0:1:0:0:
192,192,17119,1,0,0:1:0:0:
320,192,17193,1,0,0:1:0:0:
448,192,17340,1,0,0:1:0:0:
64,192,17340,1,0,0:1:0:0:
448,192,17634,1,0,0:1:0:0:
64,192,17634,1,0,0:1:0:0:
192,192,17707,1,0,0:1:0:0:
320,192,17781,1,0,0:1:0:0:
448,192,17855,1,0,0:1:0:0:
192,192,17928,1,0,0:1:0:0:
64,192,17928,128,0,18223:0:1:0:0:
192,192,18223,1,0,0:1:0:0:
448,192,18370,1,0,0:1:0:0:
64,192,18370,1,0,0:1:0:0:
320,192,18419,1,0,0:1:0:0:
64,192,18517,1,0,0:1:0:0:
192,192,18615,1,0,0:1:0:0:
320,192,18713,1,0,0:1:0:0:
192,192,18811,1,0,0:1:0:0:
64,192,18811,1,0,0:1:0:0:
320,192,18909,1,0,0:1:0:0:
448,192,19007,1,0,0:1:0:0:
320,192,19105,1,0,0:1:0:0:
64,192,19105,1,0,0:1:0:0:
192,192,19203,1,0,0:1:0:0:
64,192,19301,1,0,0:1:0:0:
448,192,19399,1,0,0:1:0:0:
320,192,19497,128,0,19693:0:1:0:0:
64,192,19546,1,0,0:1:0:0:
192,192,19693,1,0,0:1:0:0:
64,192,19791,1,0,0:1:0:0:
320,192,19889,1,0,0:1:0:0:
192,192,19987,1,0,0:1:0:0:
448,192,19987,1,0,0:1:0:0:
64,192,20085,1,0,0:1:0:0:
320,192,20183,1,0,0:1:0:0:
192,192,20281,1,0,0:1:0:0:
64,192,20281,128,0,21458:0:1:0:0:
448,192,21458,1,0,0:1:0:0:
320,192,21531,1,0,0:1:0:0:
64,192,21605,1,0,0:1:0:0:
192,192,21679,1,0,0:1:0:0:
320,192,21752,1,0,0:1:0:0:
448,192,21826,1,0,0:1:0:0:
192,192,21899,1,0,0:1:0:0:
64,192,21973,1,0,0:1:0:0:
448,192,22046,1,0,0:1:0:0:
320,192,22120,1,0,0:1:0:0:
192,192,22193,1,0,0:1:0:0:
64,192,22267,1,0,0:1:0:0:
320,192,22340,1,0,0:1:0:0:
448,192,22414,1,0,0:1:0:0:
64,192,22487,1,0,0:1:0:0:
192,192,22561,1,0,0:1:0:0:
64,192,22634,128,0,22855:0:1:0:0:
448,192,22634,1,0,0:1:0:0:
192,192,22855,1,0,0:1:0:0:
320,192,22929,1,0,0:1:0:0:
448,192,22929,1,0,0:1:0:0:
64,192,23076,128,0,23370:0:1:0:0:
320,192,23223,1,0,0:1:0:0:
448,192,23223,1,0,0:1:0:0:
192,192,23370,128,0,23517:0:1:0:0:
320,192,23517,128,0,23664:0:1:0:0:
64,192,23517,1,0,0:1:0:0:
448,192,23664,128,0,23811:0:1:0:0:
192,192,23811,128,0,24031:0:1:0:0:
64,192,23811,1,0,0:1:0:0:
320,192,24031,1,0,0:1:0:0:
192,192,24105,1,0,0:1:0:0:
64,192,24105,1,0,0:1:0:0:
448,192,24252,128,0,24546:0:1:0:0:
192,192,24399,1,0,0:1:0:0:
320,192,24399,1,0,0:1:0:0:
64,192,24546,128,0,24693:0:1:0:0:
192,192,24693,128,0,24840:0:1:0:0:
448,192,24693,1,0,0:1:0:0:
320,192,24840,128,0,24987:0:1:0:0:
448,192,24987,128,0,25281:0:1:0:0:
64,192,24987,1,0,0:1:0:0:
320,192,25281,1,0,0:1:0:0:
64,192,25281,1,0,0:1:0:0:
192,192,25379,1,0,0:1:0:0:
64,192,25478,1,0,0:1:0:0:
320,192,25576,1,0,0:1:0:0:
448,192,25576,1,0,0:1:0:0:
192,192,25674,1,0,0:1:0:0:
64,192,25772,1,0,0:1:0:0:
448,192,25870,1,0,0:1:0:0:
192,192,25870,1,0,0:1:0:0:
320,192,25968,1,0,0:1:0:0:
64,192,26066,1,0,0:1:0:0:
320,192,26164,1,0,0:1:0:0:
448,192,26164,1,0,0:1:0:0:
64,192,26262,1,0,0:1:0:0:
192,192,26360,1,0,0:1:0:0:
320,192,26458,1,0,0:1:0:0:
448,192,26458,1,0,0:1:0:0:
64,192,26556,1,0,0:1:0:0:
320,192,26654,1,0,0:1:0:0:
192,192,26752,1,0,0:1:0:0:
64,192,26752,1,0,0:1:0:0:
320,192,26826,1,0,0:1:0:0:
448,192,26899,1,0,0:1:0:0:
64,192,26973,1,0,0:1:0:0:
192,192,27046,1,0,0:1:0:0:
320,192,27046,1,0,0:1:0:0:
448,192,27120,1,0,0:1:0:0:
64,192,27193,1,0,0:1:0:0:
192,192,27267,1,0,0:1:0:0:
64,192,27340,128,0,27561:0:1:0:0:
448,192,27340,1,0,0:1:0:0:
320,192,27561,1,0,0:1:0:0:
192,192,27634,1,0,0:1:0:0:
448,192,27634,1,0,0:1:0:0:
64,192,27781,128,0,28076:0:1:0:0:
320,192,27929,1,0,0:1:0:0:
448,192,27929,1,0,0:1:0:0:
192,192,28076,128,0,28223:0:1:0:0:
320,192,28223,128,0,28370:0:1:0:0:
64,192,28223,1,0,0:1:0:0:
448,192,28370,128,0,28517:0:1:0:0:
192,192,28517,128,0,28737:0:1:0:0:
64,192,28517,1,0,0:1:0:0:
320,192,28737,1,0,0:1:0:0:
448,192,28811,1,0,0:1:0:0:
64,192,28811,1,0,0:1:0:0:
448,192,28958,128,0,29252:0:1:0:0:
320,192,29105,1,0,0:1:0:0:
192,192,29105,1,0,0:1:0:0:
64,192,29252,128,0,29399:0:1:0:0:
192,192,29399,128,0,29546:0:1:0:0:
448,192,29399,1,0,0:1:0:0:
320,192,29546,128,0,29693:0:1:0:0:
192,192,29693,128,0,29987:0:1:0:0:
64,192,29693,1,0,0:1:0:0:
448,192,29987,1,0,0:1:0:0:
64,192,29987,1,0,0:1:0:0:
320,192,30085,1,0,0:1:0:0:
192,192,30183,1,0,0:1:0:0:
448,192,30281,1,0,0:1:0:0:
320,192,30281,1,0,0:1:0:0:
64,192,30379,1,0,0:1:0:0:
320,192,30478,1,0,0:1:0:0:
192,192,30576,1,0,0:1:0:0:
64,192,30576,1,0,0:1:0:0:
448,192,30674,1,0,0:1:0:0:
64,192,30772,1,0,0:1:0:0:
320,192,30870,1,0,0:1:0:0:
448,192,30870,1,0,0:1:0:0:
64,192,30943,1,0,0:1:0:0:
192,192,31017,1,0,0:1:0:0:
448,192,31090,1,0,0:1:0:0:
320,192,31164,1,0,0:1:0:0:
192,192,31164,1,0,0:1:0:0:
64,192,31237,1,0,0:1:0:0:
320,192,31311,1,0,0:1:0:0:
448,192,31384,1,0,0:1:0:0:
192,192,31458,1,0,0:1:0:0:
64,192,31458,1,0,0:1:0:0:
320,192,31531,1,0,0:1:0:0:
448,192,31605,1,0,0:1:0:0:
64,192,31679,1,0,0:1:0:0:
320,192,31752,1,0,0:1:0:0:
192,192,31752,1,0,0:1:0:0:
448,192,31826,1,0,0:1:0:0:
64,192,31899,1,0,0:1:0:0:
192,192,31973,1,0,0:1:0:0:
448,192,32046,1,0,0:1:0:0:
320,192,32046,128,0,32267:0:1:0:0:
192,192,32267,1,0,0:1:0:0:
64,192,32267,1,0,0:1:0:0:
320,192,32340,1,0,0:1:0:0:
448,192,32340,1,0,0:1:0:0:
64,192,32487,1,0,0:1:0:0:
192,192,32487,128,0,32781:0:1:0:0:
320,192,32781,1,0,0:1:0:0:
192,192,32855,1,0,0:1:0:0:
320,192,32929,1,0,0:1:0:0:
448,192,32929,1,0,0:1:0:0:
448,192,33076,1,0,0:1:0:0:
64,192,33076,1,0,0:1:0:0:
320,192,33223,128,0,33370:0:1:0:0:
192,192,33370,1,0,0:1:0:0:
320,192,33443,1,0,0:1:0:0:
192,192,33517,1,0,0:1:0:0:
64,192,33517,1,0,0:1:0:0:
448,192,33664,1,0,0:1:0:0:
64,192,33664,1,0,0:1:0:0:
320,192,33811,1,0,0:1:0:0:
192,192,33884,1,0,0:1:0:0:
320,192,33958,1,0,0:1:0:0:
448,192,33958,1,0,0:1:0:0:
64,192,34031,1,0,0:1:0:0:
320,192,34105,1,0,0:1:0:0:
448,192,34105,1,0,0:1:0:0:
192,192,34252,1,0,0:1:0:0:
320,192,34326,1,0,0:1:0:0:
192,192,34399,1,0,0:1:0:0:
64,192,34399,128,0,34620:0:1:0:0:
320,192,34620,1,0,0:1:0:0:
448,192,34620,1,0,0:1:0:0:
192,192,34693,1,0,0:1:0:0:
64,192,34693,1,0,0:1:0:0:
320,192,34840,1,0,0:1:0:0:
448,192,34840,1,0,0:1:0:0:
192,192,34914,1,0,0:1:0:0:
64,192,34987,1,0,0:1:0:0:
448,192,35061,1,0,0:1:0:0:
320,192,35134,1,0,0:1:0:0:
64,192,35134,1,0,0:1:0:0:
192,192,35281,1,0,0:1:0:0:
448,192,35281,1,0,0:1:0:0:
64,192,35355,1,0,0:1:0:0:
448,192,35429,1,0,0:1:0:0:
320,192,35502,1,0,0:1:0:0:
192,192,35576,1,0,0:1:0:0:
64,192,35576,1,0,0:1:0:0:
448,192,35649,1,0,0:1:0:0:
64,192,35723,1,0,0:1:0:0:
448,192,35796,1,0,0:1:0:0:
320,192,35870,1,0,0:1:0:0:
192,192,35870,1,0,0:1:0:0:
448,192,35943,1,0,0:1:0:0:
192,192,36017,1,0,0:1:0:0:
448,192,36090,1,0,0:1:0:0:
192,192,36164,1,0,0:1:0:0:
64,192,36164,1,0,0:1:0:0:
320,192,36237,1,0,0:1:0:0:
64,192,36311,1,0,0:1:0:0:
320,192,36384,1,0,0:1:0:0:
192,192,36458,1,0,0:1:0:0:
448,192,36458,1,0,0:1:0:0:
320,192,36531,1,0,0:1:0:0:
192,192,36605,1,0,0:1:0:0:
320,192,36679,1,0,0:1:0:0:
448,192,36752,128,0,37046:0:1:0:0:
64,192,36752,1,0,0:1:0:0:
192,192,37046,1,0,0:1:0:0:
64,192,37046,1,0,0:1:0:0:
448,192,37120,1,0,0:1:0:0:
320,192,37193,1,0,0:1:0:0:
192,192,37267,1,0,0:1:0:0:
448,192,37340,1,0,0:1:0:0:
64,192,37340,1,0,0:1:0:0:
320,192,37414,1,0,0:1:0:0:
192,192,37487,1,0,0:1:0:0:
64,192,37561,1,0,0:1:0:0:
320,192,37634,1,0,0:1:0:0:
448,192,37634,1,0,0:1:0:0:
64,192,37708,1,0,0:1:0:0:
192,192,37781,1,0,0:1:0:0:
320,192,37855,1,0,0:1:0:0:
448,192,37929,1,0,0:1:0:0:
64,192,37929,1,0,0:1:0:0:
192,192,38027,1,0,0:1:0:0:
320,192,38125,1,0,0:1:0:0:
192,192,38223,1,0,0:1:0:0:
320,192,38321,1,0,0:1:0:0:
448,192,38419,1,0,0:1:0:0:
64,192,38517,1,0,0:1:0:0:
192,192,38615,1,0,0:1:0:0:
320,192,38713,1,0,0:1:0:0:
448,192,38811,1,0,0:1:0:0:
64,192,38811,1,0,0:1:0:0:
192,192,38884,1,0,0:1:0:0:
320,192,38958,1,0,0:1:0:0:
448,192,39031,1,0,0:1:0:0:
192,192,39105,1,0,0:1:0:0:
64,192,39105,1,0,0:1:0:0:
448,192,39203,1,0,0:1:0:0:
192,192,39301,1,0,0:1:0:0:
448,192,39399,1,0,0:1:0:0:
320,192,39497,1,0,0:1:0:0:
192,192,39595,1,0,0:1:0:0:
320,192,39693,1,0,0:1:0:0:
192,192,39791,1,0,0:1:0:0:
64,192,39889,1,0,0:1:0:0:
448,192,39987,1,0,0:1:0:0:
320,192,40085,1,0,0:1:0:0:
64,192,40183,1,0,0:1:0:0:
448,192,40281,1,0,0:1:0:0:
192,192,40281,128,0,40576:0:1:0:0:
64,192,40576,128,0,40870:0:1:0:0:
192,192,40870,128,0,41164:0:1:0:0:
320,192,41164,128,0,41458:0:1:0:0:
448,192,41458,128,0,41752:0:1:0:0:
320,192,41752,128,0,42046:0:1:0:0:
192,192,42046,128,0,42340:0:1:0:0:
64,192,42340,128,0,42634:0:1:0:0:
320,192,42634,128,0,42929:0:1:0:0:
64,192,42929,128,0,43223:0:1:0:0:
320,192,43223,128,0,43517:0:1:0:0:
448,192,43517,128,0,43811:0:1:0:0:
320,192,43811,128,0,44105:0:1:0:0:
192,192,44105,128,0,44399:0:1:0:0:
64,192,44399,128,0,44693:0:1:0:0:
448,192,44693,1,0,0:1:0:0:
320,192,44742,1,0,0:1:0:0:
192,192,44791,1,0,0:1:0:0:
448,192,44840,1,0,0:1:0:0:
64,192,44914,1,0,0:1:0:0:
320,192,44987,128,0,45281:0:1:0:0:
64,192,45281,128,0,45576:0:1:0:0:
320,192,45576,128,0,45870:0:1:0:0:
192,192,45870,128,0,46164:0:1:0:0:
64,192,46164,128,0,46384:0:1:0:0:
192,192,46384,128,0,46605:0:1:0:0:
320,192,46605,128,0,46752:0:1:0:0:
448,192,46752,128,0,47046:0:1:0:0:
64,192,47046,128,0,47144:0:1:0:0:
192,192,47144,128,0,47242:0:1:0:0:
320,192,47242,128,0,47340:0:1:0:0:
448,192,47340,128,0,48370:0:1:0:0:
64,192,47929,128,0,48370:0:1:0:0:
192,192,48370,1,0,0:1:0:0:
320,192,48443,1,0,0:1:0:0:
448,192,48517,128,0,48737:0:1:0:0:
320,192,48737,128,0,48958:0:1:0:0:
192,192,48958,128,0,49105:0:1:0:0:
320,192,49105,128,0,49252:0:1:0:0:
64,192,49252,128,0,49399:0:1:0:0:
192,192,49399,128,0,49546:0:1:0:0:
320,192,49546,128,0,49693:0:1:0:0:
448,192,49693,1,0,0:1:0:0:
192,192,49693,1,0,0:1:0:0:
64,192,49914,1,0,0:1:0:0:
192,192,50134,1,0,0:1:0:0:
320,192,50281,1,0,0:1:0:0:
192,192,50502,1,0,0:1:0:0:
448,192,50723,1,0,0:1:0:0:
320,192,50870,1,0,0:1:0:0:
64,192,50870,1,0,0:1:0:0:
192,192,51090,1,0,0:1:0:0:
448,192,51311,1,0,0:1:0:0:
320,192,51458,1,0,0:1:0:0:
448,192,51679,1,0,0:1:0:0:
192,192,51899,1,0,0:1:0:0:
320,192,51973,1,0,0:1:0:0:
448,192,52046,1,0,0:1:0:0:
64,192,52046,1,0,0:1:0:0:
64,192,52242,1,0,0:1:0:0:
192,192,52340,1,0,0:1:0:0:
320,192,52438,1,0,0:1:0:0:
448,192,52536,1,0,0:1:0:0:
192,192,52634,1,0,0:1:0:0:
320,192,52830,1,0,0:1:0:0:
64,192,52929,1,0,0:1:0:0:
192,192,53027,1,0,0:1:0:0:
320,192,53125,1,0,0:1:0:0:
448,192,53223,1,0,0:1:0:0:
64,192,53223,1,0,0:1:0:0:
320,192,53296,1,0,0:1:0:0:
192,192,53370,1,0,0:1:0:0:
64,192,53443,1,0,0:1:0:0:
448,192,53517,1,0,0:1:0:0:
320,192,53590,1,0,0:1:0:0:
192,192,53664,1,0,0:1:0:0:
64,192,53737,1,0,0:1:0:0:
448,192,53811,1,0,0:1:0:0:
320,192,53884,1,0,0:1:0:0:
192,192,53958,1,0,0:1:0:0:
64,192,54031,1,0,0:1:0:0:
320,192,54105,1,0,0:1:0:0:
448,192,54105,1,0,0:1:0:0:
64,192,54179,1,0,0:1:0:0:
448,192,54252,1,0,0:1:0:0:
64,192,54326,1,0,0:1:0:0:
192,192,54399,1,0,0:1:0:0:
320,192,54399,128,0,54693:0:1:0:0:
448,192,54546,1,0,0:1:0:0:
192,192,54693,1,0,0:1:0:0:
64,192,54693,1,0,0:1:0:0:
448,192,54840,1,0,0:1:0:0:
320,192,54914,1,0,0:1:0:0:
448,192,54987,1,0,0:1:0:0:
192,192,54987,128,0,55281:0:1:0:0:
320,192,55134,1,0,0:1:0:0:
64,192,55281,1,0,0:1:0:0:
448,192,55281,1,0,0:1:0:0:
320,192,55429,1,0,0:1:0:0:
192,192,55502,1,0,0:1:0:0:
64,192,55576,1,0,0:1:0:0:
448,192,55576,1,0,0:1:0:0:
320,192,55723,1,0,0:1:0:0:
192,192,55796,1,0,0:1:0:0:
320,192,55870,1,0,0:1:0:0:
64,192,55870,1,0,0:1:0:0:
448,192,56017,1,0,0:1:0:0:
320,192,56090,1,0,0:1:0:0:
448,192,56164,1,0,0:1:0:0:
64,192,56164,128,0,56458:0:1:0:0:
320,192,56311,1,0,0:1:0:0:
192,192,56458,1,0,0:1:0:0:
448,192,56458,1,0,0:1:0:0:
320,192,56679,1,0,0:1:0:0:
64,192,56679,1,0,0:1:0:0:
192,192,56752,1,0,0:1:0:0:
448,192,56752,128,0,57046:0:1:0:0:
320,192,56899,1,0,0:1:0:0:
192,192,57046,1,0,0:1:0:0:
64,192,57046,1,0,0:1:0:0:
448,192,57193,1,0,0:1:0:0:
320,192,57267,1,0,0:1:0:0:
448,192,57340,1,0,0:1:0:0:
192,192,57340,128,0,57634:0:1:0:0:
320,192,57487,1,0,0:1:0:0:
448,192,57634,1,0,0:1:0:0:
64,192,57634,1,0,0:1:0:0:
320,192,57781,1,0,0:1:0:0:
192,192,57855,1,0,0:1:0:0:
448,192,57929,1,0,0:1:0:0:
64,192,57929,1,0,0:1:0:0:
192,192,58027,1,0,0:1:0:0:
320,192,58125,1,0,0:1:0:0:
448,192,58223,1,0,0:1:0:0:
64,192,58223,1,0,0:1:0:0:
192,192,58321,1,0,0:1:0:0:
320,192,58419,1,0,0:1:0:0:
448,192,58517,1,0,0:1:0:0:
64,192,58517,1,0,0:1:0:0:
192,192,58615,1,0,0:1:0:0:
320,192,58713,1,0,0:1:0:0:
192,192,58811,1,0,0:1:0:0:
64,192,58811,1,0,0:1:0:0:
320,192,58909,1,0,0:1:0:0:
448,192,59007,1,0,0:1:0:0:
192,192,59105,1,0,0:1:0:0:
320,192,59105,1,0,0:1:0:0:
64,192,59252,1,0,0:1:0:0:
448,192,59326,1,0,0:1:0:0:
64,192,59399,1,0,0:1:0:0:
320,192,59473,1,0,0:1:0:0:
64,192,59546,1,0,0:1:0:0:
448,192,59620,1,0,0:1:0:0:
64,192,59693,1,0,0:1:0:0:
320,192,59767,1,0,0:1:0:0:
64,192,59840,1,0,0:1:0:0:
448,192,59914,1,0,0:1:0:0:
320,192,59987,1,0,0:1:0:0:
192,192,59987,1,0,0:1:0:0:
320,192,60134,1,0,0:1:0:0:
64,192,60134,1,0,0:1:0:0:
192,192,60281,1,0,0:1:0:0:
320,192,60354,1,0,0:1:0:0:
192,192,60428,1,0,0:1:0:0:
448,192,60501,1,0,0:1:0:0:
192,192,60575,1,0,0:1:0:0:
320,192,60648,1,0,0:1:0:0:
192,192,60722,1,0,0:1:0:0:
448,192,60795,1,0,0:1:0:0:
192,192,60869,1,0,0:1:0:0:
320,192,60942,1,0,0:1:0:0:
448,192,61016,1,0,0:1:0:0:
64,192,61016,1,0,0:1:0:0:
64,192,61163,1,0,0:1:0:0:
192,192,61163,1,0,0:1:0:0:
320,192,61310,1,0,0:1:0:0:
192,192,61383,1,0,0:1:0:0:
320,192,61457,1,0,0:1:0:0:
64,192,61530,1,0,0:1:0:0:
320,192,61604,1,0,0:1:0:0:
192,192,61677,1,0,0:1:0:0:
320,192,61751,1,0,0:1:0:0:
64,192,61824,1,0,0:1:0:0:
320,192,61898,1,0,0:1:0:0:
192,192,61971,1,0,0:1:0:0:
448,192,62045,1,0,0:1:0:0:
64,192,62045,1,0,0:1:0:0:
192,192,62192,1,0,0:1:0:0:
448,192,62192,128,0,62486:0:1:0:0:
320,192,62486,1,0,0:1:0:0:
192,192,62560,1,0,0:1:0:0:
448,192,62633,1,0,0:1:0:0:
320,192,62707,1,0,0:1:0:0:
192,192,62780,1,0,0:1:0:0:
64,192,62854,1,0,0:1:0:0:
320,192,62927,1,0,0:1:0:0:
192,192,63001,1,0,0:1:0:0:
64,192,63074,1,0,0:1:0:0:
320,192,63148,1,0,0:1:0:0:
192,192,63221,1,0,0:1:0:0:
448,192,63295,1,0,0:1:0:0:
320,192,63368,1,0,0:1:0:0:
192,192,63368,1,0,0:1:0:0:
64,192,63441,1,0,0:1:0:0:
448,192,63515,1,0,0:1:0:0:
320,192,63588,1,0,0:1:0:0:
192,192,63662,1,0,0:1:0:0:
448,192,63662,1,0,0:1:0:0:
64,192,63735,1,0,0:1:0:0:
320,192,63809,1,0,0:1:0:0:
64,192,63882,1,0,0:1:0:0:
320,192,63956,1,0,0:1:0:0:
192,192,63956,1,0,0:1:0:0:
448,192,64029,1,0,0:1:0:0:
64,192,64103,1,0,0:1:0:0:
192,192,64176,1,0,0:1:0:0:
320,192,64250,1,0,0:1:0:0:
64,192,64250,1,0,0:1:0:0:
448,192,64323,1,0,0:1:0:0:
192,192,64397,1,0,0:1:0:0:
64,192,64397,1,0,0:1:0:0:
320,192,64470,1,0,0:1:0:0:
192,192,64544,1,0,0:1:0:0:
448,192,64617,1,0,0:1:0:0:
320,192,64691,1,0,0:1:0:0:
64,192,64691,1,0,0:1:0:0:
448,192,64764,1,0,0:1:0:0:
192,192,64838,1,0,0:1:0:0:
64,192,64911,1,0,0:1:0:0:
448,192,64985,1,0,0:1:0:0:
320,192,64985,1,0,0:1:0:0:
192,192,65058,1,0,0:1:0:0:
320,192,65132,1,0,0:1:0:0:
64,192,65205,1,0,0:1:0:0:
192,192,65279,1,0,0:1:0:0:
448,192,65279,1,0,0:1:0:0:
64,192,65352,1,0,0:1:0:0:
320,192,65426,1,0,0:1:0:0:
448,192,65426,1,0,0:1:0:0:
192,192,65499,1,0,0:1:0:0:
64,192,65573,1,0,0:1:0:0:
320,192,65646,1,0,0:1:0:0:
192,192,65720,1,0,0:1:0:0:
448,192,65720,1,0,0:1:0:0:
64,192,65793,1,0,0:1:0:0:
320,192,65867,1,0,0:1:0:0:
448,192,65940,1,0,0:1:0:0:
192,192,66014,1,0,0:1:0:0:
64,192,66014,1,0,0:1:0:0:
320,192,66087,1,0,0:1:0:0:
448,192,66161,1,0,0:1:0:0:
64,192,66234,1,0,0:1:0:0:
320,192,66308,1,0,0:1:0:0:
192,192,66308,1,0,0:1:0:0:
448,192,66455,128,0,67190:0:1:0:0:
64,192,66455,128,0,66896:0:1:0:0:
192,192,66896,1,0,0:1:0:0:
320,192,66896,1,0,0:1:0:0:
192,192,67190,1,0,0:1:0:0:
64,192,67190,1,0,0:1:0:0:
64,192,67484,1,0,0:1:0:0:
192,192,67558,1,0,0:1:0:0:
320,192,67631,1,0,0:1:0:0:
448,192,67705,1,0,0:1:0:0:
192,192,67778,1,0,0:1:0:0:
64,192,67778,128,0,68073:0:1:0:0:
192,192,68073,128,0,68220:0:1:0:0:
448,192,68073,1,0,0:1:0:0:
320,192,68220,128,0,68514:0:1:0:0:
192,192,68367,1,0,0:1:0:0:
64,192,68367,1,0,0:1:0:0:
448,192,68514,128,0,68808:0:1:0:0:
320,192,68661,1,0,0:1:0:0:
64,192,68661,1,0,0:1:0:0:
192,192,68808,128,0,69102:0:1:0:0:
64,192,68881,1,0,0:1:0:0:
320,192,68955,1,0,0:1:0:0:
448,192,68955,1,0,0:1:0:0:
64,192,69102,128,0,69249:0:1:0:0:
192,192,69249,128,0,69396:0:1:0:0:
448,192,69249,1,0,0:1:0:0:
320,192,69396,128,0,69690:0:1:0:0:
192,192,69543,1,0,0:1:0:0:
64,192,69543,1,0,0:1:0:0:
448,192,69690,128,0,69837:0:1:0:0:
320,192,69837,128,0,69984:0:1:0:0:
192,192,69837,1,0,0:1:0:0:
64,192,69984,128,0,70131:0:1:0:0:
448,192,70058,1,0,0:1:0:0:
192,192,70131,128,0,70426:0:1:0:0:
320,192,70131,1,0,0:1:0:0:
64,192,70426,128,0,70573:0:1:0:0:
448,192,70426,1,0,0:1:0:0:
192,192,70573,128,0,70867:0:1:0:0:
320,192,70720,1,0,0:1:0:0:
64,192,70720,1,0,0:1:0:0:
448,192,70867,128,0,71014:0:1:0:0:
320,192,71014,128,0,71161:0:1:0:0:
192,192,71014,1,0,0:1:0:0:
64,192,71161,128,0,71602:0:1:0:0:
320,192,71308,1,0,0:1:0:0:
448,192,71308,1,0,0:1:0:0:
192,192,71602,1,0,0:1:0:0:
448,192,71602,1,0,0:1:0:0:
320,192,71676,1,0,0:1:0:0:
192,192,71749,1,0,0:1:0:0:
64,192,71823,1,0,0:1:0:0:
320,192,71896,1,0,0:1:0:0:
448,192,71896,1,0,0:1:0:0:
192,192,71970,1,0,0:1:0:0:
64,192,72043,1,0,0:1:0:0:
448,192,72117,1,0,0:1:0:0:
320,192,72190,1,0,0:1:0:0:
192,192,72190,1,0,0:1:0:0:
64,192,72264,1,0,0:1:0:0:
448,192,72337,1,0,0:1:0:0:
320,192,72411,1,0,0:1:0:0:
192,192,72484,1,0,0:1:0:0:
64,192,72484,1,0,0:1:0:0:
192,192,72680,1,0,0:1:0:0:
320,192,72680,1,0,0:1:0:0:
320,192,72876,1,0,0:1:0:0:
448,192,72876,1,0,0:1:0:0:
320,192,73073,1,0,0:1:0:0:
64,192,73073,1,0,0:1:0:0:
320,192,73269,1,0,0:1:0:0:
192,192,73269,1,0,0:1:0:0:
192,192,73465,1,0,0:1:0:0:
448,192,73465,1,0,0:1:0:0:
448,192,73661,1,0,0:1:0:0:
64,192,73661,1,0,0:1:0:0:
320,192,73857,1,0,0:1:0:0:
64,192,73857,1,0,0:1:0:0:
192,192,74053,1,0,0:1:0:0:
64,192,74053,1,0,0:1:0:0:
192,192,74249,1,0,0:1:0:0:
320,192,74249,128,0,74543:0:1:0:0:
448,192,74543,1,0,0:1:0:0:
64,192,74617,1,0,0:1:0:0:
448,192,74690,1,0,0:1:0:0:
64,192,74764,1,0,0:1:0:0:
320,192,74837,1,0,0:1:0:0:
448,192,74837,1,0,0:1:0:0:
192,192,74984,1,0,0:1:0:0:
448,192,75058,1,0,0:1:0:0:
320,192,75131,1,0,0:1:0:0:
64,192,75131,1,0,0:1:0:0:
192,192,75205,1,0,0:1:0:0:
64,192,75278,1,0,0:1:0:0:
448,192,75352,1,0,0:1:0:0:
192,192,75426,1,0,0:1:0:0:
64,192,75426,1,0,0:1:0:0:
320,192,75499,1,0,0:1:0:0:
448,192,75573,1,0,0:1:0:0:
64,192,75646,1,0,0:1:0:0:
320,192,75720,1,0,0:1:0:0:
192,192,75720,1,0,0:1:0:0:
64,192,75793,1,0,0:1:0:0:
320,192,75867,1,0,0:1:0:0:
448,192,75940,1,0,0:1:0:0:
320,192,76014,1,0,0:1:0:0:
192,192,76014,1,0,0:1:0:0:
320,192,76210,1,0,0:1:0:0:
192,192,76210,1,0,0:1:0:0:
320,192,76406,1,0,0:1:0:0:
192,192,76406,1,0,0:1:0:0:
448,192,76602,1,0,0:1:0:0:
320,192,76676,1,0,0:1:0:0:
192,192,76749,1,0,0:1:0:0:
64,192,76823,1,0,0:1:0:0:
448,192,76896,1,0,0:1:0:0:
320,192,76945,1,0,0:1:0:0:
192,192,76994,1,0,0:1:0:0:
64,192,77043,1,0,0:1:0:0:
320,192,77092,1,0,0:1:0:0:
192,192,77141,1,0,0:1:0:0:
448,192,77190,128,0,77484:0:1:0:0:
64,192,77190,1,0,0:1:0:0:
192,192,77411,1,0,0:1:0:0:
64,192,77484,128,0,77631:0:1:0:0:
320,192,77484,1,0,0:1:0:0:
320,192,77631,128,0,77926:0:1:0:0:
192,192,77705,1,0,0:1:0:0:
448,192,77778,1,0,0:1:0:0:
64,192,77778,1,0,0:1:0:0:
448,192,77926,128,0,78220:0:1:0:0:
192,192,77999,1,0,0:1:0:0:
320,192,78073,1,0,0:1:0:0:
64,192,78073,1,0,0:1:0:0:
192,192,78220,128,0,78514:0:1:0:0:
320,192,78293,1,0,0:1:0:0:
448,192,78367,1,0,0:1:0:0:
64,192,78367,1,0,0:1:0:0:
64,192,78514,128,0,78661:0:1:0:0:
320,192,78587,1,0,0:1:0:0:
192,192,78661,128,0,78808:0:1:0:0:
448,192,78661,1,0,0:1:0:0:
320,192,78808,128,0,79102:0:1:0:0:
192,192,78881,1,0,0:1:0:0:
448,192,78955,1,0,0:1:0:0:
64,192,78955,1,0,0:1:0:0:
448,192,79102,128,0,79249:0:1:0:0:
192,192,79176,1,0,0:1:0:0:
320,192,79249,128,0,79396:0:1:0:0:
64,192,79249,1,0,0:1:0:0:
64,192,79396,128,0,79543:0:1:0:0:
320,192,79470,1,0,0:1:0:0:
192,192,79543,128,0,79837:0:1:0:0:
448,192,79543,1,0,0:1:0:0:
320,192,79764,1,0,0:1:0:0:
448,192,79837,1,0,0:1:0:0:
64,192,79837,1,0,0:1:0:0:
192,192,79984,1,0,0:1:0:0:
64,192,79984,1,0,0:1:0:0:
320,192,80278,1,0,0:1:0:0:
192,192,80278,1,0,0:1:0:0:
320,192,80573,1,0,0:1:0:0:
448,192,80573,128,0,80867:0:1:0:0:
320,192,80867,1,0,0:1:0:0:
192,192,80867,1,0,0:1:0:0:
192,192,81014,1,0,0:1:0:0:
64,192,81014,1,0,0:1:0:0:
320,192,81161,128,0,81455:0:1:0:0:
64,192,81161,1,0,0:1:0:0:
192,192,81308,1,0,0:1:0:0:
64,192,81308,1,0,0:1:0:0:
192,192,81455,1,0,0:1:0:0:
448,192,81455,1,0,0:1:0:0:
320,192,81602,1,0,0:1:0:0:
448,192,81602,1,0,0:1:0:0:
64,192,81676,1,0,0:1:0:0:
448,192,81749,1,0,0:1:0:0:
64,192,81823,1,0,0:1:0:0:
192,192,81896,1,0,0:1:0:0:
448,192,81896,1,0,0:1:0:0:
320,192,82092,1,0,0:1:0:0:
192,192,82092,1,0,0:1:0:0:
320,192,82288,1,0,0:1:0:0:
448,192,82288,1,0,0:1:0:0:
320,192,82484,1,0,0:1:0:0:
64,192,82484,1,0,0:1:0:0:
320,192,82680,1,0,0:1:0:0:
192,192,82680,1,0,0:1:0:0:
192,192,82876,1,0,0:1:0:0:
448,192,82876,1,0,0:1:0:0:
448,192,83073,1,0,0:1:0:0:
64,192,83073,1,0,0:1:0:0:
320,192,83269,1,0,0:1:0:0:
64,192,83269,1,0,0:1:0:0:
192,192,83465,1,0,0:1:0:0:
64,192,83465,1,0,0:1:0:0:
320,192,83661,1,0,0:1:0:0:
448,192,83661,128,0,83955:0:1:0:0:
320,192,83955,1,0,0:1:0:0:
192,192,84028,1,0,0:1:0:0:
320,192,84102,1,0,0:1:0:0:
64,192,84176,1,0,0:1:0:0:
448,192,84249,1,0,0:1:0:0:
320,192,84298,1,0,0:1:0:0:
192,192,84347,1,0,0:1:0:0:
64,192,84396,1,0,0:1:0:0:
448,192,84445,1,0,0:1:0:0:
320,192,84494,1,0,0:1:0:0:
192,192,84543,1,0,0:1:0:0:
64,192,84641,1,0,0:1:0:0:
448,192,84739,1,0,0:1:0:0:
320,192,84837,1,0,0:1:0:0:
192,192,84935,1,0,0:1:0:0:
64,192,85033,1,0,0:1:0:0:
448,192,85131,1,0,0:1:0:0:
320,192,85180,1,0,0:1:0:0:
192,192,85229,1,0,0:1:0:0:
64,192,85278,1,0,0:1:0:0:
320,192,85327,1,0,0:1:0:0:
192,192,85376,1,0,0:1:0:0:
448,192,85426,1,0,0:1:0:0:
64,192,85426,1,0,0:1:0:0:
448,192,85646,1,0,0:1:0:0:
64,192,85646,1,0,0:1:0:0:
448,192,85867,1,0,0:1:0:0:
64,192,85867,1,0,0:1:0:0:
448,192,86161,1,0,0:1:0:0:
64,192,86161,1,0,0:1:0:0:
192,192,86234,1,0,0:1:0:0:
320,192,86308,1,0,0:1:0:0:
448,192,86357,1,0,0:1:0:0:
64,192,86406,1,0,0:1:0:0:
192,192,86455,1,0,0:1:0:0:
320,192,86504,1,0,0:1:0:0:
448,192,86553,1,0,0:1:0:0:
64,192,86602,1,0,0:1:0:0:
192,192,86651,1,0,0:1:0:0:
320,192,86700,1,0,0:1:0:0:
448,192,86749,1,0,0:1:0:0:
192,192,86823,1,0,0:1:0:0:
320,192,86896,1,0,0:1:0:0:
64,192,86896,1,0,0:1:0:0:
448,192,86970,1,0,0:1:0:0:
192,192,87043,1,0,0:1:0:0:
320,192,87117,1,0,0:1:0:0:
64,192,87190,1,0,0:1:0:0:
192,192,87239,1,0,0:1:0:0:
320,192,87288,1,0,0:1:0:0:
448,192,87337,1,0,0:1:0:0:
64,192,87411,1,0,0:1:0:0:
192,192,87484,1,0,0:1:0:0:
448,192,87484,1,0,0:1:0:0:
320,192,87558,1,0,0:1:0:0:
64,192,87631,1,0,0:1:0:0:
192,192,87705,1,0,0:1:0:0:
448,192,87778,1,0,0:1:0:0:
320,192,87827,1,0,0:1:0:0:
192,192,87876,1,0,0:1:0:0:
64,192,87926,1,0,0:1:0:0:
320,192,87999,1,0,0:1:0:0:
192,192,88073,1,0,0:1:0:0:
448,192,88073,1,0,0:1:0:0:
64,192,88146,1,0,0:1:0:0:
320,192,88220,1,0,0:1:0:0:
192,192,88293,1,0,0:1:0:0:
448,192,88367,1,0,0:1:0:0:
320,192,88416,1,0,0:1:0:0:
192,192,88465,1,0,0:1:0:0:
64,192,88514,1,0,0:1:0:0:
448,192,88587,1,0,0:1:0:0:
64,192,88661,1,0,0:1:0:0:
320,192,88661,1,0,0:1:0:0:
192,192,88734,1,0,0:1:0:0:
448,192,88808,1,0,0:1:0:0:
320,192,88881,1,0,0:1:0:0:
64,192,88955,1,0,0:1:0:0:
192,192,89004,1,0,0:1:0:0:
320,192,89053,1,0,0:1:0:0:
448,192,89102,1,0,0:1:0:0:
64,192,89176,1,0,0:1:0:0:
192,192,89249,1,0,0:1:0:0:
320,192,89249,1,0,0:1:0:0:
448,192,89323,1,0,0:1:0:0:
192,192,89396,1,0,0:1:0:0:
320,192,89470,1,0,0:1:0:0:
64,192,89543,1,0,0:1:0:0:
192,192,89592,1,0,0:1:0:0:
320,192,89641,1,0,0:1:0:0:
448,192,89690,1,0,0:1:0:0:
64,192,89764,1,0,0:1:0:0:
192,192,89837,1,0,0:1:0:0:
448,192,89837,1,0,0:1:0:0:
320,192,89911,1,0,0:1:0:0:
192,192,89984,1,0,0:1:0:0:
64,192,90058,1,0,0:1:0:0:
448,192,90131,1,0,0:1:0:0:
320,192,90180,1,0,0:1:0:0:
192,192,90229,1,0,0:1:0:0:
64,192,90278,1,0,0:1:0:0:
448,192,90352,1,0,0:1:0:0:
192,192,90426,1,0,0:1:0:0:
320,192,90426,1,0,0:1:0:0:
64,192,90499,1,0,0:1:0:0:
320,192,90573,1,0,0:1:0:0:
192,192,90646,1,0,0:1:0:0:
448,192,90720,1,0,0:1:0:0:
320,192,90769,1,0,0:1:0:0:
192,192,90818,1,0,0:1:0:0:
64,192,90867,1,0,0:1:0:0:
320,192,90940,1,0,0:1:0:0:
448,192,91014,1,0,0:1:0:0:
192,192,91063,1,0,0:1:0:0:
320,192,91112,1,0,0:1:0:0:
64,192,91161,1,0,0:1:0:0:
448,192,91234,1,0,0:1:0:0:
192,192,91308,1,0,0:1:0:0:
64,192,91357,1,0,0:1:0:0:
448,192,91406,1,0,0:1:0:0:
320,192,91455,1,0,0:1:0:0:
64,192,91528,1,0,0:1:0:0:
192,192,91602,1,0,0:1:0:0:
448,192,91602,1,0,0:1:0:0:
320,192,91676,1,0,0:1:0:0:
192,192,91749,1,0,0:1:0:0:
64,192,91823,1,0,0:1:0:0:
320,192,91896,1,0,0:1:0:0:
448,192,91945,1,0,0:1:0:0:
64,192,91994,1,0,0:1:0:0:
192,192,92043,1,0,0:1:0:0:
448,192,92117,1,0,0:1:0:0:
320,192,92190,1,0,0:1:0:0:
64,192,92190,1,0,0:1:0:0:
192,192,92264,1,0,0:1:0:0:
320,192,92337,1,0,0:1:0:0:
448,192,92411,1,0,0:1:0:0:
64,192,92484,1,0,0:1:0:0:
192,192,92533,1,0,0:1:0:0:
448,192,92582,1,0,0:1:0:0:
320,192,92631,1,0,0:1:0:0:
192,192,92705,1,0,0:1:0:0:
64,192,92778,1,0,0:1:0:0:
448,192,92778,1,0,0:1:0:0:
320,192,92852,1,0,0:1:0:0:
64,192,92926,1,0,0:1:0:0:
192,192,92999,1,0,0:1:0:0:
448,192,93073,1,0,0:1:0:0:
320,192,93122,1,0,0:1:0:0:
64,192,93171,1,0,0:1:0:0:
192,192,93220,1,0,0:1:0:0:
320,192,93293,1,0,0:1:0:0:
448,192,93367,1,0,0:1:0:0:
64,192,93367,1,0,0:1:0:0:
192,192,93465,1,0,0:1:0:0:
320,192,93563,1,0,0:1:0:0:
448,192,93661,128,0,94249:0:1:0:0:
64,192,93661,1,0,0:1:0:0:
320,192,93808,1,0,0:1:0:0:
192,192,93955,1,0,0:1:0:0:
64,192,93955,1,0,0:1:0:0:
192,192,94102,1,0,0:1:0:0:
320,192,94249,1,0,0:1:0:0:
64,192,94249,1,0,0:1:0:0:
192,192,94396,1,0,0:1:0:0:
320,192,94543,1,0,0:1:0:0:
448,192,94543,1,0,0:1:0:0:
192,192,94690,1,0,0:1:0:0:
320,192,94764,1,0,0:1:0:0:
64,192,94837,1,0,0:1:0:0:
448,192,94837,128,0,95058:0:1:0:0:
192,192,94984,1,0,0:1:0:0:
64,192,94984,1,0,0:1:0:0:
320,192,95058,128,0,95278:0:1:0:0:
192,192,95131,1,0,0:1:0:0:
64,192,95131,1,0,0:1:0:0:
192,192,95278,128,0,95426:0:1:0:0:
64,192,95278,1,0,0:1:0:0:
448,192,95426,1,0,0:1:0:0:
320,192,95426,1,0,0:1:0:0:
192,192,95524,1,0,0:1:0:0:
448,192,95622,1,0,0:1:0:0:
192,192,95720,1,0,0:1:0:0:
64,192,95720,1,0,0:1:0:0:
448,192,95818,1,0,0:1:0:0:
192,192,95916,1,0,0:1:0:0:
320,192,96014,1,0,0:1:0:0:
64,192,96014,1,0,0:1:0:0:
320,192,96234,1,0,0:1:0:0:
320,192,96455,1,0,0:1:0:0:
320,192,96749,128,0,97043:0:1:0:0:
192,192,97043,1,0,0:1:0:0:
64,192,97043,1,0,0:1:0:0:
64,192,97190,1,0,0:1:0:0:
320,192,97190,1,0,0:1:0:0:
320,192,97411,1,0,0:1:0:0:
320,192,97631,1,0,0:1:0:0:
192,192,97778,1,0,0:1:0:0:
64,192,97778,1,0,0:1:0:0:
320,192,97926,128,0,98220:0:1:0:0:
64,192,97999,1,0,0:1:0:0:
192,192,97999,1,0,0:1:0:0:
192,192,98220,1,0,0:1:0:0:
64,192,98220,1,0,0:1:0:0:
320,192,98367,1,0,0:1:0:0:
448,192,98367,1,0,0:1:0:0:
64,192,98440,1,0,0:1:0:0:
192,192,98514,1,0,0:1:0:0:
320,192,98587,1,0,0:1:0:0:
448,192,98587,1,0,0:1:0:0:
64,192,98661,1,0,0:1:0:0:
192,192,98734,1,0,0:1:0:0:
320,192,98808,1,0,0:1:0:0:
448,192,98808,1,0,0:1:0:0:
64,192,98881,1,0,0:1:0:0:
192,192,98955,1,0,0:1:0:0:
320,192,99028,1,0,0:1:0:0:
448,192,99102,1,0,0:1:0:0:
64,192,99102,1,0,0:1:0:0:
192,192,99176,1,0,0:1:0:0:
320,192,99249,1,0,0:1:0:0:
448,192,99323,1,0,0:1:0:0:
192,192,99396,1,0,0:1:0:0:
320,192,99470,1,0,0:1:0:0:
448,192,99543,1,0,0:1:0:0:
320,192,99592,1,0,0:1:0:0:
192,192,99641,1,0,0:1:0:0:
64,192,99690,1,0,0:1:0:0:
448,192,99739,1,0,0:1:0:0:
320,192,99788,1,0,0:1:0:0:
192,192,99837,1,0,0:1:0:0:
64,192,99886,1,0,0:1:0:0:
448,192,99935,1,0,0:1:0:0:
320,192,99984,1,0,0:1:0:0:
192,192,100033,1,0,0:1:0:0:
448,192,100082,1,0,0:1:0:0:
320,192,100131,1,0,0:1:0:0:
192,192,100180,1,0,0:1:0:0:
64,192,100229,1,0,0:1:0:0:
448,192,100278,1,0,0:1:0:0:
320,192,100327,1,0,0:1:0:0:
192,192,100376,1,0,0:1:0:0:
64,192,100426,1,0,0:1:0:0:
448,192,100475,1,0,0:1:0:0:
320,192,100524,1,0,0:1:0:0:
64,192,100573,1,0,0:1:0:0:
192,192,100609,1,0,0:1:0:0:
320,192,100646,1,0,0:1:0:0:
448,192,100683,1,0,0:1:0:0:
64,192,101014,128,0,104837:0:1:0:0:
448,192,101014,1,0,0:1:0:0:
192,192,102999,128,0,104837:0:1:0:0:
320,192,103073,128,0,104837:0:1:0:0:
448,192,103146,128,0,104837:0:1:0:0:
