osu file format v14

[General]
AudioFilename: audio.mp3
AudioLeadIn: 0
PreviewTime: 82813
Countdown: 0
SampleSet: Soft
StackLeniency: 0.7
Mode: 3
LetterboxInBreaks: 0
SpecialStyle: 0
WidescreenStoryboard: 0

[Editor]
Bookmarks: 2292,9792,14442,15042,17875,18688,23312,29321,30482,30869,32030,32417,40060,41588,44588,50406,54769,55569,56426,62348,65227,68050,72413,75277,76754,77205,81367,88460,91283,95518,95871,96577,97283,97989,98695,99401,99754,101142,102513,103919,109385,110718,112051,113372,114672,115958,117230,118546,119636,123465
DistanceSpacing: 0.8
BeatDivisor: 4
GridSize: 32
TimelineZoom: 0.7999998

[Metadata]
Title:Ongaku -resolve-
TitleUnicode:音楽 -resolve-
Artist:Yu_Asahina
ArtistUnicode:Yu_Asahina
Creator:Kawawa
Version:Beginner
Source:SOUND VOLTEX II -infinite infection-
Tags:Critical_Star Piano Remix Virkato Wakhmaninov pop'n music 17 THE MOVIE SILENT wac orangentle
BeatmapID:1349302
BeatmapSetID:540432

[Difficulty]
HPDrainRate:7
CircleSize:7
OverallDifficulty:7
ApproachRate:5
SliderMultiplier:1.4
SliderTickRate:1

[Events]
//Background and Video events
0,0,"Background.jpg",0,0
//Break Periods
//Storyboard Layer 0 (Background)
//Storyboard Layer 1 (Fail)
//Storyboard Layer 2 (Pass)
//Storyboard Layer 3 (Foreground)
//Storyboard Sound Samples
Sample,54769,0,"KicK.wav",70
Sample,56426,0,"Chamber.wav",70

[TimingPoints]
2292,500,3,2,1,30,1,0
2292,-70.5882352941176,3,2,1,30,0,0
9792,452.830188679245,4,2,1,30,1,0
9792,-78.125,4,2,1,30,0,0
11376,400,3,2,1,30,1,0
11376,-88.4955752212389,3,2,1,30,0,0
14442,400,4,2,1,30,1,0
14442,-88.4955752212389,4,2,1,30,0,0
15042,500,4,2,1,30,1,0
15042,-70.5882352941176,4,2,1,30,0,0
16542,444.444444444444,4,2,1,30,1,0
16542,-79.4117647058824,4,2,1,30,0,0
17875,413.793103448276,4,2,1,30,1,0
17875,-85.2941176470588,4,2,1,30,0,1
18288,400,4,2,1,30,1,0
18288,-88.2352941176471,4,2,1,30,0,1
18688,387.096774193548,4,2,1,30,1,0
18688,-91.1764705882354,4,2,1,30,0,0
21784,384.615384615385,4,2,1,30,1,0
21784,-91.7647058823529,4,2,1,30,0,0
22553,379.746835443038,4,2,1,30,1,0
22553,-92.9411764705882,4,2,1,30,0,0
23312,375,4,2,1,30,1,0
23312,-94.1176470588235,4,2,1,30,0,0
28562,379.746835443038,4,2,1,30,1,0
28562,-92.9411764705882,4,2,1,30,0,0
29321,387.096774193548,4,2,1,30,1,0
29321,-91.1764705882354,4,2,1,30,0,1
30482,-91.1764705882354,4,2,1,30,0,0
30869,-91.1764705882354,4,2,1,30,0,1
32030,-91.1764705882354,4,2,1,30,0,0
32417,382.165605095541,4,2,1,30,1,0
32417,-92.3529411764707,4,2,1,30,0,0
40060,-92.3529411764707,4,2,1,30,0,1
41588,375,4,2,1,30,1,0
41588,-94.1176470588235,4,2,1,30,0,0
44588,363.636363636364,4,2,1,30,1,0
44588,-97.0588235294117,4,2,1,30,0,0
54769,400,4,2,1,30,1,0
54769,-88.2352941176471,4,2,1,30,0,0
55569,413.793103448276,4,2,1,30,1,0
55569,-85.2941176470588,4,2,1,30,0,1
55982,444.444444444444,4,2,1,30,1,0
55982,-79.4117647058824,4,2,1,30,0,1
56426,387.096774193548,4,2,1,30,1,0
56426,-91.1764705882354,4,2,1,30,0,0
57200,375,4,2,1,30,1,0
57200,-94.1176470588235,4,2,1,30,0,0
57950,370.37037037037,4,2,1,30,1,0
57950,-95.2941176470589,4,2,1,30,0,0
59431,365.853658536585,4,2,1,30,1,0
59431,-96.4705882352942,4,2,1,30,0,0
60894,363.636363636364,4,2,1,30,1,0
60894,-97.0588235294117,4,2,1,30,0,0
63075,361.44578313253,4,2,1,30,1,0
63075,-97.6470588235294,4,2,1,30,0,0
63797,359.281437125748,4,2,1,30,1,0
63797,-98.2352941176472,4,2,1,30,0,0
64515,357.142857142857,4,2,1,30,1,0
64515,-98.8235294117647,4,2,1,30,0,0
64872,355.029585798817,4,2,1,30,1,0
64872,-99.4117647058822,4,2,1,30,0,0
65227,352.941176470588,4,2,1,30,1,1
68050,363.636363636364,4,2,1,30,1,0
68050,-97.0588235294117,4,2,1,30,0,0
72413,361.44578313253,4,2,1,30,1,0
72413,-97.6470588235294,4,2,1,30,0,0
73135,359.281437125748,4,2,1,30,1,0
73135,-98.2352941176472,4,2,1,30,0,0
73853,357.142857142857,4,2,1,30,1,0
73853,-98.8235294117647,4,2,1,30,0,0
74567,355.029585798817,4,2,1,30,1,0
74567,-99.4117647058822,4,2,1,30,0,0
75277,352.941176470588,4,2,1,30,1,1
75629,363.636363636364,4,2,1,30,1,0
75629,-97.0588235294117,4,2,1,30,0,1
75992,375,4,2,1,30,1,0
75992,-94.1176470588235,4,2,1,30,0,1
76367,387.096774193548,4,2,1,30,1,0
76367,-91.1764705882354,4,2,1,30,0,1
76754,451.127819548872,4,2,1,30,1,0
76754,-78.2352941176471,4,2,1,30,0,0
78558,461.538461538462,4,2,1,30,1,0
78558,-76.470588235294,4,2,1,30,0,0
79481,444.444444444444,4,2,1,30,1,0
79481,-79.4117647058824,4,2,1,30,0,0
80369,472.44094488189,4,2,1,30,1,0
80369,-74.7058823529411,4,2,1,30,0,0
80841,526.315789473684,4,2,1,30,1,0
80841,-67.0588235294118,4,2,1,30,0,0
81367,363.636363636364,4,2,1,30,1,0
81367,-97.0588235294117,4,2,1,30,0,0
81730,361.44578313253,4,2,1,30,1,0
81730,-97.6470588235294,4,2,1,30,0,0
82091,359.281437125748,4,2,1,30,1,0
82091,-98.2352941176472,4,2,1,30,0,0
82450,363.636363636364,4,2,1,30,1,0
82450,-97.0588235294117,4,2,1,30,0,0
82813,352.941176470588,4,2,1,30,1,0
95871,-100,4,2,1,30,0,1
96577,-100,4,2,1,30,0,0
97283,-100,4,2,1,30,0,1
97989,-100,4,2,1,30,0,0
98695,-100,4,2,1,30,0,1
99401,-100,4,2,1,30,0,0
99754,350.877192982456,4,2,1,30,1,0
99754,-100.588235294118,4,2,1,30,0,0
100104,348.837209302326,4,2,1,30,1,0
100104,-101.176470588235,4,2,1,30,0,0
100452,346.820809248555,4,2,1,30,1,0
100452,-101.764705882353,4,2,1,30,0,0
100798,344.827586206897,4,2,1,30,1,0
100798,-102.35294117647,4,2,1,30,0,0
101142,342.857142857143,4,2,1,30,1,0
101142,-102.941176470588,4,2,1,30,0,0
102513,352.941176470588,4,2,1,30,1,0
103218,350.877192982456,4,2,1,30,1,0
103218,-100.588235294118,4,2,1,30,0,0
103919,348.837209302326,4,2,1,30,1,0
103919,-101.176470588235,4,2,1,30,0,0
104616,346.820809248555,4,2,1,30,1,0
104616,-101.764705882353,4,2,1,30,0,0
105309,344.827586206897,4,2,1,30,1,0
105309,-102.35294117647,4,2,1,30,0,0
105998,342.857142857143,4,2,1,30,1,0
105998,-102.941176470588,4,2,1,30,0,0
106683,340.909090909091,4,2,1,30,1,0
106683,-103.529411764706,4,2,1,30,0,0
107364,338.983050847458,4,2,1,30,1,0
107364,-104.117647058823,4,2,1,30,0,0
108041,337.078651685393,4,2,1,30,1,0
108041,-104.705882352941,4,2,1,30,0,0
108715,335.195530726257,4,2,1,30,1,0
108715,-105.294117647059,4,2,1,30,0,0
109385,333.333333333333,4,2,1,30,1,0
109385,-105.882352941177,4,2,1,30,0,0
112385,331.491712707182,4,2,1,30,1,0
112385,-106.470588235294,4,2,1,30,0,0
112716,329.67032967033,4,2,1,30,1,0
112716,-107.058823529412,4,2,1,30,0,0
113045,327.868852459016,4,2,1,30,1,0
113045,-107.64705882353,4,2,1,30,0,0
113372,326.086956521739,4,2,1,30,1,0
113372,-108.235294117647,4,2,1,30,0,1
114024,324.324324324324,4,2,1,30,1,0
114024,-108.823529411765,4,2,1,30,0,1
114672,322.58064516129,4,2,1,30,1,0
114672,-109.411764705882,4,2,1,30,0,1
115317,320.855614973262,4,2,1,30,1,0
115317,-110,4,2,1,30,0,1
115958,319.148936170213,4,2,1,30,1,0
115958,-110.588235294118,4,2,1,30,0,1
116596,317.460317460317,4,2,1,30,1,0
116596,-111.176470588235,4,2,1,30,0,1
117230,315.789473684211,4,2,1,30,1,0
117230,-111.764705882353,4,2,1,30,0,1
117861,333.333333333333,4,2,1,30,1,0
117861,-105.882352941177,4,2,1,30,0,1
118194,352.941176470588,4,2,1,30,1,1
118546,272.727272727273,4,2,1,30,1,0
118546,-129.411764705882,4,2,1,30,0,0
119636,319.148936170213,4,2,1,30,1,0
119636,-111.111111111111,4,2,1,30,0,1
123465,-111.111111111111,4,2,1,30,0,0

[HitObjects]
36,192,2292,5,0,0:0:0:70:Sub BeLL.wav
182,192,3042,1,0,0:0:0:70:Sub BeLL.wav
329,192,3792,1,0,0:0:0:70:Sub BeLL.wav
182,192,4542,1,0,0:0:0:70:Sub BeLL.wav
36,192,5292,1,0,0:0:0:70:Sub BeLL.wav
256,192,6042,1,0,0:0:0:70:Sub BeLL.wav
475,192,6792,1,0,0:0:0:70:Sub BeLL.wav
329,192,7667,128,0,8292:0:0:0:70:BeLL.wav
475,192,7667,128,0,8292:0:0:0:70:Sub BeLL.wav
36,192,9792,128,0,12576:0:0:0:70:KicK.wav
475,192,9792,128,0,13776:0:0:0:0:
182,192,11376,128,0,12576:0:0:0:0:
329,192,12576,128,0,13776:0:0:0:0:
109,192,13776,128,0,14176:0:0:0:0:
402,192,14176,128,0,14442:0:0:0:0:
109,192,14442,1,0,0:0:0:0:
329,192,15042,1,0,0:0:0:70:KicK.wav
182,192,15042,128,0,17875:0:0:0:0:
329,192,16042,128,0,17875:0:0:0:70:BeLL.wav
36,192,17875,128,0,18688:0:0:0:0:
475,192,17875,128,0,18688:0:0:0:0:
256,192,18688,1,0,0:0:0:70:Cymbal.wav
402,192,19462,1,0,0:0:0:0:
109,192,20236,1,0,0:0:0:0:
329,192,20881,128,0,21784:0:0:0:0:
36,192,21784,1,0,0:0:0:0:
182,192,22553,1,0,0:0:0:0:
329,192,23312,1,0,0:0:0:70:KicK.wav
475,192,23312,1,0,0:0:0:70:Cymbal.wav
329,192,24062,1,0,0:0:0:70:KicK.wav
329,192,24812,1,0,0:0:0:70:KicK.wav
329,192,25562,1,0,0:0:0:70:KicK.wav
329,192,26312,1,0,0:0:0:70:KicK.wav
36,192,26687,1,0,0:0:0:70:KicK.wav
329,192,27062,1,0,0:0:0:70:KicK.wav
36,192,27437,1,0,0:0:0:70:KicK.wav
329,192,27812,1,0,0:0:0:70:KicK.wav
109,192,28187,1,0,0:0:0:70:KicK.wav
329,192,28562,1,0,0:0:0:70:KicK.wav
109,192,28941,1,0,0:0:0:70:KicK.wav
329,192,29321,1,0,0:0:0:70:KicK.wav
475,192,29321,1,0,0:0:0:70:BeLL2.wav
182,192,29514,128,0,30482:0:0:0:70:KicK.wav
36,192,29514,128,0,30482:0:0:0:70:BeLL2.wav
36,192,30869,1,0,0:0:0:70:BeLL2.wav
182,192,30869,1,0,0:0:0:70:KicK.wav
329,192,31062,128,0,32030:0:0:0:70:KicK.wav
475,192,31062,128,0,32030:0:0:0:70:BeLL2.wav
402,192,32417,1,0,0:0:0:70:Cymbal.wav
109,192,32417,1,0,0:0:0:70:KicK.wav
256,192,32799,1,0,0:0:0:70:Snare.wav
109,192,33181,1,0,0:0:0:70:KicK.wav
256,192,33563,1,0,0:0:0:70:Snare.wav
475,192,33945,1,0,0:0:0:70:KicK.wav
329,192,34327,1,0,0:0:0:70:Snare.wav
475,192,34709,1,0,0:0:0:70:KicK.wav
475,192,35092,128,0,35283:0:0:0:70:Snare.wav
109,192,35474,1,0,0:0:0:70:KicK.wav
256,192,35856,1,0,0:0:0:70:Snare.wav
109,192,36238,1,0,0:0:0:70:KicK.wav
256,192,36620,1,0,0:0:0:70:Snare.wav
402,192,37002,1,0,0:0:0:70:KicK.wav
256,192,37385,1,0,0:0:0:70:Snare.wav
475,192,37767,1,0,0:0:0:70:KicK.wav
329,192,38149,1,0,0:0:0:70:Snare.wav
36,192,38531,1,0,0:0:0:70:KicK.wav
182,192,38531,1,0,0:0:0:70:Cymbal.wav
36,192,38913,1,0,0:0:0:70:KicK.wav
36,192,39295,1,0,0:0:0:70:KicK.wav
36,192,39678,1,0,0:0:0:70:KicK.wav
36,192,40060,128,0,40442:0:0:0:70:Snare.wav
182,192,40442,128,0,40824:0:0:0:70:Snare.wav
329,192,40824,128,0,41206:0:0:0:70:Snare.wav
475,192,41206,128,0,41588:0:0:0:70:Sub Drum.wav
36,192,41588,1,0,0:0:0:70:Cymbal.wav
256,192,41588,1,0,0:0:0:70:KicK.wav
109,192,43088,1,0,0:0:0:0:
402,192,43838,128,0,44213:0:0:0:0:
109,192,44213,1,0,0:0:0:70:Snare.wav
329,192,44588,1,0,0:0:0:70:KicK.wav
182,192,44588,1,0,0:0:0:70:Cymbal.wav
329,192,44951,1,0,0:0:0:70:KicK.wav
182,192,45315,1,0,0:0:0:70:KicK.wav
329,192,45678,1,0,0:0:0:70:KicK.wav
109,192,46042,1,0,0:0:0:70:KicK.wav
402,192,46406,1,0,0:0:0:70:KicK.wav
109,192,46769,1,0,0:0:0:70:KicK.wav
402,192,47133,1,0,0:0:0:70:KicK.wav
36,192,47497,1,0,0:0:0:70:KicK.wav
475,192,47860,1,0,0:0:0:70:KicK.wav
36,192,48224,1,0,0:0:0:70:KicK.wav
475,192,48588,1,0,0:0:0:70:KicK.wav
36,192,48951,1,0,0:0:0:70:KicK.wav
256,192,49315,1,0,0:0:0:70:KicK.wav
475,192,49678,1,0,0:0:0:70:KicK.wav
256,192,50042,1,0,0:0:0:70:KicK.wav
36,192,50406,1,0,0:0:0:70:KicK.wav
182,192,50588,128,0,50951:0:0:0:70:KicK.wav
109,192,51133,1,0,0:0:0:70:KicK.wav
256,192,51315,128,0,51678:0:0:0:70:KicK.wav
182,192,51860,1,0,0:0:0:70:KicK.wav
329,192,52042,128,0,52406:0:0:0:70:KicK.wav
256,192,52588,1,0,0:0:0:70:KicK.wav
402,192,52769,128,0,53133:0:0:0:70:KicK.wav
329,192,53315,1,0,0:0:0:70:KicK.wav
475,192,53497,128,0,53860:0:0:0:70:KicK.wav
36,192,54042,1,0,0:0:0:70:KicK.wav
182,192,54224,1,0,0:0:0:70:KicK.wav
475,192,54406,1,0,0:0:0:70:KicK.wav
329,192,54588,1,0,0:0:0:70:KicK.wav
109,192,54769,1,0,0:0:0:70:PunK.wav
256,192,55069,1,0,0:0:0:70:PunK.wav
109,192,55369,1,0,0:0:0:70:PunK.wav
402,192,55569,128,0,56426:0:0:0:70:Chamber.wav
256,192,55982,128,0,56426:0:0:0:70:Chamber.wav
36,192,56426,128,0,56619:0:0:0:70:Cymbal.wav
109,192,57200,128,0,57387:0:0:0:70:Chamber.wav
182,192,57950,128,0,58135:0:0:0:70:Chamber.wav
256,192,58690,128,0,58875:0:0:0:70:Chamber.wav
36,192,59061,1,0,0:0:0:70:KicK.wav
36,192,59431,1,0,0:0:0:70:KicK.wav
329,192,59431,128,0,59613:0:0:0:70:Chamber.wav
36,192,60162,1,0,0:0:0:70:KicK.wav
402,192,60162,128,0,60345:0:0:0:70:Chamber.wav
36,192,60894,1,0,0:0:0:70:KicK.wav
475,192,60894,128,0,61621:0:0:0:70:Chamber.wav
36,192,61257,1,0,0:0:0:70:KicK.wav
36,192,61621,1,0,0:0:0:70:KicK.wav
182,192,61803,1,0,0:0:0:70:KicK.wav
329,192,61984,1,0,0:0:0:70:KicK.wav
182,192,62166,1,0,0:0:0:70:KicK.wav
36,192,62348,1,0,0:0:0:70:Cymbal.wav
475,192,62348,1,0,0:0:0:70:KicK.wav
109,192,63075,1,0,0:0:0:70:Cymbal.wav
402,192,63075,1,0,0:0:0:70:KicK.wav
182,192,63797,1,0,0:0:0:70:CrashS.wav
329,192,63797,1,0,0:0:0:70:KicK.wav
182,192,64156,1,0,0:0:0:70:CrashS.wav
329,192,64156,1,0,0:0:0:70:KicK.wav
402,192,64515,1,0,0:0:0:70:KicK.wav
109,192,64515,1,0,0:0:0:70:CrashS.wav
36,192,64872,1,0,0:0:0:70:CrashS.wav
475,192,64872,1,0,0:0:0:70:KicK.wav
256,192,65227,128,0,65579:0:0:0:70:Snare.wav
402,192,65579,128,0,65932:0:0:0:70:Snare.wav
182,192,65932,128,0,66285:0:0:0:70:Snare.wav
329,192,66285,128,0,66638:0:0:0:70:Snare.wav
109,192,66638,128,0,66991:0:0:0:70:Snare.wav
256,192,66991,128,0,67344:0:0:0:70:Snare.wav
36,192,67344,128,0,67697:0:0:0:70:Snare.wav
475,192,67697,1,0,0:0:0:70:Snare.wav
329,192,67874,1,0,0:0:0:70:Snare.wav
36,192,68050,1,0,0:0:0:70:Cymbal.wav
182,192,68050,128,0,68413:0:0:0:70:KicK.wav
182,192,68777,128,0,69140:0:0:0:70:KicK.wav
36,192,69504,128,0,69686:0:0:0:70:KicK.wav
182,192,69868,128,0,70050:0:0:0:70:Snare.wav
329,192,70231,128,0,70413:0:0:0:70:KicK.wav
475,192,70595,128,0,70777:0:0:0:70:Snare.wav
475,192,70959,1,0,0:0:0:70:KicK.wav
402,192,71322,1,0,0:0:0:70:KicK.wav
329,192,71686,1,0,0:0:0:70:KicK.wav
256,192,72050,1,0,0:0:0:70:KicK.wav
182,192,72413,1,0,0:0:0:70:KicK.wav
36,192,72413,1,0,0:0:0:70:Cymbal.wav
475,192,72774,1,0,0:0:0:70:Snare.wav
256,192,73135,1,0,0:0:0:70:KicK.wav
109,192,73135,1,0,0:0:0:0:
475,192,73494,1,0,0:0:0:70:Snare.wav
329,192,73853,1,0,0:0:0:70:KicK.wav
182,192,73853,1,0,0:0:0:0:
109,192,74210,1,0,0:0:0:70:Snare.wav
256,192,74567,1,0,0:0:0:0:
402,192,74567,1,0,0:0:0:70:KicK.wav
109,192,74922,1,0,0:0:0:70:Snare.wav
329,192,75277,128,0,75629:0:0:0:70:Snare.wav
475,192,75277,128,0,75629:0:0:0:0:
36,192,75629,128,0,76367:0:0:0:70:Snare.wav
182,192,75992,128,0,76367:0:0:0:70:Snare.wav
475,192,76367,128,0,76754:0:0:0:70:Snare.wav
329,192,76754,1,0,0:0:0:70:Snare.wav
256,192,77205,128,0,78332:0:0:0:70:KicK.wav
109,192,77205,128,0,78332:0:0:0:70:Cymbal.wav
475,192,78558,1,0,0:0:0:0:
329,192,79019,1,0,0:0:0:0:
475,192,79481,1,0,0:0:0:0:
109,192,80369,128,0,80841:0:0:0:70:Chamber.wav
256,192,80841,1,0,0:0:0:70:Chamber.wav
402,192,80841,1,0,0:0:0:0:
182,192,81367,1,0,0:0:0:70:KicK.wav
182,192,81730,1,0,0:0:0:70:KicK.wav
182,192,82091,1,0,0:0:0:70:KicK.wav
402,192,82450,1,0,0:0:0:50:Clap.wav
256,192,82813,1,0,0:0:0:70:KicK.wav
36,192,82813,1,0,0:0:0:70:Cymbal.wav
329,192,83165,1,0,0:0:0:70:Snare.wav
402,192,83518,1,0,0:0:0:70:KicK.wav
475,192,83871,1,0,0:0:0:70:Snare.wav
329,192,84224,1,0,0:0:0:70:KicK.wav
182,192,84577,1,0,0:0:0:70:Snare.wav
36,192,84930,1,0,0:0:0:70:KicK.wav
182,192,85283,1,0,0:0:0:70:Snare.wav
329,192,85636,1,0,0:0:0:70:KicK.wav
256,192,85989,1,0,0:0:0:70:Snare.wav
182,192,86342,1,0,0:0:0:70:KicK.wav
329,192,86695,1,0,0:0:0:70:Snare.wav
475,192,87048,1,0,0:0:0:70:KicK.wav
256,192,87401,1,0,0:0:0:70:Snare.wav
36,192,87754,1,0,0:0:0:70:KicK.wav
36,192,88107,1,0,0:0:0:70:Snare.wav
182,192,88283,1,0,0:0:0:70:KicK.wav
475,192,88460,1,0,0:0:0:70:KicK.wav
329,192,88460,1,0,0:0:0:70:Cymbal.wav
256,192,88813,1,0,0:0:0:70:Snare.wav
182,192,89165,1,0,0:0:0:70:KicK.wav
109,192,89518,1,0,0:0:0:70:Snare.wav
36,192,89871,1,0,0:0:0:70:KicK.wav
182,192,90224,1,0,0:0:0:70:Snare.wav
329,192,90577,1,0,0:0:0:70:KicK.wav
475,192,90930,1,0,0:0:0:70:Snare.wav
475,192,91283,1,0,0:0:0:70:KicK.wav
256,192,91460,128,0,91813:0:0:0:70:KicK.wav
402,192,91989,1,0,0:0:0:70:KicK.wav
182,192,92165,128,0,92518:0:0:0:70:KicK.wav
329,192,92695,1,0,0:0:0:70:KicK.wav
109,192,92871,128,0,93224:0:0:0:70:KicK.wav
256,192,93401,1,0,0:0:0:70:KicK.wav
36,192,93577,128,0,93930:0:0:0:70:KicK.wav
182,192,94107,1,0,0:0:0:70:KicK.wav
329,192,94460,1,0,0:0:0:70:Snare.wav
475,192,94813,1,0,0:0:0:70:KicK.wav
109,192,94989,1,0,0:0:0:70:Snare.wav
256,192,95165,1,0,0:0:0:70:Snare.wav
109,192,95342,1,0,0:0:0:70:Snare.wav
475,192,95518,1,0,0:0:0:70:KicK.wav
36,192,95871,128,0,96401:0:0:0:70:BeLL.wav
182,192,95871,128,0,96401:0:0:0:70:Snare.wav
182,192,96577,1,0,0:0:0:70:Snare.wav
36,192,96577,1,0,0:0:0:70:PunK.wav
475,192,96930,1,0,0:0:0:70:KicK.wav
256,192,97283,128,0,97812:0:0:0:70:Snare.wav
109,192,97283,128,0,97812:0:0:0:70:BeLL.wav
256,192,97989,1,0,0:0:0:70:Snare.wav
109,192,97989,1,0,0:0:0:70:PunK.wav
475,192,98342,1,0,0:0:0:70:KicK.wav
182,192,98695,128,0,99224:0:0:0:70:BeLL.wav
329,192,98695,128,0,99224:0:0:0:70:Snare.wav
329,192,99401,1,0,0:0:0:70:Snare.wav
182,192,99401,1,0,0:0:0:70:PunK.wav
475,192,99754,1,0,0:0:0:70:KicK.wav
256,192,100104,1,0,0:0:0:70:Snare.wav
36,192,100452,1,0,0:0:0:70:KicK.wav
182,192,100625,1,0,0:0:0:70:KicK.wav
475,192,100798,1,0,0:0:0:70:Snare.wav
329,192,100970,1,0,0:0:0:70:KicK.wav
36,192,101142,1,0,0:0:0:70:Cymbal.wav
182,192,101142,1,0,0:0:0:70:KicK.wav
36,192,102513,1,0,0:0:0:70:Chamber.wav
256,192,103218,1,0,0:0:0:70:Chamber.wav
475,192,103919,1,0,0:0:0:70:KicK.wav
36,192,103919,1,0,0:0:0:70:Cymbal.wav
329,192,104180,1,0,0:0:0:70:KicK.wav
475,192,104442,1,0,0:0:0:70:KicK.wav
36,192,104616,128,0,105136:0:0:0:70:KicK.wav
475,192,105309,1,0,0:0:0:70:KicK.wav
329,192,105567,1,0,0:0:0:70:KicK.wav
475,192,105826,1,0,0:0:0:70:KicK.wav
36,192,105998,128,0,106512:0:0:0:70:KicK.wav
329,192,106683,1,0,0:0:0:70:KicK.wav
182,192,106938,1,0,0:0:0:70:KicK.wav
329,192,107194,1,0,0:0:0:70:KicK.wav
109,192,107364,128,0,107872:0:0:0:70:KicK.wav
402,192,108041,1,0,0:0:0:70:KicK.wav
256,192,108293,1,0,0:0:0:70:KicK.wav
402,192,108546,1,0,0:0:0:70:KicK.wav
182,192,108715,128,0,109217:0:0:0:70:KicK.wav
475,192,109385,1,0,0:0:0:70:Cymbal.wav
329,192,109385,1,0,0:0:0:70:Snare.wav
109,192,109635,1,0,0:0:0:70:Snare.wav
329,192,109885,1,0,0:0:0:70:Snare.wav
36,192,110051,128,0,110718:0:0:0:0:
182,192,110051,128,0,110718:0:0:0:70:KicK.wav
329,192,110718,1,0,0:0:0:70:Snare.wav
475,192,110718,1,0,0:0:0:0:
402,192,111385,1,0,0:0:0:0:
256,192,111385,1,0,0:0:0:70:Snare.wav
329,192,112051,1,0,0:0:0:70:Snare.wav
182,192,112051,1,0,0:0:0:0:
182,192,112385,1,0,0:0:0:70:Snare.wav
36,192,112385,1,0,0:0:0:0:
402,192,112716,1,0,0:0:0:70:Snare.wav
109,192,112880,1,0,0:0:0:70:Snare.wav
329,192,113045,1,0,0:0:0:70:Snare.wav
182,192,113208,1,0,0:0:0:70:Snare.wav
475,192,113372,1,0,0:0:0:70:Cymbal.wav
36,192,113372,1,0,0:0:0:70:KicK.wav
36,192,113698,128,0,114024:0:0:0:70:Chamber.wav
256,192,114024,128,0,114348:0:0:0:70:Chamber.wav
475,192,114348,128,0,114672:0:0:0:70:Chamber.wav
182,192,114672,1,0,0:0:0:70:Snare.wav
36,192,114672,1,0,0:0:0:0:
475,192,114994,128,0,115317:0:0:0:70:KicK.wav
256,192,115317,128,0,115637:0:0:0:70:KicK.wav
36,192,115637,128,0,115958:0:0:0:70:KicK.wav
329,192,115958,1,0,0:0:0:70:Snare.wav
475,192,115958,1,0,0:0:0:70:Cymbal.wav
256,192,116277,1,0,0:0:0:70:KicK.wav
36,192,116596,1,0,0:0:0:70:Snare.wav
182,192,116596,1,0,0:0:0:70:Cymbal.wav
256,192,116913,1,0,0:0:0:70:KicK.wav
329,192,117230,128,0,117545:0:0:0:70:Snare.wav
475,192,117230,128,0,117545:0:0:0:70:Cymbal.wav
109,192,117545,128,0,118194:0:0:0:70:Snare.wav
256,192,117861,128,0,118194:0:0:0:70:Snare.wav
402,192,118194,128,0,118546:0:0:0:70:Snare.wav
36,192,118546,1,0,0:0:0:70:Snare.wav
182,192,118546,1,0,0:0:0:70:Cymbal.wav
475,192,119091,1,0,0:0:0:70:BeLL.wav
402,192,119636,128,0,123465:0:0:0:70:Cymbal.wav
256,192,119636,128,0,123465:0:0:0:70:KicK.wav
