osu file format v14

[General]
AudioFilename: Yu_Asahina - Ongaku.mp3
AudioLeadIn: 0
PreviewTime: 18192
Countdown: 0
SampleSet: Soft
StackLeniency: 0.7
Mode: 0
LetterboxInBreaks: 0
WidescreenStoryboard: 0

[Editor]
DistanceSpacing: 1
BeatDivisor: 4
GridSize: 4
TimelineZoom: 1

[Metadata]
Title:Ongaku -resolve-
TitleUnicode:音楽 -resolve-
Artist:Yu_Asahina
ArtistUnicode:Yu_Asahina
Creator:Feerum
Version:Easy
Source:SOUND VOLTEX II -infinite infection-
Tags:KONAMI BEMANI sdvx Virkato Wakhmaninov pop'n music 17 THE MOVIE wac Lyawi Sey N_a_s_y_a Nasya Elementaires Critical_Star Come[Back]Home CrimsonClaw Collaboration Ichigaki Kyousuke- Fuccho -_Kafuuchii_- ijinjin ExPew Zetera Ascendance
BeatmapID:807820
BeatmapSetID:368219

[Difficulty]
HPDrainRate:2
CircleSize:2.5
OverallDifficulty:2
ApproachRate:2.5
SliderMultiplier:1
SliderTickRate:1

[Events]
//Background and Video events
0,0,"PianoBG.png",0,0
//Break Periods
2,56927,61179
2,77736,81644
//Storyboard Layer 0 (Background)
//Storyboard Layer 1 (Fail)
//Storyboard Layer 2 (Pass)
//Storyboard Layer 3 (Foreground)
//Storyboard Sound Samples

[TimingPoints]
1123,500,4,2,1,40,1,0
10123,452.830188679245,4,2,1,40,1,0
10123,-111.111111111111,4,2,1,40,0,0
11481,444.444444444444,4,2,1,40,1,0
11703,400,4,2,1,40,1,0
14859,500,4,2,1,40,1,0
16859,444.444444444444,4,2,1,40,1,0
18192,413.793103448276,4,2,1,40,1,0
18605,400,4,2,1,40,1,0
19019,387.096774193548,4,2,1,40,1,0
19019,-99.9999999999999,4,2,1,40,0,0
22115,384.615384615385,4,2,1,40,1,0
22884,379.746835443038,4,2,1,40,1,0
23643,375,4,2,1,40,1,0
28893,379.746835443038,4,2,1,40,1,0
29652,387.096774193548,4,2,1,40,1,0
32748,382.165605095541,4,2,1,40,1,0
41919,375,4,2,1,40,1,0
41919,-125,4,2,1,40,0,0
44919,363.636363636364,4,2,1,40,1,0
44919,-100,4,2,1,40,0,0
55100,400,4,2,1,40,1,0
55900,413.793103448276,4,2,1,40,1,0
56313,444.444444444444,4,2,1,40,1,0
56757,387.096774193548,4,2,1,40,1,0
57531,375,4,2,1,40,1,0
58281,370.37037037037,4,2,1,40,1,0
59762,365.853658536585,4,2,1,40,1,0
61225,363.636363636364,4,2,1,40,1,0
63406,361.44578313253,4,2,1,40,1,0
64128,359.281437125748,4,2,1,40,1,0
64846,357.142857142857,4,2,1,40,1,0
65203,355.029585798817,4,2,1,40,1,0
65558,352.941176470588,4,2,1,40,1,0
68381,363.636363636364,4,2,1,40,1,0
72744,361.44578313253,4,2,1,40,1,0
73466,359.281437125748,4,2,1,40,1,0
74184,357.142857142857,4,2,1,40,1,0
74898,355.029585798817,4,2,1,40,1,0
75608,352.941176470588,4,2,1,40,1,0
75960,363.636363636364,4,2,1,40,1,0
76323,375,4,2,1,40,1,0
76698,387.096774193548,4,2,1,40,1,0
77085,451.127819548872,4,2,1,40,1,0
78889,461.538461538462,4,2,1,40,1,0
79812,444.444444444444,4,2,1,40,1,0
80700,472.44094488189,4,2,1,40,1,0
81172,526.315789473684,4,2,1,40,1,0
81698,363.636363636364,4,2,1,40,1,0
82061,361.44578313253,4,2,1,40,1,0
82422,359.281437125748,4,2,1,40,1,0
82781,363.636363636364,4,2,1,40,1,0
83144,352.941176470588,4,2,1,40,1,0
100085,350.877192982456,4,2,1,40,1,0
100435,348.837209302326,4,2,1,40,1,0
100783,346.820809248555,4,2,1,40,1,0
101129,344.827586206897,4,2,1,40,1,0
101473,342.857142857143,4,2,1,40,1,0
102844,352.941176470588,4,2,1,40,1,0
103549,350.877192982456,4,2,1,40,1,0
104250,348.837209302326,4,2,1,40,1,0
104947,346.820809248555,4,2,1,40,1,0
105640,344.827586206897,4,2,1,40,1,0
106329,342.857142857143,4,2,1,40,1,0
107014,340.909090909091,4,2,1,40,1,0
107695,338.983050847458,4,2,1,40,1,0
108372,337.078651685393,4,2,1,40,1,0
109046,335.195530726257,4,2,1,40,1,0
109716,333.333333333333,4,2,1,40,1,0
112716,331.491712707182,4,2,1,40,1,0
113047,329.67032967033,4,2,1,40,1,0
113376,327.868852459016,4,2,1,40,1,0
113703,326.086956521739,4,2,1,40,1,0
114355,324.324324324324,4,2,1,40,1,0
115003,322.58064516129,4,2,1,40,1,0
115325,320.855614973262,4,2,1,40,1,0
116287,319.148936170213,4,2,1,40,1,0
116925,317.460317460317,4,2,1,40,1,0
117559,315.789473684211,4,2,1,40,1,0
118190,333.333333333333,4,2,1,40,1,0
118523,352.941176470588,4,2,1,40,1,0
118875,272.727272727273,4,2,1,40,1,0
119965,363.636363636364,4,2,1,40,1,0

[HitObjects]
242,91,2623,6,0,P|330:40|385:27,1,150
472,130,4123,2,0,P|418:181|337:206,1,150
195,179,5623,5,0,0:0:0:0:
96,193,6123,2,0,L|128:257|128:257,1,50
50,311,6873,2,0,L|18:247,1,50
201,288,7998,5,0,0:0:0:0:
384,316,10123,6,0,P|448:260|356:80,1,314.999990386963
168,76,12503,1,0,0:0:0:0:
312,212,13303,1,0,0:0:0:0:
156,332,14103,2,0,P|92:268|86:183,1,179.999994506836
256,192,15359,12,0,19005,0:0:0:0:
114,275,19793,5,0,0:0:0:0:
34,91,20567,1,0,0:0:0:0:
118,36,20954,1,0,0:0:0:0:
151,182,21535,6,0,B|244:150|244:150|286:101,1,150
362,58,22499,1,0,0:0:0:0:
456,93,22884,2,0,P|470:174|392:256,1,200
243,124,24393,5,0,0:0:0:0:
283,319,25143,2,0,P|334:287|356:249,1,100
471,150,25893,1,0,0:0:0:0:
300,45,26643,1,0,0:0:0:0:
298,201,27018,1,0,0:0:0:0:
199,218,27393,1,0,0:0:0:0:
101,241,27768,6,0,P|106:293|148:332,1,100
237,322,28518,1,0,0:0:0:0:
330,289,28893,1,0,0:0:0:0:
385,205,29272,1,0,0:0:0:0:
345,115,29652,6,0,P|235:134|208:214,1,200
358,338,31200,6,0,P|468:319|495:239,1,200
390,72,32748,6,0,L|290:72,1,100
235,155,33512,2,0,L|339:155,1,100
281,239,34276,2,0,L|177:239,1,100
85,268,35040,1,0,0:0:0:0:
43,176,35423,1,0,0:0:0:0:
37,76,35805,6,0,P|129:80|193:172,1,200
167,248,36951,1,0,0:0:0:0:
173,347,37333,2,0,P|265:343|329:251,1,200
243,207,38480,1,0,0:0:0:0:
204,114,38862,2,0,P|304:98|392:162,1,200
276,318,40391,5,0,0:0:0:0:
178,338,40773,1,0,0:0:0:0:
161,239,41155,1,0,0:0:0:0:
258,218,41537,1,0,0:0:0:0:
99,61,44919,5,0,0:0:0:0:
121,158,45282,1,0,0:0:0:0:
196,92,45646,2,0,P|236:120|246:167,1,100
171,234,46373,5,0,0:0:0:0:
167,334,46737,1,0,0:0:0:0:
265,319,47100,2,0,P|322:284|332:246,1,100
262,182,47828,5,0,0:0:0:0:
302,90,48191,1,0,0:0:0:0:
372,18,48555,2,0,P|414:89|411:116,1,100
444,198,49282,6,0,L|339:238,1,100
290,313,50009,2,0,L|167:320,1,100
84,205,50737,6,0,P|52:145|62:107,1,100
134,51,51464,2,0,P|162:90|160:139,1,100
193,234,52191,2,0,P|258:206|278:172,1,100
257,84,52919,2,0,P|321:95|364:133,1,100
364,213,53646,2,0,P|426:168|430:127,1,100
429,49,54373,5,0,0:0:0:0:
507,111,54737,1,0,0:0:0:0:
508,201,55100,1,0,0:0:0:0:
438,272,55500,1,0,0:0:0:0:
361,212,55900,2,0,P|360:322|452:360,1,200
127,68,62679,6,0,L|79:160,1,100
82,257,63406,2,0,L|170:337,1,100
268,292,64128,5,0,0:0:0:0:
264,192,64487,1,0,0:0:0:0:
364,192,64846,1,0,0:0:0:0:
364,292,65203,1,0,0:0:0:0:
256,192,65558,12,0,68028,0:0:0:0:
292,268,68381,6,0,P|352:224|360:184,1,100
262,175,69108,1,0,0:0:0:0:
68,128,69835,6,0,P|88:80|132:48,2,100
81,227,70926,1,0,0:0:0:0:
132,316,71290,5,0,0:0:0:0:
187,233,71653,1,0,0:0:0:0:
237,319,72017,1,0,0:0:0:0:
289,233,72381,1,0,0:0:0:0:
339,319,72744,6,0,P|384:278|393:226,1,100
339,157,73466,2,0,P|342:111|392:81,1,100
479,109,74184,2,0,P|475:39|444:0,1,100
352,0,74898,5,0,0:0:0:0:
255,27,75253,1,0,0:0:0:0:
256,192,75608,12,0,77536,0:0:0:0:
232,307,83144,6,0,P|133:307|120:299,1,100
175,225,83849,1,0,0:0:0:0:
74,225,84202,1,0,0:0:0:0:
30,135,84555,2,0,P|78:124|126:136,1,100
225,124,85261,5,0,0:0:0:0:
268,36,85614,1,0,0:0:0:0:
368,48,85967,2,0,L|317:158,1,100
284,232,86673,2,0,L|401:217,1,100
472,264,87379,1,0,0:0:0:0:
388,316,87732,2,0,P|283:332|204:272,1,200
212,180,88791,6,0,L|112:134,1,100
24,112,89496,1,0,0:0:0:0:
80,28,89849,1,0,0:0:0:0:
176,52,90202,2,0,L|272:96,1,100
360,60,90908,5,0,0:0:0:0:
444,116,91261,1,0,0:0:0:0:
452,216,91614,2,0,L|400:302,1,100
300,288,92320,2,0,L|364:184,1,100
252,204,93026,2,0,L|195:295,1,100
100,284,93732,2,0,L|164:180,1,100
72,140,94438,5,0,0:0:0:0:
88,40,94791,2,0,P|162:85|167:112,1,100
156,192,95496,1,0,0:0:0:0:
320,80,96202,6,0,P|347:178|294:267,1,200
184,100,97614,2,0,P|124:95|59:215,1,200
216,324,99026,2,0,P|320:290|355:210,1,200
284,140,100085,2,0,L|370:78,3,100
113,66,104250,5,0,0:0:0:0:
126,164,104598,1,0,0:0:0:0:
42,220,104947,2,0,P|83:267|137:272,1,100
212,307,105640,5,0,0:0:0:0:
218,207,105984,1,0,0:0:0:0:
207,106,106329,2,0,P|245:68|292:58,1,100
389,56,107014,5,0,0:0:0:0:
443,139,107354,1,0,0:0:0:0:
481,231,107695,2,0,L|367:232,1,100
291,203,108372,6,0,B|274:233|283:263|264:306,1,100
182,243,109046,2,0,B|202:208|191:174|206:146,1,100
268,68,109716,5,0,0:0:0:0:
69,41,110382,1,0,0:0:0:0:
63,241,111049,6,0,L|43:138,1,100
143,169,111716,2,0,L|163:268,1,100
260,289,112382,2,0,L|240:186,1,100
339,210,113047,2,0,L|358:308,1,100
439,250,113703,1,0,0:0:0:0:
424,151,114029,6,0,B|362:83|287:121|245:154|200:206|129:144,1,300
181,64,115325,2,0,P|95:58|76:233,1,300
66,329,116606,5,0,0:0:0:0:
166,335,116925,1,0,0:0:0:0:
168,235,117242,1,0,0:0:0:0:
253,287,117559,2,0,P|306:249|320:196,1,100
245,157,118190,2,0,P|320:124|349:136,1,100
433,208,118875,1,0,0:0:0:0:
312,367,119420,1,0,0:0:0:0:
256,192,119965,12,0,123783,0:0:0:0:
