osu file format v14

[General]
AudioFilename: Yu_Asahina - Ongaku.mp3
AudioLeadIn: 0
PreviewTime: 18192
Countdown: 0
SampleSet: Soft
StackLeniency: 0.7
Mode: 3
LetterboxInBreaks: 0
SpecialStyle: 0
WidescreenStoryboard: 0

[Editor]
DistanceSpacing: 0.8
BeatDivisor: 4
GridSize: 32
TimelineZoom: 1.5

[Metadata]
Title:Ongaku -resolve-
TitleUnicode:音楽 -resolve-
Artist:Yu_Asahina
ArtistUnicode:Yu_Asahina
Creator:Feerum
Version:4K INFINITE Lv.15
Source:SOUND VOLTEX II -infinite infection-
Tags:KONAMI BEMANI sdvx Virkato Wakhmaninov pop'n music 17 THE MOVIE wac Lyawi Sey N_a_s_y_a Nasya Elementaires Critical_Star Come[Back]Home CrimsonClaw Collaboration Ichigaki Kyousuke- Fuccho -_Kafuuchii_- ijinjin ExPew Zetera Ascendance
BeatmapID:807345
BeatmapSetID:368219

[Difficulty]
HPDrainRate:8
CircleSize:4
OverallDifficulty:8.5
ApproachRate:5
SliderMultiplier:1.4
SliderTickRate:1

[Events]
//Background and Video events
0,0,"PianoBG.png",0,0
//Break Periods
//Storyboard Layer 0 (Background)
//Storyboard Layer 1 (Fail)
//Storyboard Layer 2 (Pass)
//Storyboard Layer 3 (Foreground)
//Storyboard Sound Samples
Sample,19019,0,"Drop.wav",40
Sample,41919,0,"Drop.wav",40
Sample,56757,0,"Drop.wav",40
Sample,62679,0,"Drop.wav",40
Sample,77536,0,"Drop.wav",40
Sample,83144,0,"Cheer.wav",40
Sample,88791,0,"Cheer.wav",40
Sample,101473,0,"Drop.wav",40
Sample,119965,0,"Drop.wav",40
Sample,119965,0,"Cheer.wav",40
Sample,119965,0,"Drop.wav",40

[TimingPoints]
1123,500,4,2,1,40,1,0
1123,-72.7272727272727,4,2,1,40,0,0
10123,452.830188679245,4,2,1,40,1,0
10123,-80.6451612903226,4,2,1,40,0,0
11481,444.444444444444,4,2,1,40,1,0
11481,-81.9672131147541,4,2,1,40,0,0
11703,400,4,2,1,40,1,0
11703,-90.9090909090909,4,2,1,40,0,0
14859,500,4,2,1,40,1,0
14859,-72.7272727272727,4,2,1,40,0,0
16859,444.444444444444,4,2,1,40,1,0
16859,-81.8181818181819,4,2,1,40,0,0
18192,413.793103448276,4,2,1,40,1,0
18192,-87.8787878787878,4,2,1,40,0,0
18605,400,4,2,1,40,1,0
18605,-90.9090909090909,4,2,1,40,0,0
19019,387.096774193548,4,2,1,40,1,0
19019,-93.939393939394,4,2,1,40,0,0
22115,384.615384615385,4,2,1,40,1,0
22115,-94.5454545454545,4,2,1,40,0,0
22884,379.746835443038,4,2,1,40,1,0
22884,-95.7575757575758,4,2,1,40,0,0
23643,375,4,2,1,40,1,0
23643,-96.969696969697,4,2,1,40,0,0
28893,379.746835443038,4,2,1,40,1,0
28893,-95.7575757575758,4,2,1,40,0,0
29652,387.096774193548,4,2,1,40,1,0
29652,-93.939393939394,4,2,1,40,0,0
32748,382.165605095541,4,2,1,40,1,0
32748,-95.1515151515152,4,2,1,40,0,0
41919,375,4,2,1,40,1,0
41919,-96.969696969697,4,2,1,40,0,0
44919,363.636363636364,4,2,1,40,1,0
44919,-99.9999999999999,4,2,1,40,0,0
55100,400,4,2,1,40,1,0
55100,-90.9090909090909,4,2,1,40,0,0
55900,413.793103448276,4,2,1,40,1,0
55900,-87.8787878787878,4,2,1,40,0,0
56313,444.444444444444,4,2,1,40,1,0
56313,-81.8181818181819,4,2,1,40,0,0
56757,387.096774193548,4,2,1,40,1,0
56757,-93.939393939394,4,2,1,40,0,0
57531,375,4,2,1,40,1,0
57531,-96.969696969697,4,2,1,40,0,0
58281,370.37037037037,4,2,1,40,1,0
58281,-98.1818181818183,4,2,1,40,0,0
59762,365.853658536585,4,2,1,40,1,0
59762,-99.3939393939395,4,2,1,40,0,0
61225,363.636363636364,4,2,1,40,1,0
61225,-99.9999999999999,4,2,1,40,0,0
63406,361.44578313253,4,2,1,40,1,0
63406,-100.606060606061,4,2,1,40,0,0
64128,359.281437125748,4,2,1,40,1,0
64128,-101.212121212121,4,2,1,40,0,0
64846,357.142857142857,4,2,1,40,1,0
64846,-101.818181818182,4,2,1,40,0,0
65203,355.029585798817,4,2,1,40,1,0
65203,-102.424242424242,4,2,1,40,0,0
65558,352.941176470588,4,2,1,40,1,0
65558,-103.030303030303,4,2,1,40,0,0
68381,363.636363636364,4,2,1,40,1,0
68381,-99.9999999999999,4,2,1,40,0,0
72744,361.44578313253,4,2,1,40,1,0
72744,-100.606060606061,4,2,1,40,0,0
73466,359.281437125748,4,2,1,40,1,0
73466,-101.212121212121,4,2,1,40,0,0
74184,357.142857142857,4,2,1,40,1,0
74184,-101.818181818182,4,2,1,40,0,0
74898,355.029585798817,4,2,1,40,1,0
74898,-102.424242424242,4,2,1,40,0,0
75608,352.941176470588,4,2,1,40,1,0
75608,-103.030303030303,4,2,1,40,0,0
75960,363.636363636364,4,2,1,40,1,0
75960,-99.9999999999999,4,2,1,40,0,0
76323,375,4,2,1,40,1,0
76323,-96.969696969697,4,2,1,40,0,0
76698,387.096774193548,4,2,1,40,1,0
76698,-93.939393939394,4,2,1,40,0,0
77085,451.127819548872,4,2,1,40,1,0
77085,-80.6060606060606,4,2,1,40,0,0
78889,461.538461538462,4,2,1,40,1,0
78889,-78.7878787878787,4,2,1,40,0,0
79812,444.444444444444,4,2,1,40,1,0
79812,-81.8181818181819,4,2,1,40,0,0
80700,472.44094488189,4,2,1,40,1,0
80700,-76.9696969696969,4,2,1,40,0,0
81172,526.315789473684,4,2,1,40,1,0
81172,-69.0909090909091,4,2,1,40,0,0
81698,363.636363636364,4,2,1,40,1,0
81698,-99.9999999999999,4,2,1,40,0,0
82061,361.44578313253,4,2,1,40,1,0
82061,-100.606060606061,4,2,1,40,0,0
82422,359.281437125748,4,2,1,40,1,0
82422,-101.212121212121,4,2,1,40,0,0
82781,363.636363636364,4,2,1,40,1,0
82781,-99.9999999999999,4,2,1,40,0,0
83144,352.941176470588,4,2,1,40,1,0
83144,-103.030303030303,4,2,1,40,0,0
100085,350.877192982456,4,2,1,40,1,0
100085,-103.636363636364,4,2,1,40,0,0
100435,348.837209302326,4,2,1,40,1,0
100435,-104.242424242424,4,2,1,40,0,0
100783,346.820809248555,4,2,1,40,1,0
100783,-104.848484848485,4,2,1,40,0,0
101129,344.827586206897,4,2,1,40,1,0
101129,-105.454545454545,4,2,1,40,0,0
101473,342.857142857143,4,2,1,40,1,0
101473,-106.060606060606,4,2,1,40,0,0
102844,352.941176470588,4,2,1,40,1,0
102844,-103.030303030303,4,2,1,40,0,0
103549,350.877192982456,4,2,1,40,1,0
103549,-103.636363636364,4,2,1,40,0,0
104250,348.837209302326,4,2,1,40,1,0
104250,-104.242424242424,4,2,1,40,0,0
104947,346.820809248555,4,2,1,40,1,0
104947,-104.848484848485,4,2,1,40,0,0
105640,344.827586206897,4,2,1,40,1,0
105640,-105.454545454545,4,2,1,40,0,0
106329,342.857142857143,4,2,1,40,1,0
106329,-106.060606060606,4,2,1,40,0,0
107014,340.909090909091,4,2,1,40,1,0
107014,-106.666666666667,4,2,1,40,0,0
107695,338.983050847458,4,2,1,40,1,0
107695,-107.272727272727,4,2,1,40,0,0
108372,337.078651685393,4,2,1,40,1,0
108372,-107.878787878788,4,2,1,40,0,0
109046,335.195530726257,4,2,1,40,1,0
109046,-108.484848484848,4,2,1,40,0,0
109716,333.333333333333,4,2,1,40,1,0
109716,-109.090909090909,4,2,1,40,0,0
112716,331.491712707182,4,2,1,40,1,0
112716,-109.69696969697,4,2,1,40,0,0
113047,329.67032967033,4,2,1,40,1,0
113047,-110.30303030303,4,2,1,40,0,0
113376,327.868852459016,4,2,1,40,1,0
113376,-110.909090909091,4,2,1,40,0,0
113703,326.086956521739,4,2,1,40,1,0
113703,-111.515151515152,4,2,1,40,0,0
114355,324.324324324324,4,2,1,40,1,0
114355,-112.121212121212,4,2,1,40,0,0
115003,322.58064516129,4,2,1,40,1,0
115003,-112.727272727273,4,2,1,40,0,0
115325,320.855614973262,4,2,1,40,1,0
115325,-113.333333333333,4,2,1,40,0,0
116287,319.148936170213,4,2,1,40,1,0
116287,-113.939393939394,4,2,1,40,0,0
116925,317.460317460317,4,2,1,40,1,0
116925,-114.545454545455,4,2,1,40,0,0
117559,315.789473684211,4,2,1,40,1,0
117559,-115.151515151515,4,2,1,40,0,0
118190,333.333333333333,4,2,1,40,1,0
118190,-109.090909090909,4,2,1,40,0,0
118523,352.941176470588,4,2,1,40,1,0
118523,-103.030303030303,4,2,1,40,0,0
118875,272.727272727273,4,2,1,40,1,0
118875,-133.333333333333,4,2,1,40,0,0
119965,363.636363636364,4,2,1,40,1,0
119965,-99.9999999999999,4,2,1,40,0,0

[HitObjects]
320,192,1123,128,0,2623:0:0:0:0:
64,192,1373,1,0,0:0:0:0:
192,192,1623,1,0,0:0:0:0:
448,192,1873,1,0,0:0:0:0:
64,192,2039,1,0,0:0:0:0:
192,192,2123,1,0,0:0:0:0:
192,192,2373,1,0,0:0:0:0:
64,192,2623,1,8,3:0:0:0:
448,192,2623,1,2,0:0:0:0:
320,192,2873,1,0,0:0:0:0:
192,192,3123,1,0,0:0:0:0:
320,192,3373,1,2,0:0:0:0:
448,192,3373,1,8,3:0:0:0:
64,192,4123,1,2,0:0:0:0:
320,192,4123,1,8,3:0:0:0:
448,192,4373,1,0,0:0:0:0:
192,192,4623,1,0,0:0:0:0:
64,192,4873,1,2,0:0:0:0:
448,192,4873,1,8,3:0:0:0:
192,192,5623,1,2,0:0:0:0:
320,192,5623,1,8,3:0:0:0:
64,192,5873,1,0,0:0:0:0:
448,192,6123,1,0,0:0:0:0:
320,192,6373,1,2,0:0:0:0:
64,192,6373,1,8,3:0:0:0:
448,192,6873,1,0,0:0:0:0:
64,192,7123,1,2,0:0:0:0:
192,192,7123,1,8,3:0:0:0:
448,192,7998,1,0,0:0:0:0:
320,192,8060,1,0,0:0:0:0:
64,192,8123,128,2,10123:0:0:0:0:
192,192,8123,1,8,3:0:0:0:
192,192,9289,128,0,10123:0:0:0:0:
448,192,10123,1,0,3:0:0:0:
320,192,10236,1,0,0:0:0:0:
192,192,10349,1,0,0:0:0:0:
64,192,10462,1,0,0:0:0:0:
192,192,10575,1,0,0:0:0:0:
320,192,10689,1,0,0:0:0:0:
192,192,10802,1,0,0:0:0:0:
448,192,10915,1,0,0:0:0:0:
320,192,11028,1,0,0:0:0:0:
192,192,11141,1,0,0:0:0:0:
64,192,11255,1,0,0:0:0:0:
448,192,11368,1,0,0:0:0:0:
320,192,11481,1,0,0:0:0:0:
192,192,11592,1,0,0:0:0:0:
64,192,11703,1,0,0:0:0:0:
448,192,11803,1,0,0:0:0:0:
320,192,11903,1,0,0:0:0:0:
192,192,12003,1,0,0:0:0:0:
64,192,12103,1,0,0:0:0:0:
448,192,12203,1,0,0:0:0:0:
192,192,12303,1,0,0:0:0:0:
320,192,12403,1,0,0:0:0:0:
64,192,12503,1,0,0:0:0:0:
448,192,12603,1,0,0:0:0:0:
192,192,12703,1,0,0:0:0:0:
320,192,12836,1,0,0:0:0:0:
64,192,12903,1,0,0:0:0:0:
192,192,12969,1,0,0:0:0:0:
448,192,13036,1,0,0:0:0:0:
320,192,13103,1,0,0:0:0:0:
64,192,13169,1,0,0:0:0:0:
192,192,13236,1,0,0:0:0:0:
448,192,13303,1,0,0:0:0:0:
320,192,13369,1,0,0:0:0:0:
64,192,13436,1,0,0:0:0:0:
192,192,13503,1,0,0:0:0:0:
320,192,13569,1,0,0:0:0:0:
448,192,13636,1,0,0:0:0:0:
64,192,13703,1,0,0:0:0:0:
320,192,13769,1,0,0:0:0:0:
192,192,13836,1,0,0:0:0:0:
448,192,13903,1,0,0:0:0:0:
64,192,13969,1,0,0:0:0:0:
320,192,14036,1,0,0:0:0:0:
192,192,14103,1,0,0:0:0:0:
448,192,14169,1,0,0:0:0:0:
64,192,14236,1,0,0:0:0:0:
320,192,14303,1,0,0:0:0:0:
192,192,14369,1,0,0:0:0:0:
448,192,14436,1,0,0:0:0:0:
64,192,14503,1,0,0:0:0:0:
320,192,14569,1,0,0:0:0:0:
192,192,14636,1,0,0:0:0:0:
448,192,14703,1,0,0:0:0:0:
192,192,14778,1,0,0:0:0:0:
64,192,14778,1,0,0:0:0:0:
448,192,15359,1,0,3:0:0:0:
64,192,15359,1,0,0:0:0:0:
320,192,15359,1,4,0:0:0:0:
192,192,15442,1,0,0:0:0:0:
64,192,15525,1,0,0:0:0:0:
320,192,15609,1,0,0:0:0:0:
192,192,15692,1,0,0:0:0:0:
448,192,15775,1,0,0:0:0:0:
64,192,15859,1,0,0:0:0:0:
320,192,15942,1,0,0:0:0:0:
192,192,16025,1,0,0:0:0:0:
448,192,16109,1,0,0:0:0:0:
64,192,16192,1,0,0:0:0:0:
192,192,16275,1,0,0:0:0:0:
320,192,16359,1,0,0:0:0:0:
448,192,16442,1,0,0:0:0:0:
64,192,16525,1,0,0:0:0:0:
192,192,16609,1,0,0:0:0:0:
320,192,16692,1,0,0:0:0:0:
448,192,16775,1,0,0:0:0:0:
64,192,16859,1,0,0:0:0:0:
192,192,16933,1,0,0:0:0:0:
448,192,17007,1,0,0:0:0:0:
320,192,17081,1,0,0:0:0:0:
64,192,17192,1,0,0:0:0:0:
192,192,17303,1,0,0:0:0:0:
448,192,17414,1,0,0:0:0:0:
320,192,17525,1,0,0:0:0:0:
64,192,17636,1,0,0:0:0:0:
192,192,17747,1,0,0:0:0:0:
448,192,17859,1,0,0:0:0:0:
320,192,17970,1,0,0:0:0:0:
64,192,18081,1,0,0:0:0:0:
448,192,18192,1,0,0:0:0:0:
320,192,18260,1,0,0:0:0:0:
192,192,18329,1,0,0:0:0:0:
64,192,18398,1,0,0:0:0:0:
448,192,18467,1,0,0:0:0:0:
320,192,18536,1,0,0:0:0:0:
192,192,18605,1,0,0:0:0:0:
64,192,18671,1,0,0:0:0:0:
448,192,18738,1,0,0:0:0:0:
320,192,18805,1,0,0:0:0:0:
192,192,18871,1,0,0:0:0:0:
64,192,18938,1,0,0:0:0:0:
448,192,19019,1,4,0:0:0:0:
320,192,19019,1,2,0:0:0:0:
192,192,19406,1,0,0:0:0:0:
448,192,19664,1,0,0:0:0:0:
64,192,19793,1,0,0:0:0:0:
192,192,20180,1,0,0:0:0:0:
64,192,20438,1,0,0:0:0:0:
320,192,20567,1,0,0:0:0:0:
448,192,20954,1,0,0:0:0:0:
64,192,21212,1,0,0:0:0:0:
448,192,21535,1,0,0:0:0:0:
320,192,21728,1,0,0:0:0:0:
64,192,21922,1,0,0:0:0:0:
192,192,22115,1,0,0:0:0:0:
320,192,22499,1,8,3:0:0:0:
192,192,22595,1,8,3:0:0:0:
448,192,22691,1,8,3:0:0:0:
64,192,22788,1,8,3:0:0:0:
192,192,22884,1,0,0:0:0:0:
64,192,23073,1,0,0:0:0:0:
192,192,23263,1,0,0:0:0:0:
320,192,23453,1,0,0:0:0:0:
64,192,23643,1,0,3:0:0:0:
192,192,23643,1,4,0:0:0:0:
448,192,23643,1,2,0:0:0:0:
192,192,24018,1,0,0:0:0:0:
448,192,24393,1,0,3:0:0:0:
320,192,24393,1,0,0:0:0:0:
64,192,24768,1,0,0:0:0:0:
192,192,25018,1,0,0:0:0:0:
320,192,25143,1,0,3:0:0:0:
448,192,25143,1,0,0:0:0:0:
64,192,25518,1,0,0:0:0:0:
320,192,25893,1,0,0:0:0:0:
192,192,25893,1,0,3:0:0:0:
448,192,26080,1,0,0:0:0:0:
192,192,26268,1,0,0:0:0:0:
320,192,26455,1,0,0:0:0:0:
64,192,26643,1,0,3:0:0:0:
448,192,26643,1,0,0:0:0:0:
192,192,26830,1,0,0:0:0:0:
320,192,27018,1,0,3:0:0:0:
64,192,27018,1,0,0:0:0:0:
448,192,27205,1,0,0:0:0:0:
320,192,27393,1,0,0:0:0:0:
192,192,27393,1,0,3:0:0:0:
64,192,27580,1,0,0:0:0:0:
320,192,27768,1,0,0:0:0:0:
192,192,27768,1,0,3:0:0:0:
448,192,27955,1,0,0:0:0:0:
320,192,28143,1,0,3:0:0:0:
64,192,28143,1,0,0:0:0:0:
192,192,28268,1,0,0:0:0:0:
320,192,28518,1,0,3:0:0:0:
448,192,28518,1,0,0:0:0:0:
192,192,28643,1,0,0:0:0:0:
320,192,28799,1,0,0:0:0:0:
64,192,28799,1,0,3:0:0:0:
192,192,28893,1,0,3:0:0:0:
448,192,28893,1,0,0:0:0:0:
320,192,29082,1,0,3:0:0:0:
192,192,29082,1,0,0:0:0:0:
64,192,29272,1,2,0:0:0:0:
192,192,29272,1,0,3:0:0:0:
448,192,29462,1,0,0:0:0:0:
320,192,29462,1,0,3:0:0:0:
192,192,29652,1,0,0:0:0:0:
64,192,29652,1,0,3:0:0:0:
448,192,29652,1,0,0:0:0:0:
448,192,29845,1,0,3:0:0:0:
64,192,29845,1,0,0:0:0:0:
320,192,29845,128,4,30426:0:0:0:0:
192,192,30039,1,0,0:0:0:0:
64,192,30135,1,0,0:0:0:0:
448,192,30232,1,0,0:0:0:0:
192,192,30329,1,0,0:0:0:0:
64,192,30426,1,0,0:0:0:0:
448,192,30522,1,0,0:0:0:0:
64,192,30619,1,0,0:0:0:0:
192,192,30668,1,0,0:0:0:0:
320,192,30716,1,0,0:0:0:0:
448,192,30764,1,0,0:0:0:0:
64,192,30813,1,0,0:0:0:0:
192,192,30910,1,0,0:0:0:0:
320,192,31006,1,0,0:0:0:0:
448,192,31200,1,0,3:0:0:0:
320,192,31200,1,2,0:0:0:0:
64,192,31200,1,0,0:0:0:0:
64,192,31393,1,0,3:0:0:0:
448,192,31393,1,0,0:0:0:0:
192,192,31393,128,4,31974:0:0:0:0:
320,192,31587,1,0,0:0:0:0:
448,192,31684,1,0,0:0:0:0:
64,192,31781,1,0,0:0:0:0:
320,192,31877,1,0,0:0:0:0:
448,192,31974,1,0,0:0:0:0:
64,192,32071,1,0,0:0:0:0:
448,192,32168,1,0,0:0:0:0:
320,192,32216,1,0,0:0:0:0:
192,192,32264,1,0,0:0:0:0:
64,192,32313,1,0,0:0:0:0:
448,192,32361,1,0,0:0:0:0:
320,192,32458,1,0,0:0:0:0:
192,192,32555,1,0,0:0:0:0:
64,192,32748,1,0,0:0:0:0:
320,192,32748,1,4,0:0:0:0:
448,192,32748,1,0,3:0:0:0:
320,192,32939,1,8,3:0:0:0:
448,192,33130,1,0,0:0:0:0:
192,192,33130,1,0,0:0:0:0:
64,192,33130,1,2,3:0:0:0:
192,192,33321,1,8,3:0:0:0:
320,192,33512,1,0,3:0:0:0:
448,192,33512,1,0,0:0:0:0:
320,192,33703,1,8,3:0:0:0:
64,192,33894,1,2,3:0:0:0:
192,192,33894,1,0,0:0:0:0:
448,192,33894,1,0,0:0:0:0:
320,192,34085,1,0,3:0:0:0:
192,192,34085,1,0,0:0:0:0:
448,192,34276,1,0,3:0:0:0:
320,192,34276,1,0,0:0:0:0:
64,192,34467,1,8,3:0:0:0:
192,192,34658,1,0,0:0:0:0:
320,192,34658,1,0,0:0:0:0:
448,192,34658,1,2,3:0:0:0:
64,192,34849,1,8,3:0:0:0:
192,192,34945,1,0,3:0:0:0:
320,192,34945,1,0,0:0:0:0:
448,192,35040,1,0,3:0:0:0:
64,192,35040,1,0,0:0:0:0:
448,192,35232,1,0,0:0:0:0:
320,192,35232,1,0,3:0:0:0:
64,192,35423,1,0,0:0:0:0:
320,192,35423,1,2,3:0:0:0:
192,192,35423,1,0,0:0:0:0:
192,192,35614,1,8,3:0:0:0:
448,192,35805,1,0,3:0:0:0:
320,192,35805,1,0,0:0:0:0:
64,192,35996,1,8,3:0:0:0:
192,192,35996,128,0,36378:0:0:0:0:
320,192,36187,1,0,0:0:0:0:
448,192,36187,1,2,3:0:0:0:
448,192,36378,1,0,0:0:0:0:
320,192,36442,1,0,0:0:0:0:
192,192,36505,1,0,0:0:0:0:
64,192,36569,1,0,0:0:0:0:
448,192,36569,1,0,3:0:0:0:
192,192,36760,1,8,3:0:0:0:
320,192,36760,128,0,37142:0:0:0:0:
192,192,36951,1,0,0:0:0:0:
64,192,36951,1,2,3:0:0:0:
448,192,37142,1,8,3:0:0:0:
64,192,37333,1,0,3:0:0:0:
320,192,37333,1,0,0:0:0:0:
192,192,37525,128,0,37907:0:0:0:0:
64,192,37525,1,8,3:0:0:0:
320,192,37716,1,0,0:0:0:0:
448,192,37716,1,2,3:0:0:0:
64,192,37907,1,0,0:0:0:0:
192,192,37970,1,0,0:0:0:0:
320,192,38034,1,0,0:0:0:0:
448,192,38098,1,0,3:0:0:0:
64,192,38098,1,0,0:0:0:0:
320,192,38289,1,0,3:0:0:0:
448,192,38289,1,0,0:0:0:0:
192,192,38384,1,0,3:0:0:0:
64,192,38384,1,0,0:0:0:0:
320,192,38480,1,0,3:0:0:0:
448,192,38480,1,0,0:0:0:0:
192,192,38576,1,0,3:0:0:0:
64,192,38576,1,0,0:0:0:0:
320,192,38671,1,0,3:0:0:0:
448,192,38671,1,0,0:0:0:0:
192,192,38767,1,0,3:0:0:0:
64,192,38767,1,0,0:0:0:0:
320,192,38862,1,0,3:0:0:0:
448,192,38862,1,4,0:0:0:0:
320,192,39053,1,8,3:0:0:0:
192,192,39053,128,0,39626:0:0:0:0:
64,192,39244,1,0,0:0:0:0:
448,192,39244,1,0,3:0:0:0:
320,192,39435,1,8,3:0:0:0:
448,192,39626,1,0,0:0:0:0:
320,192,39626,1,0,3:0:0:0:
64,192,39818,1,0,0:0:0:0:
320,192,39818,1,8,3:0:0:0:
192,192,40009,1,0,0:0:0:0:
448,192,40009,1,0,3:0:0:0:
192,192,40200,1,0,0:0:0:0:
64,192,40200,1,8,3:0:0:0:
320,192,40391,1,2,3:0:0:0:
448,192,40391,1,0,3:0:0:0:
192,192,40518,1,2,3:0:0:0:
64,192,40518,1,0,3:0:0:0:
192,192,40646,1,2,3:0:0:0:
64,192,40646,1,0,3:0:0:0:
320,192,40773,1,2,3:0:0:0:
192,192,40773,1,0,3:0:0:0:
448,192,40900,1,2,3:0:0:0:
320,192,40900,1,0,3:0:0:0:
448,192,41028,1,0,3:0:0:0:
320,192,41028,1,2,3:0:0:0:
192,192,41155,1,0,3:0:0:0:
64,192,41155,1,2,3:0:0:0:
320,192,41283,1,2,3:0:0:0:
192,192,41283,1,0,3:0:0:0:
320,192,41410,1,2,3:0:0:0:
192,192,41410,1,0,3:0:0:0:
64,192,41537,1,0,3:0:0:0:
192,192,41601,1,0,3:0:0:0:
320,192,41665,1,0,3:0:0:0:
448,192,41728,1,0,3:0:0:0:
192,192,41792,1,0,3:0:0:0:
320,192,41856,1,0,3:0:0:0:
64,192,41919,1,8,3:0:0:0:
448,192,41919,1,2,0:0:0:0:
192,192,42012,1,0,0:0:0:0:
320,192,42106,1,0,0:0:0:0:
192,192,42200,1,0,0:0:0:0:
448,192,42294,1,8,3:0:0:0:
64,192,42294,1,2,0:0:0:0:
192,192,42387,1,0,0:0:0:0:
320,192,42481,1,0,0:0:0:0:
192,192,42575,1,0,0:0:0:0:
64,192,42669,1,8,3:0:0:0:
448,192,42669,1,2,0:0:0:0:
192,192,42762,1,0,0:0:0:0:
320,192,42856,1,0,0:0:0:0:
192,192,42950,1,0,0:0:0:0:
448,192,43044,1,8,3:0:0:0:
64,192,43044,1,2,0:0:0:0:
192,192,43137,1,0,0:0:0:0:
320,192,43231,1,0,0:0:0:0:
192,192,43325,1,0,0:0:0:0:
64,192,43419,1,8,3:0:0:0:
448,192,43419,1,2,0:0:0:0:
320,192,43512,1,0,0:0:0:0:
192,192,43606,1,0,0:0:0:0:
320,192,43700,1,0,0:0:0:0:
448,192,43794,1,8,3:0:0:0:
64,192,43794,1,2,0:0:0:0:
320,192,43887,1,0,0:0:0:0:
192,192,43981,1,0,0:0:0:0:
320,192,44075,1,0,0:0:0:0:
448,192,44169,1,2,0:0:0:0:
64,192,44169,1,8,3:0:0:0:
320,192,44262,1,0,0:0:0:0:
192,192,44309,1,0,0:0:0:0:
64,192,44356,1,0,0:0:0:0:
448,192,44403,1,0,0:0:0:0:
320,192,44450,1,0,0:0:0:0:
192,192,44497,1,0,0:0:0:0:
320,192,44544,1,2,3:0:0:0:
64,192,44544,1,0,0:0:0:0:
448,192,44544,1,0,3:0:0:0:
64,192,44919,1,2,0:0:0:0:
320,192,44919,1,4,0:0:0:0:
448,192,44919,1,0,3:0:0:0:
192,192,45100,1,0,0:0:0:0:
64,192,45100,1,8,3:0:0:0:
320,192,45191,1,0,0:0:0:0:
448,192,45191,1,8,3:0:0:0:
192,192,45373,1,0,0:0:0:0:
320,192,45373,1,8,3:0:0:0:
192,192,45555,1,8,3:0:0:0:
64,192,45555,1,0,0:0:0:0:
448,192,45737,1,8,3:0:0:0:
320,192,45737,1,0,0:0:0:0:
192,192,45919,1,0,0:0:0:0:
320,192,45919,1,8,3:0:0:0:
448,192,46009,1,0,3:0:0:0:
64,192,46009,1,0,0:0:0:0:
192,192,46191,1,8,3:0:0:0:
320,192,46191,1,0,0:0:0:0:
448,192,46373,1,0,3:0:0:0:
320,192,46373,1,4,0:0:0:0:
64,192,46373,1,2,0:0:0:0:
192,192,46555,1,8,3:0:0:0:
64,192,46555,1,0,0:0:0:0:
320,192,46646,1,8,3:0:0:0:
448,192,46646,1,0,0:0:0:0:
192,192,46828,1,0,0:0:0:0:
320,192,46828,1,8,3:0:0:0:
192,192,47009,1,0,0:0:0:0:
64,192,47009,1,8,3:0:0:0:
448,192,47191,1,0,0:0:0:0:
320,192,47191,1,8,3:0:0:0:
64,192,47373,1,0,0:0:0:0:
192,192,47373,1,8,3:0:0:0:
320,192,47464,1,0,0:0:0:0:
448,192,47464,1,0,3:0:0:0:
320,192,47646,1,8,3:0:0:0:
192,192,47646,1,0,0:0:0:0:
64,192,47828,1,4,0:0:0:0:
192,192,47828,1,0,3:0:0:0:
448,192,47828,1,2,0:0:0:0:
320,192,48009,1,8,3:0:0:0:
448,192,48009,1,0,0:0:0:0:
192,192,48100,1,8,3:0:0:0:
64,192,48100,1,0,0:0:0:0:
448,192,48282,1,0,0:0:0:0:
320,192,48282,1,8,3:0:0:0:
320,192,48464,1,8,3:0:0:0:
192,192,48464,1,0,0:0:0:0:
192,192,48646,1,8,3:0:0:0:
64,192,48646,1,0,0:0:0:0:
448,192,48828,1,8,3:0:0:0:
64,192,48828,1,0,0:0:0:0:
192,192,48919,1,0,0:0:0:0:
320,192,48919,1,0,3:0:0:0:
448,192,49100,1,8,3:0:0:0:
320,192,49100,1,0,0:0:0:0:
64,192,49282,1,2,0:0:0:0:
192,192,49282,1,4,0:0:0:0:
448,192,49282,1,0,3:0:0:0:
320,192,49464,1,8,3:0:0:0:
192,192,49646,1,0,3:0:0:0:
448,192,49646,1,0,0:0:0:0:
64,192,49828,1,0,0:0:0:0:
448,192,49888,1,0,0:0:0:0:
320,192,49949,1,0,0:0:0:0:
192,192,50009,1,0,3:0:0:0:
64,192,50009,1,0,0:0:0:0:
448,192,50191,1,8,3:0:0:0:
320,192,50373,1,0,3:0:0:0:
192,192,50373,1,0,0:0:0:0:
64,192,50555,1,8,3:0:0:0:
448,192,50737,1,0,3:0:0:0:
320,192,50737,1,2,0:0:0:0:
192,192,50919,1,0,3:0:0:0:
64,192,50919,1,2,0:0:0:0:
64,192,51100,1,4,0:0:0:0:
448,192,51100,1,2,3:0:0:0:
320,192,51100,128,0,51464:0:0:0:0:
192,192,51464,1,2,0:0:0:0:
64,192,51464,1,0,3:0:0:0:
320,192,51646,1,0,3:0:0:0:
448,192,51646,1,2,0:0:0:0:
64,192,51828,1,4,0:0:0:0:
448,192,51828,1,2,3:0:0:0:
192,192,51828,128,0,52191:0:0:0:0:
448,192,52191,1,0,3:0:0:0:
320,192,52191,1,2,0:0:0:0:
320,192,52373,1,0,3:0:0:0:
192,192,52373,1,2,0:0:0:0:
64,192,52555,1,2,3:0:0:0:
192,192,52555,1,4,0:0:0:0:
448,192,52555,128,0,52919:0:0:0:0:
320,192,52919,1,0,3:0:0:0:
192,192,52919,1,2,0:0:0:0:
192,192,53100,1,2,0:0:0:0:
64,192,53100,1,0,3:0:0:0:
320,192,53282,1,2,3:0:0:0:
448,192,53282,1,4,0:0:0:0:
64,192,53282,128,0,53646:0:0:0:0:
192,192,53646,1,0,3:0:0:0:
320,192,53646,1,2,0:0:0:0:
448,192,53828,1,0,3:0:0:0:
320,192,53828,1,2,0:0:0:0:
64,192,54009,1,4,0:0:0:0:
448,192,54009,1,2,3:0:0:0:
192,192,54009,128,0,54373:0:0:0:0:
448,192,54373,1,0,0:0:0:0:
320,192,54373,1,0,3:0:0:0:
320,192,54555,1,0,3:0:0:0:
192,192,54555,1,0,0:0:0:0:
192,192,54737,1,0,3:0:0:0:
64,192,54737,1,0,0:0:0:0:
448,192,54919,1,0,0:0:0:0:
320,192,54919,1,0,3:0:0:0:
192,192,55100,1,0,0:0:0:0:
64,192,55100,1,0,3:0:0:0:
320,192,55400,1,8,3:0:0:0:
192,192,55400,1,0,0:0:0:0:
448,192,55500,1,8,3:0:0:0:
64,192,55500,1,0,0:0:0:0:
64,192,55700,1,0,0:0:0:0:
192,192,55700,1,8,3:0:0:0:
64,192,55900,1,0,0:0:0:0:
320,192,55900,1,8,3:0:0:0:
192,192,56106,1,0,0:0:0:0:
448,192,56106,1,8,3:0:0:0:
320,192,56313,1,8,3:0:0:0:
448,192,56313,1,0,0:0:0:0:
64,192,56535,1,8,3:0:0:0:
192,192,56535,1,0,0:0:0:0:
448,192,56757,1,8,3:0:0:0:
320,192,56757,1,4,0:0:0:0:
64,192,56757,1,2,0:0:0:0:
448,192,57337,1,2,0:0:0:0:
192,192,57337,1,0,0:0:0:0:
320,192,57531,1,2,0:0:0:0:
64,192,57531,1,0,0:0:0:0:
64,192,58093,1,2,0:0:0:0:
192,192,58093,1,0,0:0:0:0:
448,192,58281,1,0,0:0:0:0:
320,192,58281,1,2,0:0:0:0:
320,192,58836,1,0,0:0:0:0:
64,192,58836,1,2,0:0:0:0:
192,192,59021,1,2,0:0:0:0:
448,192,59021,1,0,0:0:0:0:
64,192,59392,1,0,3:0:0:0:
192,192,59392,1,0,0:0:0:0:
320,192,59577,1,0,0:0:0:0:
448,192,59577,1,2,0:0:0:0:
192,192,59762,1,0,0:0:0:0:
64,192,59762,1,4,0:0:0:0:
448,192,59762,1,2,0:0:0:0:
320,192,60310,1,2,0:0:0:0:
192,192,60310,1,0,0:0:0:0:
448,192,60493,1,2,0:0:0:0:
64,192,60493,1,0,3:0:0:0:
320,192,60768,1,0,0:0:0:0:
448,192,60859,1,0,0:0:0:0:
320,192,60951,1,0,0:0:0:0:
448,192,61042,1,0,0:0:0:0:
192,192,61042,1,2,0:0:0:0:
64,192,61225,1,0,3:0:0:0:
320,192,61225,1,2,0:0:0:0:
192,192,61406,1,0,0:0:0:0:
320,192,61467,1,0,0:0:0:0:
448,192,61528,1,0,0:0:0:0:
192,192,61588,1,0,0:0:0:0:
64,192,61588,1,0,3:0:0:0:
320,192,61649,1,0,0:0:0:0:
448,192,61709,1,0,0:0:0:0:
192,192,61770,1,0,0:0:0:0:
64,192,61831,1,0,0:0:0:0:
192,192,61891,1,0,0:0:0:0:
320,192,61952,1,2,0:0:0:0:
448,192,61952,1,0,3:0:0:0:
192,192,62134,1,0,0:0:0:0:
64,192,62134,1,0,3:0:0:0:
320,192,62315,1,0,3:0:0:0:
448,192,62315,1,0,0:0:0:0:
192,192,62406,1,0,3:0:0:0:
64,192,62406,1,0,0:0:0:0:
448,192,62497,1,0,0:0:0:0:
320,192,62497,1,0,3:0:0:0:
192,192,62588,1,0,3:0:0:0:
64,192,62588,1,0,0:0:0:0:
448,192,62679,1,2,3:0:0:0:
320,192,62679,1,4,0:0:0:0:
64,192,62679,1,2,0:0:0:0:
320,192,63225,1,0,0:0:0:0:
192,192,63225,1,2,0:0:0:0:
64,192,63406,1,2,3:0:0:0:
320,192,63406,1,0,0:0:0:0:
448,192,63406,1,4,0:0:0:0:
192,192,63948,1,0,0:0:0:0:
320,192,63948,1,2,0:0:0:0:
64,192,64128,1,2,3:0:0:0:
192,192,64128,1,0,0:0:0:0:
448,192,64128,1,4,0:0:0:0:
64,192,64487,1,0,0:0:0:0:
320,192,64487,1,4,0:0:0:0:
448,192,64487,1,2,3:0:0:0:
192,192,64846,1,4,0:0:0:0:
320,192,64846,1,2,3:0:0:0:
448,192,64846,1,0,0:0:0:0:
64,192,65203,1,4,0:0:0:0:
192,192,65203,1,2,3:0:0:0:
320,192,65203,1,0,0:0:0:0:
448,192,65558,1,2,3:0:0:0:
64,192,65558,1,0,0:0:0:0:
320,192,65646,1,0,0:0:0:0:
192,192,65734,1,0,0:0:0:0:
320,192,65822,1,0,0:0:0:0:
64,192,65910,1,2,3:0:0:0:
448,192,65910,1,0,0:0:0:0:
192,192,65999,1,0,0:0:0:0:
320,192,66087,1,0,0:0:0:0:
192,192,66175,1,0,0:0:0:0:
448,192,66263,1,2,3:0:0:0:
64,192,66263,1,0,0:0:0:0:
320,192,66352,1,0,0:0:0:0:
192,192,66440,1,0,0:0:0:0:
320,192,66528,1,0,0:0:0:0:
64,192,66616,1,2,3:0:0:0:
448,192,66616,1,0,0:0:0:0:
192,192,66705,1,0,0:0:0:0:
320,192,66793,1,0,0:0:0:0:
192,192,66881,1,0,0:0:0:0:
448,192,66969,1,2,3:0:0:0:
64,192,66969,1,0,0:0:0:0:
320,192,67058,1,0,0:0:0:0:
192,192,67146,1,0,0:0:0:0:
64,192,67146,1,0,3:0:0:0:
448,192,67234,1,0,0:0:0:0:
320,192,67322,1,2,3:0:0:0:
192,192,67322,1,0,3:0:0:0:
64,192,67410,1,0,0:0:0:0:
320,192,67499,1,0,0:0:0:0:
448,192,67499,1,0,3:0:0:0:
192,192,67587,1,0,0:0:0:0:
64,192,67675,1,0,3:0:0:0:
448,192,67675,1,2,3:0:0:0:
320,192,67763,1,0,0:0:0:0:
192,192,67852,1,0,3:0:0:0:
64,192,67852,1,0,0:0:0:0:
320,192,67940,1,0,3:0:0:0:
448,192,67940,1,0,0:0:0:0:
192,192,68028,1,0,3:0:0:0:
64,192,68028,1,0,0:0:0:0:
320,192,68116,1,0,3:0:0:0:
448,192,68116,1,0,0:0:0:0:
192,192,68205,1,0,3:0:0:0:
64,192,68205,1,0,0:0:0:0:
320,192,68293,1,0,3:0:0:0:
448,192,68293,1,0,0:0:0:0:
64,192,68381,1,2,3:0:0:0:
192,192,68381,1,4,0:0:0:0:
448,192,68381,1,2,0:0:0:0:
64,192,68744,1,2,3:0:0:0:
192,192,68744,1,0,0:0:0:0:
448,192,68744,1,8,3:0:0:0:
320,192,68926,1,8,3:0:0:0:
192,192,68926,1,0,0:0:0:0:
64,192,69108,1,0,3:0:0:0:
320,192,69108,1,0,0:0:0:0:
448,192,69290,1,8,3:0:0:0:
64,192,69471,1,2,3:0:0:0:
192,192,69471,1,0,0:0:0:0:
320,192,69471,1,8,3:0:0:0:
448,192,69653,1,8,3:0:0:0:
192,192,69653,1,0,0:0:0:0:
320,192,69835,1,0,0:0:0:0:
64,192,69835,1,0,3:0:0:0:
448,192,70017,1,8,3:0:0:0:
320,192,70199,1,0,3:0:0:0:
192,192,70199,1,0,0:0:0:0:
64,192,70381,1,8,3:0:0:0:
320,192,70562,1,0,0:0:0:0:
448,192,70562,1,0,3:0:0:0:
192,192,70744,1,8,3:0:0:0:
320,192,70926,1,0,3:0:0:0:
64,192,70926,1,0,0:0:0:0:
192,192,71108,1,0,3:0:0:0:
448,192,71108,1,0,0:0:0:0:
320,192,71199,1,0,0:0:0:0:
64,192,71199,1,0,3:0:0:0:
448,192,71290,1,0,0:0:0:0:
192,192,71290,1,0,3:0:0:0:
192,192,71471,1,8,3:0:0:0:
320,192,71653,1,0,3:0:0:0:
64,192,71653,1,0,0:0:0:0:
192,192,71835,1,8,3:0:0:0:
320,192,72017,1,0,3:0:0:0:
448,192,72017,1,0,0:0:0:0:
64,192,72199,1,8,3:0:0:0:
192,192,72381,1,0,3:0:0:0:
448,192,72381,1,0,0:0:0:0:
320,192,72471,1,0,0:0:0:0:
192,192,72562,1,0,0:0:0:0:
64,192,72653,1,0,0:0:0:0:
448,192,72744,1,0,3:0:0:0:
320,192,72744,128,4,73466:0:0:0:0:
192,192,72924,1,8,3:0:0:0:
64,192,73105,1,0,0:0:0:0:
448,192,73105,1,2,3:0:0:0:
192,192,73286,1,0,0:0:0:0:
64,192,73376,1,0,0:0:0:0:
448,192,73466,1,0,3:0:0:0:
192,192,73466,128,4,74184:0:0:0:0:
320,192,73645,1,8,3:0:0:0:
64,192,73825,1,0,0:0:0:0:
448,192,73825,1,2,3:0:0:0:
320,192,74004,1,0,0:0:0:0:
448,192,74094,1,0,0:0:0:0:
320,192,74184,1,0,3:0:0:0:
64,192,74184,128,4,74898:0:0:0:0:
448,192,74362,1,8,3:0:0:0:
192,192,74541,1,2,3:0:0:0:
320,192,74541,1,0,0:0:0:0:
448,192,74719,1,0,0:0:0:0:
320,192,74809,1,0,0:0:0:0:
448,192,74898,1,0,3:0:0:0:
192,192,74898,1,4,0:0:0:0:
320,192,75075,1,0,0:0:0:0:
64,192,75075,1,8,3:0:0:0:
448,192,75253,1,0,0:0:0:0:
192,192,75253,1,2,3:0:0:0:
320,192,75430,1,8,3:0:0:0:
64,192,75430,1,0,0:0:0:0:
64,192,75608,1,2,3:0:0:0:
192,192,75608,1,0,0:0:0:0:
192,192,75725,1,2,3:0:0:0:
320,192,75725,1,0,0:0:0:0:
320,192,75843,1,2,3:0:0:0:
448,192,75843,1,0,0:0:0:0:
64,192,75960,1,0,0:0:0:0:
192,192,75960,1,2,3:0:0:0:
192,192,76081,1,0,0:0:0:0:
320,192,76081,1,2,3:0:0:0:
320,192,76202,1,0,0:0:0:0:
448,192,76202,1,2,3:0:0:0:
64,192,76323,1,2,3:0:0:0:
192,192,76323,1,0,0:0:0:0:
192,192,76448,1,2,3:0:0:0:
320,192,76448,1,0,0:0:0:0:
320,192,76573,1,2,3:0:0:0:
448,192,76573,1,0,0:0:0:0:
64,192,76698,1,0,0:0:0:0:
192,192,76698,1,2,3:0:0:0:
192,192,76827,1,0,0:0:0:0:
320,192,76827,1,2,3:0:0:0:
320,192,76956,1,0,0:0:0:0:
448,192,76956,1,2,3:0:0:0:
64,192,77085,1,2,0:0:0:0:
192,192,77085,1,2,3:0:0:0:
320,192,77536,1,2,3:0:0:0:
192,192,77536,1,0,3:0:0:0:
64,192,77536,1,4,0:0:0:0:
448,192,77536,1,2,0:0:0:0:
64,192,78212,1,2,0:0:0:0:
192,192,78438,1,2,0:0:0:0:
320,192,78663,1,2,0:0:0:0:
448,192,78889,1,2,0:0:0:0:
192,192,79350,1,2,0:0:0:0:
64,192,79812,1,2,0:0:0:0:
192,192,79886,1,0,0:0:0:0:
320,192,79960,1,0,0:0:0:0:
448,192,80034,1,0,0:0:0:0:
192,192,80108,1,0,0:0:0:0:
320,192,80182,1,0,0:0:0:0:
64,192,80256,1,0,0:0:0:0:
192,192,80330,1,0,0:0:0:0:
320,192,80404,1,0,0:0:0:0:
448,192,80478,1,0,0:0:0:0:
320,192,80552,1,0,0:0:0:0:
192,192,80626,1,0,0:0:0:0:
64,192,80700,1,0,0:0:0:0:
448,192,80700,1,2,0:0:0:0:
320,192,80818,1,0,0:0:0:0:
192,192,80936,1,0,0:0:0:0:
64,192,81093,1,0,0:0:0:0:
320,192,81172,1,2,0:0:0:0:
448,192,81172,1,0,0:0:0:0:
192,192,81303,1,0,0:0:0:0:
64,192,81435,1,0,0:0:0:0:
192,192,81500,1,0,0:0:0:0:
320,192,81566,1,0,0:0:0:0:
448,192,81698,1,2,3:0:0:0:
192,192,81698,1,0,0:0:0:0:
64,192,81788,1,0,0:0:0:0:
320,192,81879,1,0,0:0:0:0:
192,192,81970,1,0,0:0:0:0:
448,192,82061,1,0,3:0:0:0:
64,192,82061,1,0,0:0:0:0:
320,192,82151,1,0,0:0:0:0:
192,192,82241,1,0,0:0:0:0:
320,192,82332,1,0,0:0:0:0:
64,192,82422,1,0,3:0:0:0:
192,192,82422,1,0,0:0:0:0:
448,192,82511,1,0,0:0:0:0:
64,192,82601,1,0,0:0:0:0:
320,192,82691,1,0,0:0:0:0:
192,192,82781,1,0,0:0:0:0:
448,192,82781,1,2,3:0:0:0:
64,192,82871,1,0,0:0:0:0:
448,192,82962,1,0,0:0:0:0:
320,192,83008,1,0,0:0:0:0:
192,192,83053,1,0,0:0:0:0:
64,192,83099,1,0,0:0:0:0:
448,192,83144,1,4,0:0:0:0:
320,192,83144,1,0,0:0:0:0:
192,192,83232,1,0,0:0:0:0:
64,192,83320,1,0,0:0:0:0:
448,192,83408,1,0,0:0:0:0:
320,192,83496,1,2,3:0:0:0:
192,192,83496,1,0,0:0:0:0:
64,192,83585,1,0,0:0:0:0:
448,192,83673,1,0,0:0:0:0:
320,192,83761,1,0,0:0:0:0:
192,192,83849,1,0,0:0:0:0:
64,192,83849,1,0,3:0:0:0:
448,192,83938,1,0,0:0:0:0:
64,192,84026,1,0,0:0:0:0:
192,192,84114,1,0,0:0:0:0:
320,192,84202,1,0,0:0:0:0:
448,192,84202,1,2,3:0:0:0:
64,192,84291,1,0,0:0:0:0:
192,192,84379,1,0,0:0:0:0:
448,192,84467,1,0,0:0:0:0:
320,192,84555,1,0,0:0:0:0:
192,192,84555,1,0,3:0:0:0:
64,192,84644,1,0,0:0:0:0:
320,192,84732,1,0,0:0:0:0:
448,192,84820,1,0,0:0:0:0:
192,192,84908,1,0,0:0:0:0:
64,192,84908,1,2,3:0:0:0:
320,192,84996,1,0,0:0:0:0:
448,192,85085,1,0,0:0:0:0:
64,192,85173,1,0,0:0:0:0:
192,192,85261,1,0,0:0:0:0:
320,192,85261,1,0,3:0:0:0:
64,192,85438,1,0,0:0:0:0:
192,192,85526,1,0,0:0:0:0:
320,192,85614,1,0,0:0:0:0:
448,192,85614,1,2,3:0:0:0:
64,192,85702,1,0,0:0:0:0:
448,192,85791,1,0,0:0:0:0:
320,192,85879,1,0,0:0:0:0:
192,192,85967,1,0,0:0:0:0:
64,192,85967,1,0,3:0:0:0:
448,192,86055,1,0,0:0:0:0:
320,192,86144,1,0,0:0:0:0:
192,192,86232,1,0,0:0:0:0:
64,192,86320,1,0,0:0:0:0:
448,192,86320,1,2,3:0:0:0:
320,192,86408,1,0,0:0:0:0:
192,192,86496,1,0,0:0:0:0:
320,192,86585,1,0,0:0:0:0:
448,192,86673,1,0,0:0:0:0:
192,192,86673,1,0,3:0:0:0:
64,192,86673,1,2,3:0:0:0:
320,192,86849,1,0,0:0:0:0:
192,192,86938,1,0,0:0:0:0:
64,192,87026,1,0,0:0:0:0:
448,192,87026,1,2,3:0:0:0:
320,192,87114,1,0,0:0:0:0:
192,192,87202,1,0,0:0:0:0:
320,192,87291,1,0,0:0:0:0:
448,192,87379,1,0,0:0:0:0:
64,192,87379,1,0,3:0:0:0:
192,192,87555,1,0,0:0:0:0:
320,192,87732,1,2,3:0:0:0:
448,192,87732,1,0,3:0:0:0:
64,192,87732,1,4,0:0:0:0:
192,192,87908,1,8,3:0:0:0:
320,192,88085,1,0,3:0:0:0:
64,192,88085,1,0,0:0:0:0:
448,192,88261,1,8,3:0:0:0:
320,192,88438,1,0,3:0:0:0:
192,192,88438,1,0,0:0:0:0:
64,192,88526,1,0,0:0:0:0:
448,192,88614,1,0,3:0:0:0:
320,192,88614,1,0,0:0:0:0:
192,192,88702,1,0,0:0:0:0:
448,192,88791,1,4,0:0:0:0:
64,192,88791,1,2,0:0:0:0:
320,192,88791,1,0,3:0:0:0:
192,192,88879,1,0,0:0:0:0:
320,192,88967,1,0,0:0:0:0:
192,192,89055,1,0,0:0:0:0:
64,192,89144,1,0,0:0:0:0:
448,192,89144,1,2,3:0:0:0:
320,192,89232,1,0,0:0:0:0:
192,192,89320,1,0,0:0:0:0:
320,192,89408,1,0,0:0:0:0:
448,192,89496,1,0,3:0:0:0:
64,192,89496,1,0,0:0:0:0:
192,192,89585,1,0,0:0:0:0:
320,192,89673,1,0,0:0:0:0:
192,192,89761,1,0,0:0:0:0:
448,192,89849,1,0,0:0:0:0:
64,192,89849,1,2,3:0:0:0:
320,192,89938,1,0,0:0:0:0:
192,192,90026,1,0,0:0:0:0:
320,192,90114,1,0,0:0:0:0:
448,192,90202,1,0,3:0:0:0:
64,192,90202,1,0,0:0:0:0:
320,192,90291,1,0,0:0:0:0:
192,192,90379,1,0,0:0:0:0:
64,192,90467,1,0,0:0:0:0:
320,192,90555,1,2,3:0:0:0:
448,192,90555,1,0,0:0:0:0:
192,192,90644,1,0,0:0:0:0:
320,192,90732,1,0,0:0:0:0:
192,192,90820,1,0,0:0:0:0:
448,192,90908,1,0,0:0:0:0:
64,192,90908,1,0,3:0:0:0:
320,192,90996,1,0,0:0:0:0:
192,192,91085,1,0,0:0:0:0:
320,192,91173,1,0,0:0:0:0:
64,192,91261,1,0,0:0:0:0:
448,192,91261,1,2,3:0:0:0:
320,192,91438,1,8,3:0:0:0:
64,192,91614,1,2,0:0:0:0:
192,192,91614,1,0,3:0:0:0:
448,192,91791,1,0,3:0:0:0:
320,192,91791,1,2,0:0:0:0:
64,192,91967,1,2,3:0:0:0:
192,192,91967,1,4,0:0:0:0:
448,192,91967,1,0,0:0:0:0:
192,192,92144,1,8,3:0:0:0:
448,192,92320,1,0,3:0:0:0:
320,192,92320,1,2,0:0:0:0:
64,192,92496,1,0,3:0:0:0:
192,192,92496,1,2,0:0:0:0:
64,192,92673,1,0,0:0:0:0:
320,192,92673,1,2,3:0:0:0:
448,192,92673,1,4,0:0:0:0:
320,192,92849,1,8,3:0:0:0:
64,192,93026,1,2,0:0:0:0:
192,192,93026,1,0,3:0:0:0:
320,192,93202,1,2,0:0:0:0:
448,192,93202,1,0,3:0:0:0:
64,192,93379,1,2,3:0:0:0:
192,192,93379,1,4,0:0:0:0:
320,192,93379,1,0,0:0:0:0:
192,192,93555,1,8,3:0:0:0:
448,192,93732,1,0,3:0:0:0:
320,192,93732,1,2,0:0:0:0:
64,192,93908,1,2,0:0:0:0:
192,192,93908,1,0,3:0:0:0:
448,192,94085,1,2,3:0:0:0:
320,192,94085,1,4,0:0:0:0:
192,192,94085,1,0,0:0:0:0:
320,192,94261,1,8,3:0:0:0:
64,192,94438,1,0,0:0:0:0:
448,192,94438,1,0,3:0:0:0:
192,192,94526,1,0,0:0:0:0:
320,192,94614,1,0,0:0:0:0:
448,192,94702,1,0,0:0:0:0:
320,192,94791,1,0,0:0:0:0:
64,192,94791,1,0,3:0:0:0:
192,192,94879,1,0,0:0:0:0:
448,192,94967,1,0,3:0:0:0:
320,192,95026,1,0,3:0:0:0:
192,192,95085,1,0,3:0:0:0:
64,192,95144,1,0,3:0:0:0:
448,192,95144,1,0,0:0:0:0:
192,192,95320,1,0,3:0:0:0:
64,192,95320,1,0,0:0:0:0:
320,192,95408,1,0,3:0:0:0:
448,192,95408,1,0,0:0:0:0:
192,192,95496,1,0,3:0:0:0:
64,192,95496,1,0,0:0:0:0:
320,192,95585,1,0,3:0:0:0:
448,192,95585,1,0,0:0:0:0:
192,192,95673,1,0,3:0:0:0:
64,192,95673,1,0,0:0:0:0:
320,192,95761,1,0,3:0:0:0:
448,192,95761,1,0,0:0:0:0:
64,192,95849,1,0,3:0:0:0:
192,192,95849,1,4,0:0:0:0:
448,192,95849,1,2,0:0:0:0:
320,192,96026,1,8,3:0:0:0:
64,192,96202,1,2,3:0:0:0:
448,192,96202,1,0,0:0:0:0:
320,192,96261,1,0,0:0:0:0:
192,192,96320,1,0,0:0:0:0:
64,192,96379,1,0,0:0:0:0:
448,192,96438,1,0,0:0:0:0:
320,192,96496,1,0,0:0:0:0:
64,192,96555,1,0,0:0:0:0:
192,192,96614,1,0,0:0:0:0:
320,192,96673,1,0,0:0:0:0:
448,192,96732,1,0,0:0:0:0:
192,192,96791,1,0,0:0:0:0:
320,192,96849,1,0,0:0:0:0:
64,192,96908,1,0,0:0:0:0:
448,192,96908,1,2,3:0:0:0:
320,192,97261,1,2,0:0:0:0:
192,192,97261,1,0,3:0:0:0:
64,192,97614,1,2,3:0:0:0:
448,192,97614,1,0,0:0:0:0:
192,192,97673,1,0,0:0:0:0:
320,192,97732,1,0,0:0:0:0:
448,192,97791,1,0,0:0:0:0:
64,192,97849,1,0,0:0:0:0:
192,192,97908,1,0,0:0:0:0:
448,192,97967,1,0,0:0:0:0:
320,192,98026,1,0,0:0:0:0:
192,192,98085,1,0,0:0:0:0:
64,192,98143,1,0,0:0:0:0:
320,192,98202,1,0,0:0:0:0:
192,192,98261,1,0,0:0:0:0:
448,192,98320,1,2,3:0:0:0:
64,192,98320,1,0,0:0:0:0:
192,192,98673,1,0,3:0:0:0:
320,192,98673,1,2,0:0:0:0:
64,192,99026,1,2,3:0:0:0:
448,192,99026,1,0,0:0:0:0:
320,192,99085,1,0,0:0:0:0:
192,192,99143,1,0,0:0:0:0:
64,192,99202,1,0,0:0:0:0:
448,192,99261,1,0,0:0:0:0:
320,192,99320,1,0,0:0:0:0:
64,192,99379,1,0,0:0:0:0:
192,192,99438,1,0,0:0:0:0:
320,192,99496,1,0,0:0:0:0:
448,192,99555,1,0,0:0:0:0:
192,192,99614,1,0,0:0:0:0:
320,192,99673,1,0,0:0:0:0:
448,192,99732,1,2,3:0:0:0:
64,192,99732,1,0,0:0:0:0:
192,192,99908,1,0,3:0:0:0:
320,192,99967,1,0,3:0:0:0:
448,192,100026,1,0,3:0:0:0:
192,192,100085,1,2,0:0:0:0:
64,192,100085,1,4,0:0:0:0:
320,192,100085,1,0,3:0:0:0:
320,192,100260,1,0,0:0:0:0:
192,192,100348,1,0,0:0:0:0:
448,192,100435,1,2,3:0:0:0:
320,192,100435,1,0,0:0:0:0:
64,192,100609,1,0,0:0:0:0:
192,192,100696,1,0,0:0:0:0:
320,192,100783,1,0,0:0:0:0:
64,192,100783,1,8,3:0:0:0:
448,192,100956,1,0,0:0:0:0:
320,192,100956,1,8,3:0:0:0:
192,192,101129,1,8,3:0:0:0:
448,192,101129,1,0,0:0:0:0:
320,192,101301,1,0,0:0:0:0:
64,192,101301,1,8,3:0:0:0:
192,192,101473,1,8,3:0:0:0:
64,192,101473,1,2,0:0:0:0:
448,192,101644,1,8,3:0:0:0:
192,192,101815,1,8,3:0:0:0:
64,192,101987,1,2,0:0:0:0:
320,192,101987,1,8,3:0:0:0:
192,192,102158,1,2,0:0:0:0:
448,192,102158,1,8,3:0:0:0:
320,192,102330,1,8,3:0:0:0:
64,192,102501,1,2,0:0:0:0:
192,192,102501,1,0,0:0:0:0:
320,192,102673,1,8,3:0:0:0:
192,192,102758,1,8,3:0:0:0:
448,192,102844,1,2,0:0:0:0:
64,192,102844,1,8,3:0:0:0:
320,192,103020,1,8,3:0:0:0:
64,192,103196,1,2,0:0:0:0:
192,192,103196,1,8,3:0:0:0:
448,192,103314,1,2,0:0:0:0:
320,192,103314,1,8,3:0:0:0:
192,192,103432,1,8,3:0:0:0:
64,192,103432,1,2,0:0:0:0:
320,192,103549,1,8,3:0:0:0:
448,192,103549,1,2,0:0:0:0:
192,192,103724,1,8,3:0:0:0:
320,192,103899,1,2,0:0:0:0:
64,192,103899,1,8,3:0:0:0:
448,192,104075,1,8,3:0:0:0:
64,192,104250,1,0,3:0:0:0:
192,192,104250,1,0,0:0:0:0:
320,192,104250,1,4,0:0:0:0:
320,192,104511,1,0,0:0:0:0:
448,192,104511,1,0,3:0:0:0:
192,192,104511,1,0,0:0:0:0:
192,192,104773,1,0,0:0:0:0:
64,192,104773,1,0,0:0:0:0:
448,192,104773,1,0,3:0:0:0:
448,192,104947,1,4,0:0:0:0:
320,192,104947,1,0,0:0:0:0:
64,192,104947,1,0,3:0:0:0:
192,192,105120,1,0,0:0:0:0:
320,192,105293,1,0,0:0:0:0:
64,192,105293,1,0,3:0:0:0:
448,192,105467,1,0,0:0:0:0:
64,192,105640,1,0,3:0:0:0:
192,192,105640,1,0,0:0:0:0:
320,192,105640,1,4,0:0:0:0:
448,192,105898,1,0,3:0:0:0:
320,192,105898,1,0,0:0:0:0:
192,192,105898,1,0,0:0:0:0:
64,192,106157,1,0,3:0:0:0:
192,192,106157,1,0,0:0:0:0:
448,192,106157,1,0,0:0:0:0:
64,192,106329,1,0,3:0:0:0:
320,192,106329,1,0,0:0:0:0:
448,192,106329,1,4,0:0:0:0:
192,192,106500,1,0,0:0:0:0:
320,192,106671,1,0,0:0:0:0:
64,192,106671,1,0,3:0:0:0:
448,192,106843,1,0,0:0:0:0:
320,192,106843,1,0,3:0:0:0:
192,192,106929,1,0,3:0:0:0:
64,192,106929,1,0,0:0:0:0:
320,192,107014,1,0,3:0:0:0:
448,192,107014,1,4,0:0:0:0:
64,192,107014,1,0,0:0:0:0:
64,192,107269,1,0,0:0:0:0:
192,192,107269,1,0,0:0:0:0:
448,192,107269,1,0,3:0:0:0:
64,192,107525,1,0,0:0:0:0:
192,192,107525,1,0,0:0:0:0:
320,192,107525,1,0,3:0:0:0:
448,192,107695,1,0,3:0:0:0:
192,192,107695,1,4,0:0:0:0:
320,192,107695,1,0,0:0:0:0:
64,192,107864,1,0,0:0:0:0:
192,192,108033,1,0,0:0:0:0:
320,192,108033,1,0,3:0:0:0:
448,192,108203,1,0,0:0:0:0:
64,192,108372,1,0,3:0:0:0:
192,192,108372,1,0,0:0:0:0:
320,192,108372,1,0,0:0:0:0:
320,192,108624,1,0,3:0:0:0:
448,192,108624,1,0,0:0:0:0:
192,192,108877,1,0,0:0:0:0:
64,192,108877,1,0,3:0:0:0:
448,192,108877,1,0,0:0:0:0:
64,192,109046,1,0,0:0:0:0:
320,192,109046,1,0,3:0:0:0:
448,192,109046,1,4,0:0:0:0:
192,192,109213,1,0,0:0:0:0:
320,192,109213,1,0,3:0:0:0:
192,192,109381,1,0,3:0:0:0:
64,192,109381,1,0,0:0:0:0:
448,192,109548,1,0,0:0:0:0:
320,192,109548,1,0,3:0:0:0:
192,192,109632,1,0,3:0:0:0:
64,192,109632,1,0,0:0:0:0:
448,192,109716,1,4,0:0:0:0:
320,192,109716,1,2,3:0:0:0:
64,192,109716,1,0,3:0:0:0:
64,192,109966,1,0,0:0:0:0:
192,192,109966,1,2,3:0:0:0:
448,192,109966,1,0,0:0:0:0:
448,192,110216,1,0,0:0:0:0:
320,192,110216,1,2,3:0:0:0:
192,192,110216,1,0,0:0:0:0:
64,192,110382,1,2,3:0:0:0:
192,192,110382,1,0,0:0:0:0:
320,192,110382,1,4,0:0:0:0:
448,192,110549,1,0,0:0:0:0:
320,192,110549,1,0,3:0:0:0:
192,192,110716,1,0,3:0:0:0:
64,192,110716,1,0,0:0:0:0:
320,192,110882,1,0,0:0:0:0:
192,192,111049,1,0,0:0:0:0:
448,192,111049,1,8,3:0:0:0:
192,192,111299,1,0,0:0:0:0:
320,192,111299,1,8,3:0:0:0:
64,192,111549,1,0,0:0:0:0:
448,192,111549,1,8,3:0:0:0:
320,192,111716,1,2,3:0:0:0:
64,192,111716,1,0,0:0:0:0:
192,192,111716,1,4,0:0:0:0:
320,192,111966,1,8,3:0:0:0:
192,192,111966,1,0,0:0:0:0:
64,192,112216,1,0,0:0:0:0:
448,192,112216,1,8,3:0:0:0:
192,192,112382,1,4,0:0:0:0:
320,192,112382,1,2,3:0:0:0:
448,192,112382,1,0,0:0:0:0:
64,192,112632,1,0,0:0:0:0:
320,192,112632,1,8,3:0:0:0:
448,192,112716,1,2,3:0:0:0:
192,192,112716,1,0,0:0:0:0:
64,192,112716,1,0,0:0:0:0:
320,192,112881,1,8,3:0:0:0:
192,192,112881,1,0,0:0:0:0:
448,192,113047,1,0,0:0:0:0:
320,192,113047,1,0,0:0:0:0:
64,192,113047,1,2,3:0:0:0:
64,192,113211,1,0,0:0:0:0:
192,192,113211,1,2,3:0:0:0:
448,192,113294,1,0,0:0:0:0:
320,192,113294,1,2,3:0:0:0:
192,192,113376,1,2,3:0:0:0:
64,192,113376,1,0,0:0:0:0:
320,192,113457,1,2,3:0:0:0:
448,192,113457,1,0,0:0:0:0:
192,192,113539,1,2,3:0:0:0:
64,192,113539,1,0,0:0:0:0:
320,192,113621,1,2,3:0:0:0:
448,192,113621,1,0,0:0:0:0:
64,192,113703,1,4,0:0:0:0:
192,192,113703,1,2,3:0:0:0:
448,192,113703,1,2,0:0:0:0:
448,192,113920,1,0,0:0:0:0:
320,192,113920,1,2,0:0:0:0:
192,192,114029,1,2,0:0:0:0:
64,192,114029,1,0,0:0:0:0:
192,192,114137,1,2,0:0:0:0:
64,192,114137,1,0,0:0:0:0:
192,192,114246,1,2,0:0:0:0:
64,192,114246,1,0,0:0:0:0:
320,192,114355,1,2,0:0:0:0:
448,192,114355,1,0,0:0:0:0:
448,192,114463,1,0,0:0:0:0:
320,192,114463,1,2,0:0:0:0:
448,192,114571,1,0,0:0:0:0:
320,192,114571,1,2,0:0:0:0:
192,192,114679,1,2,0:0:0:0:
64,192,114679,1,0,0:0:0:0:
192,192,114787,1,2,0:0:0:0:
64,192,114787,1,0,0:0:0:0:
64,192,114895,1,2,3:0:0:0:
192,192,114895,1,2,0:0:0:0:
64,192,115003,1,2,3:0:0:0:
192,192,115003,1,4,0:0:0:0:
448,192,115003,1,2,0:0:0:0:
448,192,115218,1,2,0:0:0:0:
192,192,115218,1,0,0:0:0:0:
64,192,115325,1,0,3:0:0:0:
320,192,115325,1,2,0:0:0:0:
64,192,115431,1,0,0:0:0:0:
320,192,115431,1,2,0:0:0:0:
64,192,115538,1,0,0:0:0:0:
320,192,115538,1,2,0:0:0:0:
192,192,115645,1,2,0:0:0:0:
448,192,115645,1,0,3:0:0:0:
192,192,115752,1,2,0:0:0:0:
448,192,115752,1,0,0:0:0:0:
192,192,115859,1,2,0:0:0:0:
448,192,115859,1,0,0:0:0:0:
320,192,115966,1,2,0:0:0:0:
64,192,115966,1,0,3:0:0:0:
64,192,116073,1,0,0:0:0:0:
320,192,116073,1,2,0:0:0:0:
320,192,116180,1,2,0:0:0:0:
64,192,116180,1,0,0:0:0:0:
64,192,116287,1,4,0:0:0:0:
320,192,116287,1,0,3:0:0:0:
448,192,116287,1,2,0:0:0:0:
192,192,116446,1,0,3:0:0:0:
64,192,116446,1,0,0:0:0:0:
320,192,116606,1,0,3:0:0:0:
448,192,116606,1,0,0:0:0:0:
192,192,116765,1,0,3:0:0:0:
64,192,116765,1,0,0:0:0:0:
320,192,116925,1,2,0:0:0:0:
448,192,116925,1,4,0:0:0:0:
64,192,116925,1,2,3:0:0:0:
192,192,117083,1,0,0:0:0:0:
320,192,117083,1,0,3:0:0:0:
448,192,117242,1,0,3:0:0:0:
64,192,117242,1,0,0:0:0:0:
192,192,117401,1,0,0:0:0:0:
320,192,117401,1,0,3:0:0:0:
320,192,117559,1,2,3:0:0:0:
448,192,117559,1,0,0:0:0:0:
320,192,117664,1,2,3:0:0:0:
448,192,117664,1,0,0:0:0:0:
320,192,117769,1,2,3:0:0:0:
448,192,117769,1,0,0:0:0:0:
64,192,117874,1,0,0:0:0:0:
192,192,117874,1,2,3:0:0:0:
192,192,117980,1,2,3:0:0:0:
64,192,117980,1,0,0:0:0:0:
192,192,118085,1,2,3:0:0:0:
64,192,118085,1,0,0:0:0:0:
320,192,118190,1,2,3:0:0:0:
448,192,118190,1,0,0:0:0:0:
320,192,118301,1,2,3:0:0:0:
448,192,118301,1,0,0:0:0:0:
320,192,118412,1,2,3:0:0:0:
448,192,118412,1,0,0:0:0:0:
64,192,118523,1,0,3:0:0:0:
192,192,118581,1,0,3:0:0:0:
320,192,118640,1,0,3:0:0:0:
448,192,118699,1,0,3:0:0:0:
64,192,118758,1,2,0:0:0:0:
192,192,118758,1,0,3:0:0:0:
320,192,118875,1,0,3:0:0:0:
448,192,118875,1,2,0:0:0:0:
192,192,119420,1,2,0:0:0:0:
448,192,119443,1,2,0:0:0:0:
64,192,119693,1,0,0:0:0:0:
192,192,119761,1,0,0:0:0:0:
320,192,119829,1,0,0:0:0:0:
448,192,119897,1,0,0:0:0:0:
320,192,119965,1,2,0:0:0:0:
64,192,119965,128,4,124328:0:0:0:0:
192,192,119965,128,0,123783:3:0:0:0:
