osu file format v14

[General]
AudioFilename: Yu_Asahina - Ongaku.mp3
AudioLeadIn: 0
PreviewTime: 18192
Countdown: 0
SampleSet: Soft
StackLeniency: 0.7
Mode: 3
LetterboxInBreaks: 0
SpecialStyle: 0
WidescreenStoryboard: 0

[Editor]
DistanceSpacing: 0.8
BeatDivisor: 4
GridSize: 32
TimelineZoom: 1

[Metadata]
Title:Ongaku -resolve-
TitleUnicode:音楽 -resolve-
Artist:Yu_Asahina
ArtistUnicode:Yu_Asahina
Creator:Feerum
Version:4K BASIC Lv.2
Source:SOUND VOLTEX II -infinite infection-
Tags:KONAMI BEMANI sdvx Virkato Wakhmaninov pop'n music 17 THE MOVIE wac Lyawi Sey N_a_s_y_a Nasya Elementaires Critical_Star Come[Back]Home CrimsonClaw Collaboration Ichigaki Kyousuke- Fuccho -_Kafuuchii_- ijinjin ExPew Zetera Ascendance
BeatmapID:809160
BeatmapSetID:368219

[Difficulty]
HPDrainRate:5
CircleSize:4
OverallDifficulty:5
ApproachRate:5
SliderMultiplier:1.4
SliderTickRate:1

[Events]
//Background and Video events
0,0,"PianoBG.png",0,0
//Break Periods
//Storyboard Layer 0 (Background)
//Storyboard Layer 1 (Fail)
//Storyboard Layer 2 (Pass)
//Storyboard Layer 3 (Foreground)
//Storyboard Sound Samples
Sample,19019,0,"Drop.wav",40
Sample,41919,0,"Drop.wav",40
Sample,56757,0,"Drop.wav",40
Sample,62679,0,"Drop.wav",40
Sample,77536,0,"Drop.wav",40
Sample,83144,0,"Cheer.wav",40
Sample,88791,0,"Cheer.wav",40
Sample,101473,0,"Drop.wav",40
Sample,119965,0,"Drop.wav",40
Sample,119965,0,"Cheer.wav",40
Sample,119965,0,"Drop.wav",40

[TimingPoints]
1123,500,4,2,1,40,1,0
1123,-72.7272727272727,4,2,1,40,0,0
10123,452.830188679245,4,2,1,40,1,0
10123,-80.6451612903226,4,2,1,40,0,0
11481,444.444444444444,4,2,1,40,1,0
11481,-81.9672131147541,4,2,1,40,0,0
11703,400,4,2,1,40,1,0
11703,-90.9090909090909,4,2,1,40,0,0
14859,500,4,2,1,40,1,0
14859,-72.7272727272727,4,2,1,40,0,0
16859,444.444444444444,4,2,1,40,1,0
16859,-81.8181818181819,4,2,1,40,0,0
18192,413.793103448276,4,2,1,40,1,0
18192,-87.8787878787878,4,2,1,40,0,0
18605,400,4,2,1,40,1,0
18605,-90.9090909090909,4,2,1,40,0,0
19019,387.096774193548,4,2,1,40,1,0
19019,-93.939393939394,4,2,1,40,0,0
22115,384.615384615385,4,2,1,40,1,0
22115,-94.5454545454545,4,2,1,40,0,0
22884,379.746835443038,4,2,1,40,1,0
22884,-95.7575757575758,4,2,1,40,0,0
23643,375,4,2,1,40,1,0
23643,-96.969696969697,4,2,1,40,0,0
28893,379.746835443038,4,2,1,40,1,0
28893,-95.7575757575758,4,2,1,40,0,0
29652,387.096774193548,4,2,1,40,1,0
29652,-93.939393939394,4,2,1,40,0,0
32748,382.165605095541,4,2,1,40,1,0
32748,-95.1515151515152,4,2,1,40,0,0
41919,375,4,2,1,40,1,0
41919,-96.969696969697,4,2,1,40,0,0
44919,363.636363636364,4,2,1,40,1,0
44919,-99.9999999999999,4,2,1,40,0,0
55100,400,4,2,1,40,1,0
55100,-90.9090909090909,4,2,1,40,0,0
55900,413.793103448276,4,2,1,40,1,0
55900,-87.8787878787878,4,2,1,40,0,0
56313,444.444444444444,4,2,1,40,1,0
56313,-81.8181818181819,4,2,1,40,0,0
56757,387.096774193548,4,2,1,40,1,0
56757,-93.939393939394,4,2,1,40,0,0
57531,375,4,2,1,40,1,0
57531,-96.969696969697,4,2,1,40,0,0
58281,370.37037037037,4,2,1,40,1,0
58281,-98.1818181818183,4,2,1,40,0,0
59762,365.853658536585,4,2,1,40,1,0
59762,-99.3939393939395,4,2,1,40,0,0
61225,363.636363636364,4,2,1,40,1,0
61225,-99.9999999999999,4,2,1,40,0,0
63406,361.44578313253,4,2,1,40,1,0
63406,-100.606060606061,4,2,1,40,0,0
64128,359.281437125748,4,2,1,40,1,0
64128,-101.212121212121,4,2,1,40,0,0
64846,357.142857142857,4,2,1,40,1,0
64846,-101.818181818182,4,2,1,40,0,0
65203,355.029585798817,4,2,1,40,1,0
65203,-102.424242424242,4,2,1,40,0,0
65558,352.941176470588,4,2,1,40,1,0
65558,-103.030303030303,4,2,1,40,0,0
68381,363.636363636364,4,2,1,40,1,0
68381,-99.9999999999999,4,2,1,40,0,0
72744,361.44578313253,4,2,1,40,1,0
72744,-100.606060606061,4,2,1,40,0,0
73466,359.281437125748,4,2,1,40,1,0
73466,-101.212121212121,4,2,1,40,0,0
74184,357.142857142857,4,2,1,40,1,0
74184,-101.818181818182,4,2,1,40,0,0
74898,355.029585798817,4,2,1,40,1,0
74898,-102.424242424242,4,2,1,40,0,0
75608,352.941176470588,4,2,1,40,1,0
75608,-103.030303030303,4,2,1,40,0,0
75960,363.636363636364,4,2,1,40,1,0
75960,-99.9999999999999,4,2,1,40,0,0
76323,375,4,2,1,40,1,0
76323,-96.969696969697,4,2,1,40,0,0
76698,387.096774193548,4,2,1,40,1,0
76698,-93.939393939394,4,2,1,40,0,0
77085,451.127819548872,4,2,1,40,1,0
77085,-80.6060606060606,4,2,1,40,0,0
78889,461.538461538462,4,2,1,40,1,0
78889,-78.7878787878787,4,2,1,40,0,0
79812,444.444444444444,4,2,1,40,1,0
79812,-81.8181818181819,4,2,1,40,0,0
80700,472.44094488189,4,2,1,40,1,0
80700,-76.9696969696969,4,2,1,40,0,0
81172,526.315789473684,4,2,1,40,1,0
81172,-69.0909090909091,4,2,1,40,0,0
81698,363.636363636364,4,2,1,40,1,0
81698,-99.9999999999999,4,2,1,40,0,0
82061,361.44578313253,4,2,1,40,1,0
82061,-100.606060606061,4,2,1,40,0,0
82422,359.281437125748,4,2,1,40,1,0
82422,-101.212121212121,4,2,1,40,0,0
82781,363.636363636364,4,2,1,40,1,0
82781,-99.9999999999999,4,2,1,40,0,0
83144,352.941176470588,4,2,1,40,1,0
83144,-103.030303030303,4,2,1,40,0,0
100085,350.877192982456,4,2,1,40,1,0
100085,-103.636363636364,4,2,1,40,0,0
100435,348.837209302326,4,2,1,40,1,0
100435,-104.242424242424,4,2,1,40,0,0
100783,346.820809248555,4,2,1,40,1,0
100783,-104.848484848485,4,2,1,40,0,0
101129,344.827586206897,4,2,1,40,1,0
101129,-105.454545454545,4,2,1,40,0,0
101473,342.857142857143,4,2,1,40,1,0
101473,-106.060606060606,4,2,1,40,0,0
102844,352.941176470588,4,2,1,40,1,0
102844,-103.030303030303,4,2,1,40,0,0
103549,350.877192982456,4,2,1,40,1,0
103549,-103.636363636364,4,2,1,40,0,0
104250,348.837209302326,4,2,1,40,1,0
104250,-104.242424242424,4,2,1,40,0,0
104947,346.820809248555,4,2,1,40,1,0
104947,-104.848484848485,4,2,1,40,0,0
105640,344.827586206897,4,2,1,40,1,0
105640,-105.454545454545,4,2,1,40,0,0
106329,342.857142857143,4,2,1,40,1,0
106329,-106.060606060606,4,2,1,40,0,0
107014,340.909090909091,4,2,1,40,1,0
107014,-106.666666666667,4,2,1,40,0,0
107695,338.983050847458,4,2,1,40,1,0
107695,-107.272727272727,4,2,1,40,0,0
108372,337.078651685393,4,2,1,40,1,0
108372,-107.878787878788,4,2,1,40,0,0
109046,335.195530726257,4,2,1,40,1,0
109046,-108.484848484848,4,2,1,40,0,0
109716,333.333333333333,4,2,1,40,1,0
109716,-109.090909090909,4,2,1,40,0,0
112716,331.491712707182,4,2,1,40,1,0
112716,-109.69696969697,4,2,1,40,0,0
113047,329.67032967033,4,2,1,40,1,0
113047,-110.30303030303,4,2,1,40,0,0
113376,327.868852459016,4,2,1,40,1,0
113376,-110.909090909091,4,2,1,40,0,0
113703,326.086956521739,4,2,1,40,1,0
113703,-111.515151515152,4,2,1,40,0,0
114355,324.324324324324,4,2,1,40,1,0
114355,-112.121212121212,4,2,1,40,0,0
115003,322.58064516129,4,2,1,40,1,0
115003,-112.727272727273,4,2,1,40,0,0
115325,320.855614973262,4,2,1,40,1,0
115325,-113.333333333333,4,2,1,40,0,0
116287,319.148936170213,4,2,1,40,1,0
116287,-113.939393939394,4,2,1,40,0,0
116925,317.460317460317,4,2,1,40,1,0
116925,-114.545454545455,4,2,1,40,0,0
117559,315.789473684211,4,2,1,40,1,0
117559,-115.151515151515,4,2,1,40,0,0
118190,333.333333333333,4,2,1,40,1,0
118190,-109.090909090909,4,2,1,40,0,0
118523,352.941176470588,4,2,1,40,1,0
118523,-103.030303030303,4,2,1,40,0,0
118875,272.727272727273,4,2,1,40,1,0
118875,-133.333333333333,4,2,1,40,0,0
119965,363.636363636364,4,2,1,40,1,0
119965,-99.9999999999999,4,2,1,40,0,0

[HitObjects]
320,192,1123,128,0,2623:0:0:0:0:
64,192,2623,1,2,0:0:0:0:
448,192,3373,1,2,0:0:0:0:
192,192,4123,1,2,0:0:0:0:
320,192,4873,1,2,0:0:0:0:
64,192,5623,1,2,0:0:0:0:
192,192,6373,1,2,0:0:0:0:
320,192,7123,1,2,0:0:0:0:
64,192,8123,128,2,10123:0:0:0:0:
448,192,10123,128,0,10802:3:0:0:0:
192,192,10802,128,0,11703:0:0:0:0:
448,192,11703,1,0,0:0:0:0:
320,192,12103,1,0,0:0:0:0:
64,192,12503,1,0,0:0:0:0:
448,192,12903,1,0,0:0:0:0:
64,192,13303,128,0,14769:0:0:0:0:
320,192,14769,1,0,0:0:0:0:
448,192,15359,128,6,16859:0:0:0:0:
192,192,16859,128,0,18192:0:0:0:0:
320,192,18192,128,0,19019:0:0:0:0:
64,192,19019,1,0,0:0:0:0:
448,192,19406,1,0,0:0:0:0:
192,192,19793,1,0,0:0:0:0:
448,192,20180,1,0,0:0:0:0:
320,192,20438,1,0,0:0:0:0:
192,192,20567,1,0,0:0:0:0:
64,192,20954,1,0,0:0:0:0:
448,192,21535,1,0,0:0:0:0:
320,192,21728,1,0,0:0:0:0:
192,192,21922,1,0,0:0:0:0:
64,192,22115,1,0,0:0:0:0:
448,192,22499,1,0,0:0:0:0:
192,192,22884,1,0,0:0:0:0:
320,192,23073,1,0,0:0:0:0:
448,192,23263,1,0,0:0:0:0:
64,192,23453,1,0,0:0:0:0:
320,192,23643,1,0,3:0:0:0:
192,192,24018,1,0,0:0:0:0:
448,192,24393,1,0,3:0:0:0:
64,192,24768,1,0,0:0:0:0:
192,192,25018,1,0,0:0:0:0:
320,192,25143,1,0,3:0:0:0:
448,192,25518,1,0,0:0:0:0:
320,192,26080,1,0,0:0:0:0:
192,192,26268,1,0,0:0:0:0:
64,192,26455,1,0,0:0:0:0:
448,192,26643,1,0,3:0:0:0:
192,192,27018,1,0,3:0:0:0:
448,192,27580,1,0,0:0:0:0:
320,192,27768,1,0,3:0:0:0:
192,192,27955,1,0,0:0:0:0:
64,192,28143,1,0,3:0:0:0:
192,192,28518,1,0,3:0:0:0:
320,192,28893,1,0,3:0:0:0:
448,192,29272,1,0,3:0:0:0:
64,192,29652,1,0,3:0:0:0:
192,192,29845,128,4,30813:0:0:0:0:
448,192,31200,1,0,3:0:0:0:
320,192,31393,128,4,32361:0:0:0:0:
64,192,32748,1,0,3:0:0:0:
192,192,33130,1,2,3:0:0:0:
448,192,33512,1,0,3:0:0:0:
320,192,33894,1,2,3:0:0:0:
64,192,34276,1,0,3:0:0:0:
320,192,34658,1,2,3:0:0:0:
192,192,35040,1,0,3:0:0:0:
448,192,35423,1,2,3:0:0:0:
320,192,35805,1,0,3:0:0:0:
64,192,35996,128,2,36569:0:0:0:0:
448,192,36569,1,0,3:0:0:0:
192,192,36760,128,2,37333:0:0:0:0:
320,192,37333,1,0,3:0:0:0:
64,192,37525,128,2,38098:0:0:0:0:
448,192,38098,1,0,3:0:0:0:
192,192,38289,128,2,38862:0:0:0:0:
320,192,38862,1,4,0:0:0:0:
448,192,39053,128,2,39626:0:0:0:0:
64,192,39818,1,8,3:0:0:0:
320,192,40009,1,0,3:0:0:0:
192,192,40200,1,8,3:0:0:0:
448,192,40391,128,2,40773:3:0:0:0:
320,192,40773,128,2,41155:3:0:0:0:
192,192,41155,128,2,41537:3:0:0:0:
64,192,41537,128,2,41919:3:0:0:0:
448,192,41919,1,2,0:0:0:0:
192,192,42294,1,2,0:0:0:0:
320,192,42669,1,2,0:0:0:0:
64,192,43044,1,2,0:0:0:0:
192,192,43419,1,2,0:0:0:0:
320,192,43794,1,2,0:0:0:0:
448,192,44169,1,2,0:0:0:0:
192,192,44544,1,2,0:0:0:0:
320,192,44919,128,4,46373:0:0:0:0:
448,192,44919,1,2,3:0:0:0:
64,192,46373,128,2,47828:3:0:0:0:
192,192,46373,1,4,0:0:0:0:
448,192,47828,128,4,49282:0:0:0:0:
192,192,47828,1,2,3:0:0:0:
64,192,49282,128,4,49828:0:0:0:0:
320,192,49282,1,2,3:0:0:0:
192,192,50009,128,0,50737:3:0:0:0:
448,192,50737,1,0,3:0:0:0:
320,192,50919,128,0,51464:3:0:0:0:
64,192,51464,1,0,3:0:0:0:
192,192,51646,128,0,52191:3:0:0:0:
448,192,52191,1,0,3:0:0:0:
64,192,52373,128,0,52919:3:0:0:0:
192,192,52919,1,0,3:0:0:0:
448,192,53100,128,0,53646:3:0:0:0:
320,192,53646,1,0,0:0:0:0:
192,192,53828,128,0,54373:0:0:0:0:
448,192,54373,1,0,3:0:0:0:
320,192,54737,1,0,3:0:0:0:
64,192,55100,1,0,3:0:0:0:
192,192,55400,1,8,3:0:0:0:
320,192,55700,1,8,3:0:0:0:
448,192,55900,1,8,3:0:0:0:
64,192,56106,1,8,3:0:0:0:
320,192,56313,1,8,3:0:0:0:
192,192,56535,1,8,3:0:0:0:
64,192,56757,128,4,57337:0:0:0:0:
320,192,57337,1,2,0:0:0:0:
192,192,57531,128,2,58093:0:0:0:0:
448,192,58093,1,2,0:0:0:0:
320,192,58281,128,2,58836:0:0:0:0:
64,192,58836,1,2,0:0:0:0:
192,192,59021,128,2,59577:0:0:0:0:
448,192,59577,1,2,0:0:0:0:
320,192,59762,128,2,60310:0:0:0:0:
192,192,60310,1,2,0:0:0:0:
64,192,60493,128,2,61042:0:0:0:0:
448,192,61042,1,2,0:0:0:0:
192,192,61225,128,2,61952:0:0:0:0:
320,192,61952,128,2,62679:0:0:0:0:
64,192,62679,1,2,0:0:0:0:
320,192,63225,1,2,0:0:0:0:
192,192,63406,1,4,0:0:0:0:
448,192,63948,1,2,0:0:0:0:
64,192,64128,1,4,0:0:0:0:
192,192,64487,1,4,0:0:0:0:
320,192,64846,1,4,0:0:0:0:
448,192,65203,1,4,0:0:0:0:
64,192,65558,128,2,65910:3:0:0:0:
192,192,65910,128,2,66263:3:0:0:0:
320,192,66263,128,2,66616:3:0:0:0:
448,192,66616,128,2,66969:3:0:0:0:
64,192,66969,128,2,67322:3:0:0:0:
192,192,67322,128,2,67675:3:0:0:0:
320,192,67675,128,2,68028:3:0:0:0:
448,192,68028,128,2,68381:3:0:0:0:
64,192,68381,128,4,68926:0:0:0:0:
448,192,68926,1,8,3:0:0:0:
192,192,69108,128,0,69653:3:0:0:0:
320,192,69653,1,8,3:0:0:0:
64,192,69835,128,0,70199:3:0:0:0:
448,192,70199,128,0,70562:3:0:0:0:
320,192,70562,128,0,70926:3:0:0:0:
192,192,70926,128,0,71290:3:0:0:0:
64,192,71290,1,0,3:0:0:0:
320,192,71653,1,0,3:0:0:0:
192,192,72017,1,0,3:0:0:0:
448,192,72381,128,0,72744:3:0:0:0:
64,192,72744,128,0,73466:3:0:0:0:
192,192,73466,128,0,74184:3:0:0:0:
320,192,74184,128,0,74898:3:0:0:0:
448,192,74898,1,0,3:0:0:0:
192,192,75075,1,8,3:0:0:0:
320,192,75253,1,2,3:0:0:0:
64,192,75430,1,8,3:0:0:0:
448,192,75608,128,2,75960:3:0:0:0:
320,192,75960,128,2,76323:3:0:0:0:
192,192,76323,128,2,76698:3:0:0:0:
64,192,76698,128,2,77085:3:0:0:0:
448,192,77085,1,2,3:0:0:0:
320,192,77536,1,2,0:0:0:0:
192,192,77536,1,4,0:0:0:0:
64,192,78212,1,2,0:0:0:0:
192,192,78438,1,2,0:0:0:0:
320,192,78663,1,2,0:0:0:0:
448,192,78889,1,2,0:0:0:0:
192,192,79350,1,2,0:0:0:0:
320,192,79812,128,2,80700:0:0:0:0:
192,192,80700,128,2,81172:0:0:0:0:
448,192,81172,1,2,0:0:0:0:
64,192,81698,1,0,3:0:0:0:
192,192,82061,1,2,3:0:0:0:
320,192,82422,1,0,3:0:0:0:
448,192,82781,1,2,3:0:0:0:
320,192,83144,1,4,0:0:0:0:
64,192,83496,1,2,3:0:0:0:
192,192,83849,1,0,3:0:0:0:
320,192,84202,1,2,3:0:0:0:
448,192,84555,1,0,3:0:0:0:
192,192,84908,1,2,3:0:0:0:
320,192,85261,1,0,3:0:0:0:
64,192,85614,1,2,3:0:0:0:
448,192,85967,128,0,86673:3:0:0:0:
192,192,86673,128,0,87202:3:0:0:0:
320,192,87379,1,0,3:0:0:0:
64,192,87732,128,2,88438:3:0:0:0:
448,192,88438,1,0,3:0:0:0:
320,192,88791,1,4,0:0:0:0:
192,192,89144,1,2,3:0:0:0:
64,192,89496,1,0,3:0:0:0:
448,192,89849,1,2,3:0:0:0:
192,192,90202,1,0,3:0:0:0:
320,192,90555,1,2,3:0:0:0:
64,192,90908,1,0,3:0:0:0:
448,192,91261,1,2,3:0:0:0:
192,192,91614,1,2,0:0:0:0:
320,192,91791,128,2,92144:0:0:0:0:
64,192,92320,1,2,0:0:0:0:
448,192,92496,128,2,92849:0:0:0:0:
320,192,93026,1,2,0:0:0:0:
192,192,93202,128,2,93555:0:0:0:0:
64,192,93732,1,2,0:0:0:0:
320,192,93908,128,2,94261:0:0:0:0:
64,192,94438,1,0,3:0:0:0:
192,192,94791,1,2,3:0:0:0:
448,192,95144,128,2,95496:3:0:0:0:
320,192,95496,128,2,95849:3:0:0:0:
64,192,95849,1,4,0:0:0:0:
192,192,96202,128,2,96908:3:0:0:0:
448,192,96908,1,2,3:0:0:0:
320,192,97261,1,0,3:0:0:0:
64,192,97614,128,2,98320:3:0:0:0:
448,192,98320,1,2,3:0:0:0:
192,192,98673,1,0,3:0:0:0:
320,192,99026,128,2,99732:3:0:0:0:
64,192,99732,1,2,3:0:0:0:
448,192,100085,1,0,3:0:0:0:
320,192,100435,1,2,3:0:0:0:
192,192,100783,1,0,3:0:0:0:
64,192,101129,1,2,3:0:0:0:
448,192,101473,1,2,0:0:0:0:
192,192,101987,1,2,0:0:0:0:
320,192,102158,1,2,0:0:0:0:
64,192,102501,1,2,0:0:0:0:
448,192,102844,1,2,0:0:0:0:
320,192,103196,128,2,103549:0:0:0:0:
64,192,103549,1,2,0:0:0:0:
192,192,103899,1,2,0:0:0:0:
448,192,104250,1,0,3:0:0:0:
320,192,104511,1,0,3:0:0:0:
64,192,104773,1,0,3:0:0:0:
192,192,104947,128,0,105640:3:0:0:0:
320,192,105640,1,0,3:0:0:0:
64,192,105898,1,0,3:0:0:0:
448,192,106157,1,0,3:0:0:0:
192,192,106329,128,0,107014:3:0:0:0:
64,192,107014,1,0,3:0:0:0:
320,192,107269,1,0,3:0:0:0:
192,192,107525,1,0,3:0:0:0:
448,192,107695,128,0,108203:3:0:0:0:
320,192,108203,1,0,3:0:0:0:
64,192,108372,128,0,108877:3:0:0:0:
192,192,108877,1,0,3:0:0:0:
320,192,109046,128,0,109716:3:0:0:0:
448,192,109716,1,2,3:0:0:0:
192,192,109966,1,2,3:0:0:0:
64,192,110216,1,2,3:0:0:0:
448,192,110382,128,2,111049:3:0:0:0:
320,192,111049,1,8,3:0:0:0:
192,192,111299,1,8,3:0:0:0:
64,192,111549,1,8,3:0:0:0:
448,192,111716,1,2,3:0:0:0:
320,192,111966,1,8,3:0:0:0:
192,192,112216,1,8,3:0:0:0:
448,192,112382,1,2,3:0:0:0:
64,192,112632,1,8,3:0:0:0:
320,192,112881,1,8,3:0:0:0:
192,192,113047,1,2,3:0:0:0:
448,192,113294,1,8,3:0:0:0:
64,192,113539,1,8,3:0:0:0:
320,192,113703,1,2,3:0:0:0:
64,192,114029,128,2,115003:0:0:0:0:
320,192,115003,1,2,3:0:0:0:
192,192,115325,128,2,116287:0:0:0:0:
448,192,116287,1,0,3:0:0:0:
64,192,116606,1,0,3:0:0:0:
320,192,116925,1,0,3:0:0:0:
192,192,117242,1,0,3:0:0:0:
448,192,117559,1,2,0:0:0:0:
64,192,117874,1,2,0:0:0:0:
320,192,118190,1,2,0:0:0:0:
192,192,118523,1,2,0:0:0:0:
448,192,118875,1,2,0:0:0:0:
320,192,119420,1,2,0:0:0:0:
64,192,119965,128,2,123783:0:0:0:0:
