osu file format v14

[General]
AudioFilename: audio.mp3
AudioLeadIn: 0
PreviewTime: 66654
Countdown: 1
SampleSet: Normal
StackLeniency: 0.7
Mode: 0
LetterboxInBreaks: 0
WidescreenStoryboard: 0

[Editor]
Bookmarks: 13814,21716,53321,67148,82950,84925,96777,104679,108629
DistanceSpacing: 1.4
BeatDivisor: 4
GridSize: 4
TimelineZoom: 2.899999

[Metadata]
Title:Karekurenma
TitleUnicode:カレクレンマ
Artist:Yu_Asahina
ArtistUnicode:アサヒナユウ
Creator:Kawa
Version:Insane
Source:SOUND VOLTEX II -infinite infection-
Tags:
BeatmapID:1561457
BeatmapSetID:740116

[Difficulty]
HPDrainRate:6
CircleSize:4.2
OverallDifficulty:6
ApproachRate:9.3
SliderMultiplier:1.6
SliderTickRate:1

[Events]
//Background and Video events
0,0,"bg.jpg",0,0
//Break Periods
//Storyboard Layer 0 (Background)
//Storyboard Layer 1 (Fail)
//Storyboard Layer 2 (Pass)
//Storyboard Layer 3 (Foreground)
//Storyboard Sound Samples

[TimingPoints]
1963,493.827160493827,4,1,1,60,1,0
1963,-200,4,1,1,60,0,0
3197,-100,4,1,1,60,0,0
3938,-200,4,1,1,60,0,0
5913,-133.333333333333,4,1,1,60,0,0
9864,-200,4,1,1,60,0,0
10604,-100,4,1,1,60,0,0
10851,-133.333333333333,4,1,1,60,0,0
13444,-100,4,1,1,60,0,0
15790,-90.9090909090909,4,1,1,60,0,0
17765,-142.857142857143,4,1,1,60,0,0
18259,-125,4,1,1,60,0,0
18753,-111.111111111111,4,1,1,60,0,0
19246,-100,4,1,1,60,0,0
19740,-83.3333333333333,4,1,1,60,0,0
20604,-71.4285714285714,4,1,1,60,0,0
21345,-50,4,1,1,60,0,0
23691,-66.6666666666667,4,1,1,60,0,0
51345,-133.333333333333,4,1,1,60,0,0
52827,-66.6666666666667,4,1,1,60,0,0
63197,-100,4,1,1,60,0,0
64185,-66.6666666666667,4,1,1,60,0,0
67148,-58.8235294117647,4,1,1,60,0,0
83321,-100,4,1,1,60,0,0
84925,-58.8235294117647,4,1,1,60,0,0

[Colours]
Combo1 : 235,126,80
Combo2 : 248,200,7
Combo3 : 255,150,0
Combo4 : 238,170,130

[HitObjects]
48,108,1963,6,0,B|75:106|104:84|104:84|151:97|151:97|180:72|208:68,1,160
336,72,3197,2,0,P|312:116|264:148,1,80
168,212,3567,2,0,P|188:168|228:144,1,80
368,228,3938,6,0,B|320:236|292:272|292:272|252:252|240:212,1,160
256,64,5172,1,0,0:0:0:0:
268,44,5296,2,0,L|284:20,2,20
212,149,5666,1,0,0:0:0:0:
456,168,5913,6,0,B|468:200|468:200|468:244,1,60.0000022888184,2|0,0:0|0:0,0:0:0:0:
468,225,6530,1,2,0:0:0:0:
152,224,6901,2,0,B|147:257|147:257|154:300,1,60.0000022888184,2|0,0:0|0:0,0:0:0:0:
151,283,7518,1,2,0:0:0:0:
296,144,7888,6,0,L|296:68,1,60.0000022888184,2|0,0:0|0:0,0:0:0:0:
296,68,8259,1,0,0:0:0:0:
364,228,8382,2,0,P|332:252|293:263,1,60.0000022888184,2|0,0:0|0:0,0:0:0:0:
140,208,8753,1,2,0:0:0:0:
300,168,9000,1,2,0:0:0:0:
240,336,9246,1,2,0:0:0:0:
232,316,9370,2,0,L|232:272,2,40.000001525879
208,168,9864,6,0,B|204:140|204:140|220:96|220:96|210:63,1,100,2|0,0:0|0:0,0:0:0:0:
100,88,10604,2,0,L|156:104,1,40,2|0,0:0|0:0,0:0:0:0:
340,136,10851,2,0,L|260:160,1,60.0000022888184,2|0,0:0|0:0,0:0:0:0:
68,168,11222,2,0,L|148:192,1,60.0000022888184,2|0,0:0|0:0,0:0:0:0:
260,236,11592,1,2,0:0:0:0:
196,40,11839,5,2,0:0:0:0:
140,204,12086,1,8,0:0:0:0:
140,234,12209,1,2,0:0:0:0:
140,265,12332,1,2,0:0:0:0:
184,340,12456,2,0,L|184:392,2,30.0000011444092,8|2|2,0:0|0:0|0:0,0:0:0:0:
256,148,12950,1,2,0:0:0:0:
140,265,13197,1,2,0:0:0:0:
344,204,13444,6,0,P|352:232|332:280,1,80,2|2,0:0|0:0,0:0:0:0:
284,144,13753,1,2,0:0:0:0:
292,136,13814,6,0,P|339:123|379:130,1,80,2|8,0:0|0:0,0:0:0:0:
428,172,14184,1,2,0:0:0:0:
508,72,14308,2,0,B|496:116|496:116|504:168,1,80,2|8,0:0|0:0,0:0:0:0:
512,232,14679,1,2,0:0:0:0:
368,232,14802,2,0,L|324:192,2,40,8|2|0,0:0|0:0|0:0,0:0:0:0:
464,332,15172,2,0,B|415:343|415:343|374:334,1,80,2|2,0:0|0:0,0:0:0:0:
160,264,15543,1,12,0:0:0:0:
264,108,15790,6,0,B|240:152|240:152|240:200,1,88.000002685547,2|10,0:0|0:0,0:0:0:0:
264,324,16160,2,0,B|292:284|292:284|292:240,1,88.000002685547,2|10,0:0|0:0,0:0:0:0:
248,88,16530,1,0,0:0:0:0:
340,168,16654,2,0,L|392:160,4,44.0000013427735,2|8|2|8|2,0:0|0:0|0:0|0:0|0:0,0:0:0:0:
180,264,17271,2,0,L|144:264,2,22.0000006713867,2|0|0,0:0|0:0|0:0,0:0:0:0:
400,344,17518,2,0,L|440:344,3,22.0000006713867,2|0|0|0,0:0|0:0|0:0|0:0,0:0:0:0:
208,352,17765,6,0,B|192:324|192:324|212:252,1,83.9999974365235,2|0,0:0|0:0,0:0:0:0:
312,200,18259,2,0,B|324:232|324:232|304:304,1,96,2|0,0:0|0:0,0:0:0:0:
168,368,18753,2,0,B|152:340|152:340|176:264,1,107.999996704102,2|0,0:0|0:0,0:0:0:0:
356,176,19246,2,0,B|368:208|368:208|344:296,1,120,2|2,0:0|0:0,0:0:0:0:
272,160,19679,1,2,0:0:0:0:
272,144,19740,6,0,P|303:101|362:81,1,95.9999970703126,2|2,0:0|0:0,0:0:0:0:
512,248,20111,2,0,P|460:268|400:248,1,95.9999970703126,2|2,0:0|0:0,0:0:0:0:
452,76,20481,1,2,0:0:0:0:
452,76,20604,2,0,L|456:224,1,111.999996582031,2|2,0:0|0:0,0:0:0:0:
348,296,20975,2,0,L|364:352,2,55.9999982910157,2|2|2,0:0|0:0|0:0,0:0:0:0:
304,148,21284,1,2,0:0:0:0:
304,148,21345,1,2,0:0:0:0:
240,336,21469,2,0,B|228:292|228:292|236:252,1,80,6|2,0:0|0:0,0:0:0:0:
256,192,21716,12,0,23197,0:0:0:0:
140,153,23691,6,0,B|184:117|184:117|268:129,1,120.000004577637,2|8,0:0|0:0,0:0:0:0:
268,112,24061,1,2,0:0:0:0:
216,224,24185,2,0,L|216:284,2,60.0000022888184,2|8|0,0:0|0:0|0:0,0:0:0:0:
256,360,24555,1,2,0:0:0:0:
268,112,24802,1,2,0:0:0:0:
256,360,25049,1,8,0:0:0:0:
304,260,25172,1,2,0:0:0:0:
304,260,25296,1,8,0:0:0:0:
360,380,25419,2,0,B|368:348|368:348|356:320,1,60.0000022888184,4|0,0:0|0:0,0:0:0:0:
344,160,25666,6,0,P|380:216|440:236,1,120.000004577637,2|8,0:0|0:0,0:0:0:0:
504,216,26037,1,2,0:0:0:0:
504,216,26160,1,2,0:0:0:0:
432,92,26283,2,0,B|428:128|428:128|436:168,1,60.0000022888184,8|0,0:0|0:0,0:0:0:0:
304,260,26530,2,0,P|240:280|172:260,1,120.000004577637,2|2,0:0|0:0,0:0:0:0:
92,208,26901,2,0,L|108:276,1,60.0000022888184,8|2,0:0|0:0,0:0:0:0:
132,364,27148,1,2,0:0:0:0:
240,144,27395,1,8,0:0:0:0:
132,364,27642,6,0,P|108:304|120:232,1,120.000004577637,2|8,0:0|0:0,0:0:0:0:
200,88,28012,2,0,B|222:121|222:121|221:170|221:170|250:205,1,120.000004577637,2|8,0:0|0:0,0:0:0:0:
116,72,28506,1,2,0:0:0:0:
116,72,28753,1,2,0:0:0:0:
116,72,29000,1,2,0:0:0:0:
240,144,29123,2,0,L|312:144,1,60.0000022888184,2|8,0:0|0:0,0:0:0:0:
440,92,29370,2,0,L|368:92,1,60.0000022888184,6|8,0:0|0:0,0:0:0:0:
224,164,29617,6,0,B|344:164,1,120.000004577637,2|8,0:0|0:0,0:0:0:0:
456,176,29987,2,0,B|432:212|432:212|440:300,1,120.000004577637,2|8,0:0|0:0,0:0:0:0:
480,360,30358,1,0,0:0:0:0:
438,288,30481,2,0,P|382:264|316:276,1,120.000004577637,2|2,0:0|0:0,0:0:0:0:
256,368,30851,2,0,L|256:288,1,60.0000022888184,8|2,0:0|0:0,0:0:0:0:
224,204,31098,1,2,0:0:0:0:
224,184,31222,1,8,0:0:0:0:
164,296,31345,2,0,B|152:329|152:329|132:348,1,60.0000022888184,2|2,0:0|0:0,0:0:0:0:
168,128,31592,6,0,P|244:108|292:144,1,120.000004577637,2|0,0:0|0:0,0:0:0:0:
360,212,31962,2,0,P|414:234|469:214,1,120.000004577637,2|0,0:0|0:0,0:0:0:0:
436,48,32333,2,0,B|400:108|400:108|416:164,1,120.000004577637,2|0,0:0|0:0,0:0:0:0:
469,214,32703,1,2,0:0:0:0:
384,312,32827,2,0,L|304:312,1,60.0000022888184,8|2,0:0|0:0,0:0:0:0:
236,328,33074,1,2,0:0:0:0:
236,328,33197,1,8,0:0:0:0:
292,232,33321,1,6,0:0:0:0:
292,232,33444,1,8,0:0:0:0:
232,136,33567,6,0,P|200:80|232:12,1,120.000004577637,2|8,0:0|0:0,0:0:0:0:
280,76,33938,1,2,0:0:0:0:
220,156,34061,2,0,L|132:168,1,60.0000022888184,2|8,0:0|0:0,0:0:0:0:
60,216,34432,2,0,L|204:196,1,120.000004577637,2|2,0:0|0:0,0:0:0:0:
220,156,34802,2,0,L|132:168,1,60.0000022888184,8|2,0:0|0:0,0:0:0:0:
44,232,35049,1,2,0:0:0:0:
292,232,35296,1,8,0:0:0:0:
120,84,35543,5,2,0:0:0:0:
320,92,35790,1,0,0:0:0:0:
328,116,35913,1,2,0:0:0:0:
336,140,36037,2,0,P|372:148|416:140,1,60.0000022888184
512,200,36283,2,0,P|480:196|444:200,1,60.0000022888184,2|0,0:0|0:0,0:0:0:0:
364,228,36530,1,4,0:0:0:0:
364,228,36654,1,0,0:0:0:0:
364,228,36777,2,0,B|364:292,1,60.0000022888184,8|8,0:0|0:0,0:0:0:0:
440,360,37024,2,0,B|440:300,2,60.0000022888184,8|0|8,0:3|0:0|0:3,0:0:0:0:
344,128,37518,6,0,P|280:188|276:228,1,120.000004577637,2|0,0:0|0:0,0:0:0:0:
348,348,37888,2,0,B|360:400|436:352|368:296|348:344,1,120.000004577637,2|0,0:0|0:0,0:0:0:0:
200,340,38259,2,0,B|156:328|116:356|116:356|60:356|32:308,1,180.000006866455,2|0,0:0|0:0,0:0:0:0:
32,232,38753,1,0,0:0:0:0:
196,204,39000,2,0,P|164:256|92:260,1,120.000004577637,8|0,0:0|0:0,0:0:0:0:
156,132,39493,6,0,B|196:116|232:132|232:132|272:148|300:124,1,120.000004577637,2|0,0:0|0:0,0:0:0:0:
432,92,39864,2,0,P|376:35|312:44,1,120.000004577637,2|0,0:0|0:0,0:0:0:0:
268,212,40234,2,0,P|332:272|360:208,1,180.000006866455,2|0,0:0|0:0,0:0:0:0:
356,112,40728,1,2,0:0:0:0:
268,212,40975,1,10,0:0:0:0:
268,212,41098,1,8,0:0:0:0:
320,304,41222,1,6,0:0:0:0:
320,304,41345,1,2,0:0:0:0:
180,376,41469,6,0,P|84:336|208:268,1,300.000011444092,2|0,0:0|0:0,0:0:0:0:
152,312,42209,1,2,0:0:0:0:
184,80,42456,2,0,B|196:148|196:148|176:196,1,120.000004577637,8|0,0:0|0:0,0:0:0:0:
168,216,42827,1,8,0:0:0:0:
56,276,42950,2,0,P|52:340|92:384,1,120.000004577637,2|2,0:0|0:0,0:0:0:0:
140,304,43444,1,0,0:0:0:0:
344,220,43691,5,2,0:0:0:0:
436,68,43938,2,0,P|456:124|436:180,1,120.000004577637,8|0,0:0|0:0,0:0:0:0:
376,124,44308,1,2,0:0:0:0:
448,40,44432,2,0,P|484:87|482:146,1,120.000004577637,8|2,0:0|0:0,0:3:0:0:
428,204,44802,1,0,0:0:0:0:
512,284,44925,2,0,L|444:284,1,60.0000022888184,8|8,0:0|0:0,0:0:0:0:
292,280,45172,1,6,0:0:0:0:
124,84,45419,6,0,P|188:92|224:136,1,120.000004577637,2|0,0:0|0:0,0:0:0:0:
196,204,45790,1,2,0:0:0:0:
60,132,45913,2,0,B|40:88|48:48|48:48|76:36|88:12,1,120.000004577637,8|2,0:0|0:0,0:0:0:0:
75,29,46407,1,0,0:0:0:0:
92,284,46654,2,0,P|120:260|132:228,1,60.0000022888184,2|0,0:0|0:0,0:0:0:0:
144,164,46901,1,8,0:0:0:0:
76,292,47024,2,0,P|136:328|196:320,1,120.000004577637,2|0,0:0|0:0,0:0:0:0:
316,256,47395,6,0,P|380:244|444:272,1,120.000004577637,2|0,0:0|0:0,0:0:0:0:
476,332,47765,1,2,0:0:0:0:
432,152,47888,1,8,0:0:0:0:
308,272,48135,2,0,P|260:208|284:212,1,180.000006866455,2|8,0:0|0:0,0:0:0:0:
348,148,48629,2,0,L|252:148,1,60.0000022888184,2|0,0:0|0:0,0:0:0:0:
144,120,48876,2,0,B|192:112|192:112|228:120|228:120|284:120,1,120.000004577637,8|2,0:0|0:0,0:0:0:0:
248,28,49246,1,8,0:0:0:0:
64,76,49370,6,0,P|56:144|108:200,1,120.000004577637,2|0,0:0|0:0,0:0:0:0:
160,272,49740,2,0,P|180:332|156:396,1,120.000004577637,2|0,0:0|0:0,0:0:0:0:
92,332,50111,1,2,0:0:0:0:
308,216,50358,2,0,P|380:212|432:252,1,120.000004577637,2|0,0:0|0:0,0:0:0:0:
244,276,50728,2,0,P|220:216|260:140,1,120.000004577637,2|0,0:0|0:0,0:0:0:0:
324,128,51098,1,2,0:0:0:0:
468,140,51345,2,0,B|436:148|436:148|388:140,1,60.0000022888184,0|0,2:0|2:0,2:0:0:0:
256,192,51839,12,0,52580,0:0:0:0:
160,148,52827,6,0,B|160:112|160:112|180:76,1,60.0000022888184,2|8,0:0|0:0,0:0:0:0:
196,276,53074,2,0,L|164:372,1,60.0000022888184,2|8,0:0|0:0,0:0:0:0:
292,188,53321,6,0,P|368:184|420:224,1,120.000004577637,2|8,0:0|0:0,0:0:0:0:
444,296,53691,1,2,0:0:0:0:
496,184,53814,2,0,L|496:256,1,60.0000022888184,2|4,0:0|0:0,0:0:0:0:
444,312,54061,1,8,0:0:0:0:
320,296,54185,2,0,P|328:256|336:300,1,120.000004577637,2|2,0:0|0:0,0:0:0:0:
240,328,54555,1,8,0:0:0:0:
240,328,54679,1,2,0:0:0:0:
164,228,54802,2,0,P|84:224|48:260,1,120.000004577637,2|8,0:0|0:0,0:0:0:0:
264,96,55296,5,2,0:0:0:0:
116,128,55543,2,0,L|196:128,1,60.0000022888184,8|2,0:0|0:0,0:0:0:0:
272,84,55790,1,2,0:0:0:0:
272,84,55913,1,4,0:0:0:0:
308,176,56037,1,8,0:0:0:0:
372,108,56160,2,0,P|432:88|488:128,1,120.000004577637,2|2,0:0|0:0,0:0:0:0:
424,220,56530,2,0,B|416:188|416:188|424:152,1,60.0000022888184,8|2,0:0|0:0,0:0:0:0:
476,328,56777,2,0,L|444:392,1,60.0000022888184,2|8,0:0|0:0,0:0:0:0:
320,304,57024,2,0,L|346:250,1,60.0000022888184,2|8,0:0|0:0,0:0:0:0:
216,360,57271,6,0,P|144:368|96:328,1,120.000004577637,2|8,0:0|0:0,0:0:0:0:
72,268,57642,1,2,0:0:0:0:
152,168,57765,2,0,B|157:132|157:132|148:92,1,60.0000022888184,2|4,0:0|0:0,0:0:0:0:
116,36,58012,1,8,0:0:0:0:
244,104,58135,2,0,P|316:104|376:72,1,120.000004577637,2|2,0:0|0:0,0:0:0:0:
416,28,58506,1,8,0:0:0:0:
416,28,58629,1,2,0:0:0:0:
424,160,58753,2,0,P|460:144|424:156,1,120.000004577637,2|8,0:0|0:0,0:0:0:0:
296,288,59246,6,0,B|340:304|340:304|420:288,1,120.000004577637,2|8,0:0|0:0,0:0:0:0:
488,328,59617,1,2,0:0:0:0:
488,328,59740,1,2,0:0:0:0:
240,232,59987,1,8,0:0:0:0:
160,216,60111,2,0,P|168:274|230:305,1,120.000004577637,2|2,0:0|0:0,0:0:0:0:
348,224,60481,2,0,B|351:188|351:188|344:152,1,60.0000022888184,8|2,0:0|0:0,0:0:0:0:
296,68,60728,1,2,0:0:0:0:
296,68,60851,1,8,0:0:0:0:
352,0,60975,1,2,0:0:0:0:
352,0,61098,1,8,0:0:0:0:
232,140,61222,6,0,P|156:132|116:72,1,120.000004577637,2|0,0:0|0:0,0:0:0:0:
200,68,61592,1,2,0:0:0:0:
480,208,61962,2,0,B|488:272|488:272|464:340,1,120.000004577637,2|0,0:0|0:0,0:0:0:0:
469,324,62333,1,2,0:0:0:0:
216,240,62703,2,0,L|272:196,1,60.0000022888184,2|0,0:0|0:0,0:0:0:0:
396,192,62950,2,0,L|336:240,1,60.0000022888184,2|0,0:0|0:0,0:0:0:0:
168,320,63197,6,0,P|133:288|124:227,1,80,0|0,3:0|3:0,3:0:0:0:
292,36,63691,2,0,B|300:84|300:84|292:112|292:112|292:172,1,120,2|0,0:0|0:0,0:0:0:0:
260,292,64185,2,0,L|260:164,1,120.000004577637,2|0,0:0|0:0,0:0:0:0:
292,36,64555,2,0,L|292:176,1,120.000004577637,2|0,0:0|0:0,0:0:0:0:
260,292,64925,1,2,0:0:0:0:
448,108,65172,5,10,0:0:0:0:
448,108,65296,2,0,L|384:136,1,60.0000022888184,10|0,0:0|0:0,0:0:0:0:
132,160,65543,5,10,0:0:0:0:
132,160,65667,2,0,L|196:188,1,60.0000022888184,10|0,0:0|0:0,0:0:0:0:
464,232,65913,5,10,0:0:0:0:
464,232,66037,2,0,L|400:260,1,60.0000022888184,10|0,0:0|0:0,0:0:0:0:
148,284,66284,5,10,0:0:0:0:
148,284,66408,2,0,L|212:312,1,60.0000022888184,10|0,0:0|0:0,0:0:0:0:
376,332,66654,2,0,P|324:256|368:184,1,180.000006866455,2|0,0:0|0:0,0:0:0:0:
362,187,67148,6,0,L|288:144,1,68.0000012969971,2|0,0:0|0:0,0:0:0:0:
160,80,67395,1,8,0:0:0:0:
200,16,67518,1,2,0:0:0:0:
120,148,67642,2,0,B|84:151|84:151|40:140,1,68.0000012969971,2|4,0:0|0:0,0:0:0:0:
148,248,67888,1,8,0:0:0:0:
148,248,68012,1,2,0:0:0:0:
436,320,68135,2,0,L|356:288,1,68.0000012969971,0|2,0:0|0:0,0:0:0:0:
196,328,68382,2,0,L|272:360,1,68.0000012969971,8|2,0:0|0:0,0:0:0:0:
464,304,68629,2,0,L|384:272,1,68.0000012969971,2|0,0:0|0:0,0:0:0:0:
168,332,68876,2,0,L|244:364,1,68.0000012969971,10|0,0:0|0:0,0:0:0:0:
332,84,69123,6,0,P|300:156|320:216,1,136.000002593994,2|8,0:0|0:0,0:0:0:0:
392,156,69493,1,2,0:0:0:0:
260,112,69617,2,0,L|180:112,2,68.0000012969971,2|4|8,0:0|0:0|0:0,0:0:0:0:
156,268,69987,2,0,B|112:268|112:268|76:300|76:300|12:300,1,136.000002593994,2|2,0:0|0:0,0:0:0:0:
258,354,70358,2,0,L|346:354,1,68.0000012969971,8|2,0:0|0:0,0:0:0:0:
456,288,70604,1,2,0:0:0:0:
484,360,70728,1,8,0:0:0:0:
372,200,70851,1,2,0:0:0:0:
336,264,70975,1,8,0:0:0:0:
476,148,71098,6,0,P|428:92|340:92,1,136.000002593994,2|8,0:0|0:0,0:0:0:0:
369,82,71469,1,2,0:0:0:0:
216,188,71592,2,0,P|140:200|84:148,1,136.000002593994,2|8,0:0|0:0,0:0:0:0:
168,124,71962,1,2,0:0:0:0:
288,292,72086,2,0,B|252:300|252:300|208:292,1,68.0000012969971,2|0,0:0|0:0,0:0:0:0:
100,280,72333,1,8,0:0:0:0:
57,343,72456,1,2,0:0:0:0:
300,372,72580,2,0,L|392:360,1,68.0000012969971,2|0,0:0|0:0,0:0:0:0:
499,240,72827,2,0,L|407:228,1,68.0000012969971,10|0,0:0|0:0,0:0:0:0:
196,96,73074,6,0,P|252:40|320:48,1,136.000002593994,2|8,0:0|0:0,0:0:0:0:
304,40,73444,1,2,0:0:0:0:
308,208,73567,2,0,B|292:172|292:172|292:124,2,68.0000012969971,2|4|8,0:0|0:0|0:0,0:0:0:0:
240,288,73938,1,2,0:0:0:0:
400,156,74061,1,2,0:0:0:0:
432,232,74185,1,2,0:0:0:0:
489,90,74308,2,0,B|501:126|501:126|493:166,1,68.0000012969971,10|0,0:0|0:0,0:0:0:0:
400,156,74555,1,2,0:0:0:0:
400,156,74679,1,8,0:0:0:0:
420,40,74802,1,2,0:0:0:0:
488,172,74925,1,8,0:0:0:0:
472,316,75049,6,0,B|436:336|400:324|400:324|364:312|328:336,1,136.000002593994,2|8,0:0|0:0,0:0:0:0:
280,384,75419,1,2,0:0:0:0:
104,312,75543,2,0,L|20:332,1,68.0000012969971,2|4,0:0|0:0,0:0:0:0:
204,216,75790,2,0,L|124:232,1,68.0000012969971,8|2,0:0|0:0,0:0:0:0:
276,156,76037,2,0,P|292:188|292:236,1,68.0000012969971,0|2,0:0|0:0,0:0:0:0:
268,304,76283,1,8,0:0:0:0:
280,384,76407,1,2,0:0:0:0:
60,216,76530,2,0,B|70:190|70:190|100:163,1,68.0000012969971,2|0,0:0|0:0,0:0:0:0:
300,76,76777,2,0,L|212:80,1,68.0000012969971,10|0,0:0|0:0,0:0:0:0:
67,75,77024,6,0,P|43:127|111:159,1,136.000002593994,2|8,0:0|0:0,0:0:0:0:
392,104,77395,2,0,P|440:168|416:240,1,136.000002593994,2|0,0:0|0:0,0:0:0:0:
364,264,77765,1,8,0:0:0:0:
372,64,77888,2,0,P|448:104|472:176,1,136.000002593994,2|2,0:0|0:0,0:0:0:0:
448,296,78259,1,8,0:0:0:0:
476,368,78382,1,2,0:0:0:0:
300,216,78506,2,0,P|284:264|292:304,1,68.0000012969971,2|8,0:0|0:0,0:0:0:0:
184,384,78753,2,0,P|200:336|192:296,1,68.0000012969971,2|8,0:0|0:0,0:0:0:0:
104,116,79000,5,2,0:0:0:0:
104,116,79246,2,0,L|104:208,1,68.0000012969971,2|0,0:0|0:0,0:0:0:0:
120,340,79493,2,0,B|112:372|112:372|100:340,2,68.0000012969971,2|4|8,0:0|0:0|0:0,0:0:0:0:
184,160,79864,2,0,B|176:208|196:260|196:260|232:232,1,136.000002593994,2|2,0:0|0:0,0:0:0:0:
356,188,80234,1,8,0:0:0:0:
396,252,80358,1,2,0:0:0:0:
336,384,80481,2,0,P|296:324|300:256,1,136.000002593994,2|10,0:0|0:0,0:0:0:0:
500,104,80975,6,0,P|468:120|424:120,1,68.0000012969971,2|0,0:0|0:0,0:0:0:0:
300,64,81222,1,8,0:0:0:0:
300,64,81345,1,2,0:0:0:0:
180,200,81469,2,0,B|173:231|173:231|180:268,1,68.0000012969971,2|4,0:0|0:0,0:0:0:0:
297,262,81716,2,0,B|302:294|302:294|297:330,1,68.0000012969971,8|0,0:0|0:0,0:0:0:0:
96,332,81962,1,2,0:0:0:0:
96,332,82086,1,2,0:0:0:0:
96,332,82209,2,0,B|102:296|102:296|95:265,1,68.0000012969971,10|0,0:0|0:0,0:0:0:0:
48,144,82456,1,2,0:0:0:0:
22,209,82580,1,8,0:0:0:0:
124,63,82703,1,2,0:0:0:0:
157,122,82827,1,8,0:0:0:0:
276,36,82950,6,0,P|312:24|360:32,1,68.0000012969971,2|0,2:0|2:0,2:0:0:0:
324,100,83197,1,0,2:0:0:0:
340,120,83321,2,0,L|432:120,2,80,0|0|0,2:0|2:0|2:0,2:0:0:0:
248,212,83938,2,0,P|291:229|344:240,1,80,0|0,2:0|2:0,2:0:0:0:
488,200,84432,2,0,P|444:208|392:228,1,80,2|0,2:1|2:0,2:0:0:0:
60,364,84925,6,0,B|40:336|40:336|40:288,1,68.0000012969971,2|0,0:0|0:0,0:0:0:0:
68,196,85172,1,2,0:0:0:0:
324,48,85296,2,0,L|308:140,1,68.0000012969971,2|0,0:0|0:0,0:0:0:0:
212,280,85543,2,0,L|196:188,1,68.0000012969971,2|0,0:0|0:0,0:0:0:0:
448,112,85790,2,0,L|432:204,1,68.0000012969971,2|8,0:0|0:0,0:0:0:0:
336,344,86037,2,0,L|320:252,1,68.0000012969971,2|8,0:0|0:0,0:0:0:0:
428,120,86283,1,2,0:0:0:0:
232,176,86407,2,0,P|196:176|148:156,1,68.0000012969971,2|0,0:0|0:0,0:0:0:0:
444,52,86654,2,0,P|497:132|416:188,1,204.000003890991,2|0,0:0|0:0,0:0:0:0:
344,156,87148,5,2,0:0:0:0:
224,44,87271,2,0,B|181:44|181:44|132:60,1,68.0000012969971,2|0,0:0|0:0,0:0:0:0:
0,196,87518,2,0,B|39:197|39:197|80:184,1,68.0000012969971,2|0,0:0|0:0,0:0:0:0:
216,56,87765,1,2,0:0:0:0:
144,204,87888,2,0,L|156:292,1,68.0000012969971,2|0,0:0|0:0,0:0:0:0:
288,384,88135,2,0,L|297:316,1,68.0000012969971,2|0,0:0|0:0,0:0:0:0:
208,68,88382,2,0,L|220:156,1,68.0000012969971,2|0,0:0|0:0,0:0:0:0:
352,248,88629,2,0,L|361:180,1,68.0000012969971,2|0,0:0|0:0,0:0:0:0:
320,36,88876,6,0,B|360:56|360:56|396:60,1,68.0000012969971,2|0,0:0|0:0,0:0:0:0:
488,32,89123,1,2,0:0:0:0:
232,108,89246,2,0,L|332:116,1,68.0000012969971,2|0,0:0|0:0,0:0:0:0:
512,148,89493,2,0,L|428:144,1,68.0000012969971,2|0,0:0|0:0,0:0:0:0:
240,116,89740,1,2,0:0:0:0:
204,304,89987,1,2,0:0:0:0:
204,304,90111,2,0,P|200:268|164:220,1,68.0000012969971,2|0,0:0|0:0,0:0:0:0:
68,164,90358,1,2,0:0:0:0:
80,248,90481,1,8,0:0:0:0:
132,112,90604,1,2,0:0:0:0:
4,216,90728,1,8,0:0:0:0:
220,136,90851,6,0,P|200:56|128:24,1,136.000002593994,2|8,0:0|0:0,0:0:0:0:
188,216,91222,1,2,0:0:0:0:
188,216,91345,2,0,P|228:220|272:192,1,68.0000012969971,2|4,0:0|0:0,0:0:0:0:
300,80,91592,1,8,0:0:0:0:
368,192,91716,2,0,B|348:232|348:232|368:280|368:280|368:348,1,136.000002593994,2|2,0:0|0:0,0:0:0:0:
268,384,92086,1,8,0:0:0:0:
200,344,92209,1,2,0:0:0:0:
432,240,92333,2,0,B|444:272|444:272|440:332,1,68.0000012969971,2|0,0:0|0:0,0:0:0:0:
280,368,92580,2,0,L|284:288,1,68.0000012969971,10|0,0:0|0:0,0:0:0:0:
92,212,92827,6,0,P|140:260|212:242,1,136.000002593994,2|8,0:0|0:0,0:0:0:0:
160,56,93197,2,0,B|66:91|66:91|96:118,1,136.000002593994,2|2,0:0|0:0,0:0:0:0:
164,184,93567,1,8,0:0:0:0:
176,20,93691,2,0,L|28:80,1,136.000002593994,2|2,0:0|0:0,0:0:0:0:
76,200,94061,1,8,0:0:0:0:
52,272,94184,1,2,0:0:0:0:
136,376,94308,2,0,P|177:347|195:310,1,68.0000012969971,2|8,0:0|0:0,0:0:0:0:
214,141,94555,2,0,P|172:169|154:206,1,68.0000012969971,2|8,0:0|0:0,0:0:0:0:
288,344,94802,5,2,0:0:0:0:
296,336,95049,1,10,0:0:0:0:
304,328,95296,1,2,0:0:0:0:
312,320,95543,1,8,0:0:0:0:
400,216,95790,2,0,B|416:256|416:256|416:296,1,68.0000012969971,2|8,0:0|0:0,0:0:0:0:
320,148,96037,2,0,B|304:108|304:108|304:68,1,68.0000012969971,2|8,0:0|0:0,0:0:0:0:
456,160,96283,2,0,L|496:244,1,68.0000012969971,2|8,0:0|0:0,0:0:0:0:
260,196,96530,2,0,L|228:120,1,68.0000012969971,2|8,0:0|0:0,0:0:0:0:
336,272,96777,6,0,P|264:308|200:288,1,136.000002593994,2|8,0:0|0:0,0:0:0:0:
156,232,97148,1,2,0:0:0:0:
92,352,97271,2,0,L|92:276,1,68.0000012969971,2|4,0:0|0:0,0:0:0:0:
88,144,97518,1,8,0:0:0:0:
16,100,97642,2,0,P|8:176|60:220,1,136.000002593994,2|2,0:0|0:0,0:0:0:0:
172,220,98012,1,8,0:0:0:0:
172,220,98135,1,2,0:0:0:0:
264,96,98259,2,0,B|304:100|304:100|352:124,1,68.0000012969971,2|0,0:0|0:0,0:0:0:0:
376,280,98506,2,0,L|312:252,1,68.0000012969971,10|0,0:0|0:0,0:0:0:0:
480,244,98753,6,0,P|484:320|431:377,1,136.000002593994,2|8,0:0|0:0,0:0:0:0:
450,365,99123,1,2,0:0:0:0:
372,260,99246,2,0,L|384:180,2,68.0000012969971,2|4|8,0:0|0:0|0:0,0:0:0:0:
284,368,99617,2,0,B|292:324|292:324|276:284|276:284|284:216,1,136.000002593994,2|2,0:0|0:0,0:0:0:0:
316,140,99987,1,8,0:0:0:0:
316,140,100111,1,2,0:0:0:0:
208,192,100234,2,0,P|164:196|124:188,1,68.0000012969971,2|8,0:0|0:0,0:0:0:0:
68,144,100481,2,0,P|24:140|-16:148,1,68.0000012969971,2|8,0:0|0:0,0:0:0:0:
40,356,100728,6,0,P|56:284|28:216,1,136.000002593994,2|8,0:0|0:0,0:0:0:0:
68,244,101098,1,2,0:0:0:0:
141,225,101221,1,2,0:0:0:0:
181,158,101344,1,4,0:0:0:0:
161,84,101468,1,8,0:0:0:0:
94,46,101591,1,2,0:0:0:0:
176,76,101716,2,0,B|208:80|208:80|256:68,2,68.0000012969971,0|2|8,0:0|0:0|0:0,0:0:0:0:
204,0,102086,1,2,0:0:0:0:
280,136,102209,2,0,L|348:116,1,68.0000012969971,2|0,0:0|0:0,0:0:0:0:
504,136,102456,2,0,L|438:155,1,68.0000012969971,10|0,0:0|0:0,0:0:0:0:
320,256,102703,6,0,P|400:244|456:292,1,136.000002593994,2|8,0:0|0:0,0:0:0:0:
376,324,103074,1,2,0:0:0:0:
240,276,103197,2,0,P|252:212|284:184,1,68.0000012969971,2|4,0:0|0:0,0:0:0:0:
268,356,103444,2,0,P|236:360|168:328,1,68.0000012969971,8|2,0:0|0:0,0:0:0:0:
140,208,103691,2,0,L|160:284,1,68.0000012969971,0|2,0:0|0:0,0:0:0:0:
42,336,103938,2,0,L|64:272,1,68.0000012969971,8|2,0:0|0:0,0:0:0:0:
112,120,104185,1,2,0:0:0:0:
112,120,104308,1,2,0:0:0:0:
112,120,104432,2,0,B|72:136|72:136|20:136,1,68.0000012969971,2|10,0:0|0:0,0:0:0:0:
196,16,104679,5,2,0:0:0:0:
400,44,104925,2,0,L|444:44,2,34.0000006484985,10|0|0,0:0|0:0|0:0,0:0:0:0:
240,92,105172,1,2,0:0:0:0:
240,92,105234,1,0,0:0:0:0:
240,92,105296,1,0,0:0:0:0:
392,136,105419,2,0,L|436:136,2,34.0000006484985,10|0|0,0:0|0:0|0:0,0:0:0:0:
244,192,105666,2,0,L|200:192,2,34.0000006484985,2|0|0,0:0|0:0|0:0,0:0:0:0:
356,232,105913,2,0,L|400:232,2,34.0000006484985,10|0|0,0:0|0:0|0:0,0:0:0:0:
296,304,106160,1,2,0:0:0:0:
296,304,106222,1,0,0:0:0:0:
296,304,106284,1,0,0:0:0:0:
316,72,106407,2,0,B|320:100|320:100|312:128|312:128|316:152,1,68.0000012969971,10|0,0:0|0:0,0:0:0:0:
460,272,106654,6,0,B|468:232|468:232|460:196,1,68.0000012969971,2|2,0:0|0:0,0:0:0:0:
231,125,106901,2,0,L|247:209,1,68.0000012969971,10|2,0:0|0:0,0:0:0:0:
376,376,107148,2,0,B|384:336|384:336|376:300,1,68.0000012969971,2|2,0:0|0:0,0:0:0:0:
147,229,107395,2,0,L|163:313,1,68.0000012969971,10|2,0:0|0:0,0:0:0:0:
276,332,107642,6,2,L|324:340,2,34.0000006484985
72,288,107888,6,2,L|24:296,2,34.0000006484985,10|2|2,0:0|0:0|0:0,0:0:0:0:
196,160,108135,2,2,L|232:132,1,34.0000006484985
196,128,108259,2,2,L|232:100,1,34.0000006484985
196,96,108382,2,2,L|232:68,1,34.0000006484985
196,64,108506,2,2,L|232:36,1,34.0000006484985
80,192,108629,6,0,B|124:228|124:228|144:216|144:216|192:256|240:232|264:196,1,204.000003890991,2|8,0:0|0:0,0:0:0:0:
196,64,109370,1,2,0:0:0:0:
384,152,109617,2,0,P|407:56|344:101,2,204.000003890991,2|8|2,0:0|0:0|0:0,0:0:0:0:
228,132,111098,6,0,P|148:168|208:320,1,272.000005187988,2|0,0:0|0:0,0:0:0:0:
212,328,111716,2,0,L|96:320,2,102.000001945496,0|0|2,2:0|2:0|2:0,2:0:0:0:
472,300,112580,6,0,B|404:280|404:280|324:284,1,136.000002593994,2|8,0:0|0:0,0:0:0:0:
232,228,112950,1,2,0:0:0:0:
292,328,113074,2,0,L|368:320,1,68.0000012969971,2|8,0:0|0:0,0:0:0:0:
468,232,113321,2,0,L|400:239,1,68.0000012969971,2|8,0:0|0:0,0:0:0:0:
284,156,113567,2,0,P|304:84|372:56,1,136.000002593994,2|8,0:0|0:0,0:0:0:0:
368,140,113938,1,2,0:0:0:0:
208,112,114061,2,0,B|168:112|168:112|128:128,1,68.0000012969971,2|8,0:0|0:0,0:0:0:0:
52,92,114308,1,2,0:0:0:0:
52,92,114432,1,8,0:0:0:0:
256,192,114555,12,0,115419,0:0:0:0:
216,160,115707,6,0,B|240:116|240:116|240:56,1,90.6666683959961,10|10,0:0|0:0,0:0:0:0:
248,344,116037,1,10,0:0:0:0:
