osu file format v14

[General]
AudioFilename: audio.mp3
AudioLeadIn: 0
PreviewTime: 67564
Countdown: 0
SampleSet: Normal
StackLeniency: 0.7
Mode: 3
LetterboxInBreaks: 0
SpecialStyle: 0
WidescreenStoryboard: 0

[Editor]
Bookmarks: 23219,35827,50176,67567,92784,120611,127349,133219,147567,164958,190067,204088,220610,245719,268219
DistanceSpacing: 0.9
BeatDivisor: 16
GridSize: 8
TimelineZoom: 5.039999

[Metadata]
Title:Romancing Fiction Life! (twiples ver.)
TitleUnicode:ロマンシングフィクションライフ!(twiples ver.)
Artist:Yu_Asahina + penoreri feat. mikanzil
ArtistUnicode:Yu_Asahina + ぺのれり feat. みかん汁
Creator:Xnery
Version:A Dream Come True
Source:
Tags:featured artist fa mappers' guild mg mpg from the grave priority quest orangentle 三好啓太 miyoshi keita 月島春果 tsukishima haruka mikanjiru juicy_ringo コミックマーケット92 C92 Comiket 92 Comic Market 92 コミケ92 KLAMNOP NEXT WONDERLAND TRAVELERS NEXT-003 KLAMNOP 10th ANNIVERSARY BEST NEXT-BST M3-2021秋 M3-2021 Fall M3-48 jpop j-pop japanese pop female vocals
BeatmapID:3134316
BeatmapSetID:1532633

[Difficulty]
HPDrainRate:8
CircleSize:5
OverallDifficulty:7.4
ApproachRate:5
SliderMultiplier:1.4
SliderTickRate:1

[Events]
//Background and Video events
0,0,"romancing.jpg",0,0
//Break Periods
//Storyboard Layer 0 (Background)
//Storyboard Layer 1 (Fail)
//Storyboard Layer 2 (Pass)
//Storyboard Layer 3 (Foreground)
//Storyboard Layer 4 (Overlay)
//Storyboard Sound Samples

[TimingPoints]
1155,326.086956521739,3,1,1,80,1,0
1155,-66.6666666666667,3,1,1,80,0,0
3763,355.029585798817,3,1,1,80,1,8
3763,-61.3496932515337,3,1,1,80,0,8
4118,372.670807453416,3,1,1,80,1,0
4118,-58.4795321637427,3,1,1,80,0,0
4845,421.052631578947,4,1,1,80,1,8
4845,-51.5463917525773,4,1,1,80,0,8
5793,416.666666666667,4,1,1,80,1,0
5793,-52.0833333333333,4,1,1,80,0,0
6209,434.782608695652,4,1,1,80,1,8
6209,-50,4,1,1,80,0,8
6698,217.391304347826,4,1,1,80,1,8
7567,217.391304347826,4,1,1,80,1,0
9306,217.391304347826,4,1,1,80,1,0
68436,-100,4,1,1,80,0,1
92675,-100,4,1,1,80,0,0
165827,-100,4,1,1,80,0,1
190066,-100,4,1,1,80,0,0
221479,-100,4,1,1,80,0,1
245719,-100,4,1,1,80,0,0
246099,-100,4,1,1,80,0,1
268219,217.391304347826,4,1,1,80,1,0
268219,-100,4,1,1,80,0,0
268871,253.164556962025,4,1,1,80,1,8
268871,-86.2068965517241,4,1,1,80,0,8
269124,309.278350515464,4,1,1,80,1,8
269124,-70.4225352112676,4,1,1,80,0,8
269433,365.853658536585,4,1,1,80,1,0
269433,-59.5238095238095,4,1,1,80,0,0
270164,315.78947368421,4,1,1,80,1,8
270164,-68.9655172413793,4,1,1,80,0,8
270479,344.827586206896,4,1,1,80,1,8
270479,-62.8930817610063,4,1,1,80,0,8
270784,508.474576271186,4,1,1,80,1,8
270784,-42.7350427350427,4,1,1,80,0,8
270911,413.793103448276,4,1,1,80,1,8
270911,-52.6315789473684,4,1,1,80,0,8
271195,422.535211267606,4,1,1,80,1,8
271195,-51.5463917525773,4,1,1,80,0,8
271353,400,4,1,1,80,1,8
271353,-54.3478260869565,4,1,1,80,0,8
271553,294.117647058824,4,1,1,80,1,8
271553,-74.0740740740741,4,1,1,80,0,8
271773,316.622691292876,4,1,1,80,1,8
271773,-68.4931506849315,4,1,1,80,0,8
272089,242.914979757085,4,1,1,80,1,8
272089,-89.2857142857143,4,1,1,80,0,8
272331,242.914979757085,4,1,1,80,1,8
272331,-89.2857142857143,4,1,1,80,0,8
273892,437.956204379562,4,1,1,80,1,8
273892,-49.7512437810945,4,1,1,80,0,8
274329,634.920634920635,4,1,1,80,1,8
274329,-34.2465753424658,4,1,1,80,0,8
274646,472.44094488189,4,1,1,80,1,8
274646,-46.0829493087558,4,1,1,80,0,8
275590,384.615384615385,4,1,1,80,1,8
275590,-56.4971751412429,4,1,1,80,0,8
275782,338.983050847458,4,1,1,80,1,8
275782,-64.1025641025641,4,1,1,80,0,8
276120,350.877192982456,4,1,1,80,1,8
276120,-62.111801242236,4,1,1,80,0,8
277523,395.387149917628,4,1,1,80,1,8
277523,-54.9450549450549,4,1,1,80,0,8
277918,375,4,1,1,80,1,0
277918,-57.8034682080925,4,1,1,80,0,0
278293,437.956204379562,4,1,1,80,1,8
278293,-49.7512437810945,4,1,1,80,0,8
278730,608.519269776876,4,1,1,80,1,8
278730,-35.7142857142857,4,1,1,80,0,8
279338,442.3800044238,4,1,1,80,1,0
279338,-49.2610837438424,4,1,1,80,0,0
285088,375,4,1,1,80,1,8
285088,-57.8034682080925,4,1,1,80,0,8

[HitObjects]
51,192,910,128,0,991:0:0:0:0:
153,192,991,128,0,1073:0:0:0:0:
358,192,1073,128,0,1155:0:0:0:0:
460,192,1155,128,0,1481:0:0:0:0:
256,192,1155,1,0,0:0:0:0:
358,192,1481,128,0,1807:0:0:0:0:
153,192,1807,128,0,2133:0:0:0:0:
51,192,2133,128,0,2459:0:0:0:0:
153,192,2459,128,0,2765:0:0:0:0:
256,192,2765,1,0,0:0:0:0:
358,192,2846,128,0,3111:0:0:0:0:
256,192,3111,128,0,3437:0:0:0:0:
153,192,3437,128,0,3763:0:0:0:0:
256,192,3763,128,0,4118:0:0:0:0:
358,192,4118,1,0,0:0:0:0:
460,192,4211,128,0,4490:0:0:0:0:
153,192,4407,1,0,0:0:0:0:
358,192,4490,128,0,6562:0:0:0:0:
256,192,4614,1,0,0:0:0:0:
51,192,5002,1,0,0:0:0:0:
153,192,5055,1,0,0:0:0:0:
256,192,5108,1,0,0:0:0:0:
51,192,5252,1,0,0:0:0:0:
153,192,5476,1,0,0:0:0:0:
256,192,5669,1,0,0:0:0:0:
51,192,5793,1,0,0:0:0:0:
460,192,5897,1,0,0:0:0:0:
51,192,6209,1,0,0:0:0:0:
51,192,6562,1,0,0:0:0:0:
256,192,6643,1,0,0:0:0:0:
460,192,6698,1,0,0:0:0:0:
153,192,6698,1,0,0:0:0:0:
358,192,6806,1,0,0:0:0:0:
460,192,7024,1,0,0:0:0:0:
51,192,7024,1,0,0:0:0:0:
358,192,7078,1,0,0:0:0:0:
256,192,7132,1,0,0:0:0:0:
153,192,7187,1,0,0:0:0:0:
51,192,7241,128,0,7323:0:0:0:0:
153,192,7323,128,0,7404:0:0:0:0:
256,192,7404,128,0,7486:0:0:0:0:
358,192,7486,128,0,7567:0:0:0:0:
153,192,7567,1,0,0:0:0:0:
460,192,7567,128,0,7675:0:0:0:0:
51,192,7567,1,0,0:0:0:0:
358,192,7730,1,0,0:0:0:0:
51,192,7784,128,0,7838:0:0:0:0:
256,192,7784,1,0,0:0:0:0:
51,192,8001,128,0,8056:0:0:0:0:
256,192,8001,1,0,0:0:0:0:
153,192,8110,128,0,8164:0:0:0:0:
460,192,8219,1,0,0:0:0:0:
358,192,8327,128,0,8545:0:0:0:0:
51,192,8545,1,0,0:0:0:0:
256,192,8545,128,0,8681:0:0:0:0:
153,192,8681,128,0,8735:0:0:0:0:
460,192,8871,128,0,9197:0:0:0:0:
256,192,8871,1,0,0:0:0:0:
358,192,8871,1,0,0:0:0:0:
153,192,9197,1,0,0:0:0:0:
51,192,9197,128,0,9306:0:0:0:0:
358,192,9306,128,0,9360:0:0:0:0:
460,192,9523,1,0,0:0:0:0:
358,192,9632,1,0,0:0:0:0:
153,192,9740,128,0,9795:0:0:0:0:
460,192,9958,1,0,0:0:0:0:
153,192,10066,1,0,0:0:0:0:
256,192,10175,128,0,10229:0:0:0:0:
460,192,10392,1,0,0:0:0:0:
256,192,10501,1,0,0:0:0:0:
51,192,10610,128,0,10664:0:0:0:0:
460,192,10827,1,0,0:0:0:0:
51,192,10936,1,0,0:0:0:0:
358,192,11045,128,0,11099:0:0:0:0:
460,192,11262,1,0,0:0:0:0:
358,192,11371,1,0,0:0:0:0:
153,192,11479,128,0,11534:0:0:0:0:
460,192,11697,1,0,0:0:0:0:
153,192,11806,1,0,0:0:0:0:
256,192,11914,128,0,11969:0:0:0:0:
460,192,12132,1,0,0:0:0:0:
256,192,12240,1,0,0:0:0:0:
51,192,12349,128,0,12403:0:0:0:0:
460,192,12566,1,0,0:0:0:0:
153,192,12675,1,0,0:0:0:0:
460,192,12784,128,0,14523:0:0:0:0:
358,192,12784,128,0,12838:0:0:0:0:
51,192,13001,1,0,0:0:0:0:
256,192,13110,1,0,0:0:0:0:
153,192,13219,128,0,13273:0:0:0:0:
358,192,13436,1,0,0:0:0:0:
51,192,13545,1,0,0:0:0:0:
256,192,13653,128,0,13708:0:0:0:0:
153,192,13871,1,0,0:0:0:0:
358,192,13979,1,0,0:0:0:0:
51,192,14088,128,0,14142:0:0:0:0:
153,192,14305,1,0,0:0:0:0:
256,192,14378,1,0,0:0:0:0:
358,192,14469,1,0,0:0:0:0:
51,192,14523,1,0,0:0:0:0:
153,192,14523,1,0,0:0:0:0:
256,192,14632,1,0,0:0:0:0:
358,192,14632,1,0,0:0:0:0:
51,192,14835,1,0,0:0:0:0:
153,192,14835,1,0,0:0:0:0:
460,192,14958,1,0,0:0:0:0:
256,192,14958,1,0,0:0:0:0:
51,192,15161,1,0,0:0:0:0:
153,192,15161,1,0,0:0:0:0:
460,192,15284,1,0,0:0:0:0:
358,192,15284,1,0,0:0:0:0:
51,192,15483,1,0,0:0:0:0:
153,192,15483,1,0,0:0:0:0:
460,192,15610,1,0,0:0:0:0:
358,192,15664,1,0,0:0:0:0:
256,192,15719,1,0,0:0:0:0:
51,192,15814,1,0,0:0:0:0:
153,192,15814,1,0,0:0:0:0:
460,192,15936,1,0,0:0:0:0:
358,192,16153,1,0,0:0:0:0:
256,192,16153,1,0,0:0:0:0:
460,192,16153,1,0,0:0:0:0:
51,192,16371,128,0,16425:0:0:0:0:
153,192,16371,128,0,16425:0:0:0:0:
358,192,16479,1,0,0:0:0:0:
460,192,16479,1,0,0:0:0:0:
153,192,16697,128,0,16914:0:0:0:0:
51,192,16697,128,0,16914:0:0:0:0:
358,192,16914,1,0,0:0:0:0:
460,192,16914,1,0,0:0:0:0:
153,192,17132,128,0,17349:0:0:0:0:
51,192,17132,128,0,17349:0:0:0:0:
358,192,17349,1,0,0:0:0:0:
460,192,17349,1,0,0:0:0:0:
51,192,17458,128,0,17512:0:0:0:0:
153,192,17458,128,0,17512:0:0:0:0:
256,192,17566,1,0,0:0:0:0:
153,192,17675,128,0,17729:0:0:0:0:
51,192,17675,128,0,17729:0:0:0:0:
358,192,17784,1,0,0:0:0:0:
460,192,17784,1,0,0:0:0:0:
153,192,17892,128,0,17947:0:0:0:0:
51,192,17892,128,0,17947:0:0:0:0:
153,192,18110,128,0,18164:0:0:0:0:
51,192,18110,128,0,18164:0:0:0:0:
358,192,18219,1,0,0:0:0:0:
460,192,18219,1,0,0:0:0:0:
153,192,18436,128,0,18653:0:0:0:0:
51,192,18436,128,0,18653:0:0:0:0:
460,192,18653,1,0,0:0:0:0:
358,192,18653,1,0,0:0:0:0:
51,192,18871,128,0,19088:0:0:0:0:
153,192,18871,128,0,19088:0:0:0:0:
358,192,19088,1,0,0:0:0:0:
460,192,19088,1,0,0:0:0:0:
51,192,19197,128,0,19251:0:0:0:0:
153,192,19197,128,0,19251:0:0:0:0:
256,192,19305,1,0,0:0:0:0:
153,192,19414,128,0,19469:0:0:0:0:
51,192,19414,128,0,19469:0:0:0:0:
358,192,19523,1,0,0:0:0:0:
460,192,19523,1,0,0:0:0:0:
51,192,19632,128,0,19686:0:0:0:0:
153,192,19632,128,0,19686:0:0:0:0:
153,192,19849,128,0,19903:0:0:0:0:
51,192,19849,128,0,19903:0:0:0:0:
358,192,19958,1,0,0:0:0:0:
460,192,19958,1,0,0:0:0:0:
153,192,20175,128,0,20392:0:0:0:0:
51,192,20175,128,0,20392:0:0:0:0:
358,192,20392,1,0,0:0:0:0:
460,192,20392,1,0,0:0:0:0:
153,192,20610,128,0,20827:0:0:0:0:
51,192,20610,128,0,20827:0:0:0:0:
358,192,20827,1,0,0:0:0:0:
460,192,20827,1,0,0:0:0:0:
153,192,20936,128,0,20990:0:0:0:0:
51,192,20936,128,0,20990:0:0:0:0:
256,192,21045,1,0,0:0:0:0:
153,192,21153,128,0,21208:0:0:0:0:
51,192,21153,128,0,21208:0:0:0:0:
460,192,21262,1,0,0:0:0:0:
153,192,21334,1,0,0:0:0:0:
358,192,21407,1,0,0:0:0:0:
153,192,21479,128,0,21697:0:0:0:0:
51,192,21479,128,0,21697:0:0:0:0:
256,192,21479,1,0,0:0:0:0:
153,192,21805,128,0,21860:0:0:0:0:
51,192,21805,128,0,21860:0:0:0:0:
153,192,22132,128,0,22458:0:0:0:0:
460,192,22132,128,0,22458:0:0:0:0:
460,192,22566,128,0,22621:0:0:0:0:
153,192,22566,128,0,22784:0:0:0:0:
358,192,22784,1,0,0:0:0:0:
460,192,22784,1,0,0:0:0:0:
51,192,22892,128,0,23219:0:0:0:0:
153,192,22892,1,0,0:0:0:0:
256,192,22892,128,0,23219:0:0:0:0:
358,192,23219,128,0,23871:0:0:0:0:
153,192,23219,1,0,0:0:0:0:
460,192,23219,1,0,0:0:0:0:
51,192,23545,1,0,0:0:0:0:
153,192,23653,1,0,0:0:0:0:
153,192,23979,1,0,0:0:0:0:
460,192,24088,128,0,24360:0:0:0:0:
51,192,24088,1,0,0:0:0:0:
51,192,24360,1,0,0:0:0:0:
153,192,24414,128,0,24632:0:0:0:0:
358,192,24523,1,0,0:0:0:0:
256,192,24632,128,0,24849:0:0:0:0:
358,192,24849,128,0,25392:0:0:0:0:
51,192,24958,128,0,25610:0:0:0:0:
256,192,25284,1,0,0:0:0:0:
153,192,25392,1,0,0:0:0:0:
358,192,25610,128,0,25827:0:0:0:0:
153,192,25719,1,0,0:0:0:0:
256,192,25827,128,0,26045:0:0:0:0:
153,192,26045,128,0,26262:0:0:0:0:
358,192,26153,1,0,0:0:0:0:
51,192,26262,128,0,26479:0:0:0:0:
153,192,26479,128,0,26697:0:0:0:0:
256,192,26588,1,0,0:0:0:0:
358,192,26697,128,0,26969:0:0:0:0:
460,192,26697,128,0,27349:0:0:0:0:
256,192,27023,128,0,27295:0:0:0:0:
51,192,27132,1,0,0:0:0:0:
153,192,27349,128,0,27566:0:0:0:0:
358,192,27458,1,0,0:0:0:0:
51,192,27566,1,0,0:0:0:0:
51,192,27784,128,0,28001:0:0:0:0:
358,192,27892,1,0,0:0:0:0:
153,192,28001,128,0,28219:0:0:0:0:
256,192,28219,128,0,28327:0:0:0:0:
51,192,28327,1,0,0:0:0:0:
153,192,28436,128,0,29088:0:0:0:0:
460,192,28436,128,0,28653:0:0:0:0:
460,192,28762,128,0,29034:0:0:0:0:
358,192,28871,1,0,0:0:0:0:
256,192,29088,128,0,29523:0:0:0:0:
51,192,29197,1,0,0:0:0:0:
358,192,29305,1,0,0:0:0:0:
153,192,29523,128,0,29740:0:0:0:0:
358,192,29632,1,0,0:0:0:0:
256,192,29740,1,0,0:0:0:0:
358,192,29849,128,0,30175:0:0:0:0:
460,192,29849,1,0,0:0:0:0:
51,192,29958,1,0,0:0:0:0:
153,192,29958,1,0,0:0:0:0:
256,192,30066,1,0,0:0:0:0:
153,192,30175,1,0,0:0:0:0:
51,192,30175,1,0,0:0:0:0:
460,192,30175,128,0,30610:0:0:0:0:
256,192,30501,1,0,0:0:0:0:
153,192,30610,1,0,0:0:0:0:
256,192,30827,128,0,31045:0:0:0:0:
153,192,30936,1,0,0:0:0:0:
460,192,31045,128,0,31262:0:0:0:0:
51,192,31262,1,0,0:0:0:0:
153,192,31371,128,0,31588:0:0:0:0:
358,192,31479,1,0,0:0:0:0:
256,192,31588,128,0,31805:0:0:0:0:
358,192,31805,128,0,32240:0:0:0:0:
51,192,31914,128,0,32349:0:0:0:0:
256,192,32240,1,0,0:0:0:0:
153,192,32349,1,0,0:0:0:0:
256,192,32566,128,0,32675:0:0:0:0:
460,192,32566,128,0,32675:0:0:0:0:
153,192,32784,128,0,32892:0:0:0:0:
358,192,32784,128,0,32892:0:0:0:0:
256,192,33001,128,0,33110:0:0:0:0:
51,192,33001,128,0,33110:0:0:0:0:
153,192,33219,128,0,33327:0:0:0:0:
51,192,33327,1,0,0:0:0:0:
460,192,33545,128,0,35284:0:0:0:0:
358,192,33545,128,0,35284:0:0:0:0:
153,192,33653,1,0,0:0:0:0:
51,192,33653,1,0,0:0:0:0:
256,192,33653,1,0,0:0:0:0:
153,192,33979,1,0,0:0:0:0:
51,192,34305,1,0,0:0:0:0:
256,192,34305,1,0,0:0:0:0:
256,192,34740,1,0,0:0:0:0:
51,192,34849,1,0,0:0:0:0:
153,192,35066,1,0,0:0:0:0:
256,192,35284,1,0,0:0:0:0:
51,192,35284,1,0,0:0:0:0:
256,192,35501,1,0,0:0:0:0:
460,192,35501,1,0,0:0:0:0:
358,192,35501,1,0,0:0:0:0:
358,192,35719,1,0,0:0:0:0:
153,192,35719,1,0,0:0:0:0:
51,192,35827,128,0,36262:0:0:0:0:
460,192,35882,1,0,0:0:0:0:
358,192,35963,1,0,0:0:0:0:
256,192,36031,1,0,0:0:0:0:
153,192,36113,1,0,0:0:0:0:
460,192,36180,1,0,0:0:0:0:
153,192,36262,128,0,36697:0:0:0:0:
358,192,36262,1,0,0:0:0:0:
51,192,36479,1,0,0:0:0:0:
256,192,36479,1,0,0:0:0:0:
460,192,36479,1,0,0:0:0:0:
358,192,36697,128,0,37023:0:0:0:0:
153,192,36805,1,0,0:0:0:0:
51,192,36805,1,0,0:0:0:0:
153,192,37023,128,0,37240:0:0:0:0:
256,192,37023,1,0,0:0:0:0:
460,192,37023,128,0,37240:0:0:0:0:
256,192,37240,1,0,0:0:0:0:
51,192,37349,128,0,37566:0:0:0:0:
460,192,37349,1,0,0:0:0:0:
153,192,37566,128,0,37784:0:0:0:0:
358,192,37784,1,0,0:0:0:0:
51,192,37784,1,0,0:0:0:0:
256,192,38001,128,0,38436:0:0:0:0:
460,192,38219,1,0,0:0:0:0:
153,192,38219,1,0,0:0:0:0:
51,192,38327,128,0,38436:0:0:0:0:
358,192,38436,128,0,38653:0:0:0:0:
153,192,38545,1,0,0:0:0:0:
256,192,38653,1,0,0:0:0:0:
51,192,38653,1,0,0:0:0:0:
460,192,38762,128,0,39088:0:0:0:0:
153,192,38979,1,0,0:0:0:0:
256,192,39088,1,0,0:0:0:0:
51,192,39088,1,0,0:0:0:0:
358,192,39305,128,0,39523:0:0:0:0:
153,192,39523,1,0,0:0:0:0:
460,192,39523,1,0,0:0:0:0:
256,192,39740,128,0,40175:0:0:0:0:
51,192,39958,128,0,40175:0:0:0:0:
358,192,39958,1,0,0:0:0:0:
153,192,40175,1,0,0:0:0:0:
358,192,40284,128,0,40501:0:0:0:0:
256,192,40392,1,0,0:0:0:0:
51,192,40392,1,0,0:0:0:0:
153,192,40501,128,0,40719:0:0:0:0:
460,192,40501,128,0,40719:0:0:0:0:
256,192,40719,1,0,0:0:0:0:
51,192,40827,128,0,41045:0:0:0:0:
358,192,40827,1,0,0:0:0:0:
153,192,41045,128,0,41262:0:0:0:0:
358,192,41262,1,0,0:0:0:0:
460,192,41262,1,0,0:0:0:0:
51,192,41371,128,0,41479:0:0:0:0:
256,192,41479,128,0,41914:0:0:0:0:
153,192,41588,128,0,41697:0:0:0:0:
460,192,41697,1,0,0:0:0:0:
51,192,41697,1,0,0:0:0:0:
358,192,41805,128,0,41914:0:0:0:0:
460,192,41914,128,0,42132:0:0:0:0:
153,192,42023,128,0,42132:0:0:0:0:
51,192,42132,1,0,0:0:0:0:
358,192,42132,1,0,0:0:0:0:
256,192,42240,1,0,0:0:0:0:
460,192,42349,1,0,0:0:0:0:
358,192,42349,128,0,42566:0:0:0:0:
153,192,42349,1,0,0:0:0:0:
256,192,42566,128,0,42784:0:0:0:0:
51,192,42566,1,0,0:0:0:0:
358,192,42784,1,0,0:0:0:0:
153,192,42784,128,0,42892:0:0:0:0:
460,192,42784,1,0,0:0:0:0:
51,192,42892,128,0,43110:0:0:0:0:
358,192,43001,1,0,0:0:0:0:
153,192,43001,1,0,0:0:0:0:
460,192,43110,128,0,43436:0:0:0:0:
256,192,43110,1,0,0:0:0:0:
256,192,43327,1,0,0:0:0:0:
51,192,43436,128,0,43653:0:0:0:0:
358,192,43545,1,0,0:0:0:0:
153,192,43653,128,0,43708:0:0:0:0:
358,192,43762,128,0,43816:0:0:0:0:
256,192,43979,128,0,44197:0:0:0:0:
51,192,43979,128,0,44305:0:0:0:0:
153,192,43979,1,0,0:0:0:0:
358,192,44197,1,0,0:0:0:0:
460,192,44305,1,0,0:0:0:0:
153,192,44305,128,0,44523:0:0:0:0:
256,192,44523,128,0,44632:0:0:0:0:
358,192,44632,128,0,44740:0:0:0:0:
51,192,44740,1,0,0:0:0:0:
460,192,44740,1,0,0:0:0:0:
153,192,44849,128,0,45066:0:0:0:0:
460,192,44958,1,0,0:0:0:0:
256,192,45066,1,0,0:0:0:0:
358,192,45175,1,0,0:0:0:0:
460,192,45175,1,0,0:0:0:0:
51,192,45392,128,0,45610:0:0:0:0:
256,192,45501,1,0,0:0:0:0:
153,192,45610,128,0,45827:0:0:0:0:
460,192,45610,1,0,0:0:0:0:
256,192,45827,1,0,0:0:0:0:
358,192,45827,128,0,46045:0:0:0:0:
460,192,45827,1,0,0:0:0:0:
153,192,46045,128,0,46262:0:0:0:0:
51,192,46045,1,0,0:0:0:0:
256,192,46262,128,0,46479:0:0:0:0:
358,192,46371,1,0,0:0:0:0:
460,192,46479,128,0,46697:0:0:0:0:
153,192,46479,1,0,0:0:0:0:
51,192,46588,1,0,0:0:0:0:
256,192,46588,1,0,0:0:0:0:
358,192,46697,1,0,0:0:0:0:
256,192,46765,1,0,0:0:0:0:
153,192,46833,1,0,0:0:0:0:
460,192,46896,1,0,0:0:0:0:
256,192,46982,1,0,0:0:0:0:
51,192,47050,1,0,0:0:0:0:
460,192,47132,1,0,0:0:0:0:
153,192,47132,1,0,0:0:0:0:
358,192,47132,128,0,47349:0:0:0:0:
51,192,47349,1,0,0:0:0:0:
460,192,47349,1,0,0:0:0:0:
153,192,47458,128,0,47566:0:0:0:0:
256,192,47458,128,0,47566:0:0:0:0:
358,192,47458,128,0,47566:0:0:0:0:
51,192,47784,1,0,0:0:0:0:
153,192,47905,1,0,0:0:0:0:
256,192,48001,1,0,0:0:0:0:
358,192,48122,1,0,0:0:0:0:
153,192,48339,1,0,0:0:0:0:
256,192,48557,1,0,0:0:0:0:
358,192,48774,1,0,0:0:0:0:
460,192,48871,1,0,0:0:0:0:
460,192,49070,1,0,0:0:0:0:
358,192,49156,1,0,0:0:0:0:
153,192,49224,1,0,0:0:0:0:
256,192,49287,1,0,0:0:0:0:
51,192,49287,1,0,0:0:0:0:
153,192,49487,128,0,49740:0:0:0:0:
358,192,49523,128,0,49740:0:0:0:0:
460,192,49523,128,0,49740:0:0:0:0:
153,192,49849,128,0,50012:0:0:0:0:
358,192,49849,128,0,50012:0:0:0:0:
460,192,49849,128,0,50012:0:0:0:0:
153,192,50175,1,0,0:0:0:0:
358,192,50175,1,0,0:0:0:0:
460,192,50175,128,0,50515:0:0:0:0:
153,192,50297,1,0,0:0:0:0:
51,192,50297,1,0,0:0:0:0:
358,192,50392,1,0,0:0:0:0:
256,192,50474,1,0,0:0:0:0:
153,192,50515,1,0,0:0:0:0:
51,192,50610,128,0,50936:0:0:0:0:
358,192,50610,128,0,50936:0:0:0:0:
460,192,50719,1,0,0:0:0:0:
153,192,50719,1,0,0:0:0:0:
153,192,50936,128,0,51479:0:0:0:0:
256,192,50936,1,0,0:0:0:0:
460,192,50936,1,0,0:0:0:0:
256,192,51262,1,0,0:0:0:0:
51,192,51479,1,0,0:0:0:0:
358,192,51479,1,0,0:0:0:0:
256,192,51697,128,0,51914:0:0:0:0:
358,192,51914,128,0,52132:0:0:0:0:
153,192,52132,128,0,52349:0:0:0:0:
256,192,52240,1,0,0:0:0:0:
358,192,52349,1,0,0:0:0:0:
51,192,52349,1,0,0:0:0:0:
460,192,52458,128,0,52675:0:0:0:0:
51,192,52675,128,0,52892:0:0:0:0:
460,192,52784,1,0,0:0:0:0:
51,192,53001,1,0,0:0:0:0:
153,192,53219,1,0,0:0:0:0:
358,192,53219,1,0,0:0:0:0:
256,192,53436,128,0,53653:0:0:0:0:
460,192,53653,128,0,54088:0:0:0:0:
51,192,53871,1,0,0:0:0:0:
256,192,53979,1,0,0:0:0:0:
153,192,54088,128,0,54305:0:0:0:0:
358,192,54088,1,0,0:0:0:0:
51,192,54414,128,0,54740:0:0:0:0:
256,192,54414,1,0,0:0:0:0:
358,192,54414,1,0,0:0:0:0:
153,192,54740,128,0,54958:0:0:0:0:
256,192,54958,128,0,55175:0:0:0:0:
460,192,54958,1,0,0:0:0:0:
358,192,55175,128,0,55392:0:0:0:0:
256,192,55392,128,0,55827:0:0:0:0:
51,192,55392,128,0,55827:0:0:0:0:
153,192,55392,1,0,0:0:0:0:
460,192,55719,1,0,0:0:0:0:
358,192,55827,128,0,56045:0:0:0:0:
153,192,55827,128,0,56045:0:0:0:0:
256,192,56153,1,0,0:0:0:0:
51,192,56153,128,0,56914:0:0:0:0:
460,192,56153,128,0,56914:0:0:0:0:
153,192,56479,1,0,0:0:0:0:
358,192,56697,1,0,0:0:0:0:
256,192,56697,1,0,0:0:0:0:
153,192,56914,1,0,0:0:0:0:
358,192,57023,1,0,0:0:0:0:
460,192,57132,128,0,57566:0:0:0:0:
256,192,57240,1,0,0:0:0:0:
51,192,57349,128,0,57566:0:0:0:0:
256,192,57458,1,0,0:0:0:0:
153,192,57566,128,0,57784:0:0:0:0:
358,192,57566,128,0,58001:0:0:0:0:
256,192,57784,128,0,58001:0:0:0:0:
153,192,58001,1,0,0:0:0:0:
51,192,58001,128,0,58436:0:0:0:0:
460,192,58001,128,0,58219:0:0:0:0:
256,192,58219,128,0,58436:0:0:0:0:
358,192,58436,1,0,0:0:0:0:
460,192,58436,1,0,0:0:0:0:
358,192,58545,128,0,58653:0:0:0:0:
153,192,58762,128,0,59088:0:0:0:0:
460,192,58762,128,0,59088:0:0:0:0:
51,192,58871,1,0,0:0:0:0:
256,192,59088,128,0,59305:0:0:0:0:
51,192,59305,128,0,59523:0:0:0:0:
460,192,59305,1,0,0:0:0:0:
358,192,59523,128,0,59740:0:0:0:0:
153,192,59740,1,0,0:0:0:0:
256,192,59740,128,0,59958:0:0:0:0:
460,192,59740,1,0,0:0:0:0:
51,192,59958,1,0,0:0:0:0:
153,192,60066,128,0,60175:0:0:0:0:
256,192,60175,1,0,0:0:0:0:
460,192,60175,1,0,0:0:0:0:
358,192,60284,1,0,0:0:0:0:
51,192,60392,128,0,60501:0:0:0:0:
256,192,60501,1,0,0:0:0:0:
358,192,60501,1,0,0:0:0:0:
153,192,60501,1,0,0:0:0:0:
460,192,60610,128,0,60827:0:0:0:0:
358,192,60827,128,0,61045:0:0:0:0:
256,192,61045,128,0,61262:0:0:0:0:
51,192,61045,1,0,0:0:0:0:
153,192,61262,128,0,61479:0:0:0:0:
51,192,61479,128,0,62240:0:0:0:0:
358,192,61479,1,0,0:0:0:0:
460,192,61479,1,0,0:0:0:0:
256,192,61697,1,0,0:0:0:0:
153,192,61805,128,0,62240:0:0:0:0:
358,192,61914,1,0,0:0:0:0:
460,192,61914,1,0,0:0:0:0:
256,192,62240,1,0,0:0:0:0:
460,192,62349,1,0,0:0:0:0:
153,192,62566,128,0,62784:0:0:0:0:
51,192,62784,1,0,0:0:0:0:
460,192,62784,128,0,63001:0:0:0:0:
51,192,62892,1,0,0:0:0:0:
153,192,62892,1,0,0:0:0:0:
358,192,63001,128,0,63219:0:0:0:0:
153,192,63219,1,0,0:0:0:0:
51,192,63219,1,0,0:0:0:0:
256,192,63219,128,0,63653:0:0:0:0:
460,192,63436,1,0,0:0:0:0:
358,192,63653,1,0,0:0:0:0:
153,192,63653,128,0,64088:0:0:0:0:
51,192,63653,1,0,0:0:0:0:
460,192,63871,1,0,0:0:0:0:
256,192,64088,1,0,0:0:0:0:
358,192,64088,1,0,0:0:0:0:
51,192,64088,128,0,64523:0:0:0:0:
460,192,64305,1,0,0:0:0:0:
358,192,64414,1,0,0:0:0:0:
256,192,64469,1,0,0:0:0:0:
153,192,64523,1,0,0:0:0:0:
460,192,64523,128,0,64958:0:0:0:0:
153,192,64632,1,0,0:0:0:0:
51,192,64632,1,0,0:0:0:0:
358,192,64740,1,0,0:0:0:0:
256,192,64849,1,0,0:0:0:0:
153,192,64958,128,0,65012:0:0:0:0:
51,192,64958,128,0,65012:0:0:0:0:
153,192,65084,128,0,65139:0:0:0:0:
51,192,65084,128,0,65139:0:0:0:0:
358,192,65084,1,0,0:0:0:0:
256,192,65175,1,0,0:0:0:0:
153,192,65284,128,0,65338:0:0:0:0:
51,192,65284,128,0,65338:0:0:0:0:
460,192,65284,1,0,0:0:0:0:
153,192,65610,128,0,65664:0:0:0:0:
51,192,65610,128,0,65664:0:0:0:0:
153,192,65719,128,0,65773:0:0:0:0:
51,192,65719,128,0,65773:0:0:0:0:
358,192,65719,1,0,0:0:0:0:
256,192,65827,1,0,0:0:0:0:
153,192,65936,128,0,65990:0:0:0:0:
51,192,65936,128,0,65990:0:0:0:0:
460,192,65936,1,0,0:0:0:0:
460,192,66153,1,0,0:0:0:0:
256,192,66208,1,0,0:0:0:0:
51,192,66262,128,0,66316:0:0:0:0:
153,192,66262,128,0,66316:0:0:0:0:
358,192,66334,1,0,0:0:0:0:
460,192,66334,1,0,0:0:0:0:
51,192,66407,128,0,66461:0:0:0:0:
153,192,66407,128,0,66461:0:0:0:0:
358,192,66479,1,0,0:0:0:0:
51,192,66552,128,0,66606:0:0:0:0:
153,192,66552,128,0,66606:0:0:0:0:
256,192,66624,1,0,0:0:0:0:
358,192,66697,128,0,66751:0:0:0:0:
460,192,66697,128,0,66751:0:0:0:0:
460,192,66824,128,0,66878:0:0:0:0:
358,192,66824,128,0,66878:0:0:0:0:
153,192,66824,1,0,0:0:0:0:
358,192,67023,128,0,67077:0:0:0:0:
460,192,67023,128,0,67077:0:0:0:0:
460,192,67240,128,0,67295:0:0:0:0:
358,192,67240,128,0,67295:0:0:0:0:
153,192,67458,1,0,0:0:0:0:
358,192,67458,128,0,67512:0:0:0:0:
460,192,67458,128,0,67512:0:0:0:0:
51,192,67566,128,0,68001:0:0:0:0:
460,192,67621,1,0,0:0:0:0:
358,192,67675,1,0,0:0:0:0:
256,192,67729,1,0,0:0:0:0:
153,192,67784,1,0,0:0:0:0:
153,192,68001,128,0,68327:0:0:0:0:
460,192,68055,1,0,0:0:0:0:
358,192,68110,1,0,0:0:0:0:
256,192,68164,1,0,0:0:0:0:
153,192,68436,128,0,68653:0:0:0:0:
358,192,68436,128,0,68653:0:0:0:0:
460,192,68436,1,0,0:0:0:0:
51,192,68653,1,0,0:0:0:0:
256,192,68653,1,0,0:0:0:0:
358,192,68762,128,0,68979:0:0:0:0:
460,192,68762,128,0,68979:0:0:0:0:
153,192,68871,1,0,0:0:0:0:
256,192,68979,1,0,0:0:0:0:
51,192,69088,128,0,69414:0:0:0:0:
358,192,69088,128,0,69414:0:0:0:0:
153,192,69197,1,0,0:0:0:0:
153,192,69414,1,0,0:0:0:0:
460,192,69523,1,0,0:0:0:0:
256,192,69523,128,0,69740:0:0:0:0:
51,192,69740,128,0,69958:0:0:0:0:
256,192,69958,128,0,70175:0:0:0:0:
460,192,69958,1,0,0:0:0:0:
153,192,70175,128,0,70392:0:0:0:0:
358,192,70175,128,0,70392:0:0:0:0:
256,192,70392,1,0,0:0:0:0:
51,192,70392,1,0,0:0:0:0:
358,192,70501,128,0,70719:0:0:0:0:
460,192,70501,128,0,70719:0:0:0:0:
153,192,70610,1,0,0:0:0:0:
256,192,70719,1,0,0:0:0:0:
358,192,70827,128,0,71153:0:0:0:0:
51,192,70827,128,0,71153:0:0:0:0:
153,192,70936,1,0,0:0:0:0:
153,192,71153,1,0,0:0:0:0:
256,192,71262,1,0,0:0:0:0:
460,192,71262,128,0,71479:0:0:0:0:
358,192,71479,128,0,71697:0:0:0:0:
51,192,71588,1,0,0:0:0:0:
256,192,71697,128,0,71914:0:0:0:0:
153,192,71697,1,0,0:0:0:0:
358,192,71914,1,0,0:0:0:0:
460,192,71914,1,0,0:0:0:0:
51,192,71914,128,0,72132:0:0:0:0:
460,192,72132,1,0,0:0:0:0:
153,192,72132,128,0,72240:0:0:0:0:
358,192,72349,128,0,72458:0:0:0:0:
51,192,72458,1,0,0:0:0:0:
256,192,72566,1,0,0:0:0:0:
460,192,72566,128,0,73001:0:0:0:0:
153,192,72675,1,0,0:0:0:0:
153,192,72892,1,0,0:0:0:0:
51,192,73001,1,0,0:0:0:0:
358,192,73001,128,0,73110:0:0:0:0:
256,192,73219,1,0,0:0:0:0:
358,192,73436,1,0,0:0:0:0:
153,192,73436,128,0,73653:0:0:0:0:
256,192,73653,1,0,0:0:0:0:
51,192,73653,1,0,0:0:0:0:
460,192,73653,128,0,73979:0:0:0:0:
153,192,73871,1,0,0:0:0:0:
51,192,73871,1,0,0:0:0:0:
358,192,74088,128,0,74305:0:0:0:0:
51,192,74197,1,0,0:0:0:0:
153,192,74305,128,0,74523:0:0:0:0:
460,192,74305,1,0,0:0:0:0:
256,192,74414,1,0,0:0:0:0:
256,192,74632,1,0,0:0:0:0:
51,192,74740,1,0,0:0:0:0:
460,192,74740,128,0,75066:0:0:0:0:
358,192,74958,1,0,0:0:0:0:
256,192,75066,1,0,0:0:0:0:
153,192,75175,128,0,75827:0:0:0:0:
51,192,75175,128,0,76262:0:0:0:0:
460,192,75175,1,0,0:0:0:0:
358,192,75501,1,0,0:0:0:0:
256,192,75610,1,0,0:0:0:0:
460,192,75610,1,0,0:0:0:0:
358,192,75827,1,0,0:0:0:0:
256,192,75936,1,0,0:0:0:0:
460,192,76045,128,0,76914:0:0:0:0:
153,192,76045,1,0,0:0:0:0:
358,192,76153,1,0,0:0:0:0:
358,192,76371,1,0,0:0:0:0:
51,192,76479,1,0,0:0:0:0:
256,192,76479,1,0,0:0:0:0:
51,192,76697,128,0,76914:0:0:0:0:
153,192,76914,128,0,77132:0:0:0:0:
358,192,76914,1,0,0:0:0:0:
256,192,77132,128,0,77349:0:0:0:0:
460,192,77240,1,0,0:0:0:0:
358,192,77349,1,0,0:0:0:0:
51,192,77349,1,0,0:0:0:0:
460,192,77458,128,0,77675:0:0:0:0:
256,192,77566,1,0,0:0:0:0:
153,192,77675,1,0,0:0:0:0:
51,192,77784,1,0,0:0:0:0:
358,192,77784,128,0,78110:0:0:0:0:
460,192,77892,1,0,0:0:0:0:
460,192,78110,1,0,0:0:0:0:
153,192,78219,1,0,0:0:0:0:
256,192,78219,128,0,78436:0:0:0:0:
51,192,78436,128,0,78653:0:0:0:0:
153,192,78545,128,0,78653:0:0:0:0:
358,192,78653,1,0,0:0:0:0:
460,192,78653,1,0,0:0:0:0:
51,192,78762,128,0,79088:0:0:0:0:
153,192,78762,128,0,78979:0:0:0:0:
256,192,78762,128,0,78979:0:0:0:0:
460,192,78979,1,0,0:0:0:0:
358,192,79088,128,0,79305:0:0:0:0:
256,192,79088,1,0,0:0:0:0:
153,192,79305,128,0,79523:0:0:0:0:
256,192,79414,128,0,79523:0:0:0:0:
51,192,79523,1,0,0:0:0:0:
460,192,79523,1,0,0:0:0:0:
153,192,79632,128,0,79958:0:0:0:0:
256,192,79632,128,0,79849:0:0:0:0:
358,192,79632,128,0,79849:0:0:0:0:
460,192,79849,1,0,0:0:0:0:
51,192,79958,128,0,80175:0:0:0:0:
358,192,79958,1,0,0:0:0:0:
256,192,80175,128,0,80392:0:0:0:0:
358,192,80284,128,0,80392:0:0:0:0:
153,192,80392,1,0,0:0:0:0:
51,192,80392,1,0,0:0:0:0:
256,192,80501,128,0,80719:0:0:0:0:
358,192,80501,128,0,80719:0:0:0:0:
460,192,80501,128,0,80719:0:0:0:0:
51,192,80719,1,0,0:0:0:0:
153,192,80827,128,0,81045:0:0:0:0:
358,192,80827,128,0,81045:0:0:0:0:
460,192,81045,128,0,81262:0:0:0:0:
256,192,81045,128,0,81262:0:0:0:0:
358,192,81153,1,0,0:0:0:0:
153,192,81262,128,0,81479:0:0:0:0:
51,192,81262,128,0,81479:0:0:0:0:
358,192,81479,128,0,81697:0:0:0:0:
460,192,81479,128,0,81697:0:0:0:0:
51,192,81570,1,0,0:0:0:0:
256,192,81632,1,0,0:0:0:0:
153,192,81697,128,0,81805:0:0:0:0:
51,192,81805,128,0,81914:0:0:0:0:
358,192,81805,128,0,81914:0:0:0:0:
256,192,81914,1,0,0:0:0:0:
153,192,82023,1,0,0:0:0:0:
460,192,82023,1,0,0:0:0:0:
358,192,82132,1,0,0:0:0:0:
51,192,82132,1,0,0:0:0:0:
358,192,82349,128,0,82566:0:0:0:0:
153,192,82349,128,0,82566:0:0:0:0:
460,192,82349,1,0,0:0:0:0:
256,192,82566,1,0,0:0:0:0:
51,192,82566,1,0,0:0:0:0:
460,192,82675,128,0,82892:0:0:0:0:
358,192,82675,128,0,82892:0:0:0:0:
153,192,82784,1,0,0:0:0:0:
256,192,82892,1,0,0:0:0:0:
358,192,83001,128,0,83327:0:0:0:0:
51,192,83001,128,0,83327:0:0:0:0:
153,192,83110,1,0,0:0:0:0:
153,192,83327,1,0,0:0:0:0:
256,192,83436,1,0,0:0:0:0:
460,192,83436,128,0,83653:0:0:0:0:
51,192,83653,128,0,83871:0:0:0:0:
153,192,83871,128,0,84088:0:0:0:0:
358,192,83871,1,0,0:0:0:0:
256,192,84088,128,0,84414:0:0:0:0:
460,192,84088,1,0,0:0:0:0:
358,192,84088,1,0,0:0:0:0:
51,192,84197,1,0,0:0:0:0:
460,192,84414,128,0,84740:0:0:0:0:
51,192,84523,1,0,0:0:0:0:
153,192,84523,128,0,84740:0:0:0:0:
256,192,84632,128,0,84740:0:0:0:0:
358,192,84740,128,0,85175:0:0:0:0:
51,192,84813,1,0,0:0:0:0:
153,192,84885,1,0,0:0:0:0:
256,192,84958,1,0,0:0:0:0:
460,192,84958,1,0,0:0:0:0:
460,192,85175,128,0,85392:0:0:0:0:
51,192,85175,1,0,0:0:0:0:
153,192,85175,1,0,0:0:0:0:
358,192,85392,128,0,85610:0:0:0:0:
51,192,85392,1,0,0:0:0:0:
256,192,85501,128,0,85610:0:0:0:0:
153,192,85610,128,0,85719:0:0:0:0:
358,192,85827,1,0,0:0:0:0:
460,192,85827,1,0,0:0:0:0:
51,192,85827,128,0,86045:0:0:0:0:
460,192,86045,1,0,0:0:0:0:
153,192,86045,128,0,86262:0:0:0:0:
256,192,86262,128,0,86479:0:0:0:0:
358,192,86371,1,0,0:0:0:0:
51,192,86479,1,0,0:0:0:0:
460,192,86479,128,0,86914:0:0:0:0:
153,192,86588,1,0,0:0:0:0:
153,192,86805,1,0,0:0:0:0:
51,192,86914,128,0,87132:0:0:0:0:
358,192,86914,1,0,0:0:0:0:
256,192,87132,1,0,0:0:0:0:
460,192,87240,1,0,0:0:0:0:
358,192,87349,1,0,0:0:0:0:
153,192,87349,128,0,87458:0:0:0:0:
460,192,87566,1,0,0:0:0:0:
153,192,87566,128,0,88001:0:0:0:0:
256,192,87566,128,0,88001:0:0:0:0:
358,192,87784,1,0,0:0:0:0:
460,192,87784,1,0,0:0:0:0:
51,192,87892,1,0,0:0:0:0:
358,192,88001,128,0,88110:0:0:0:0:
51,192,88110,1,0,0:0:0:0:
256,192,88219,1,0,0:0:0:0:
358,192,88219,128,0,88327:0:0:0:0:
460,192,88219,128,0,88327:0:0:0:0:
256,192,88545,1,0,0:0:0:0:
358,192,88617,1,0,0:0:0:0:
51,192,88653,128,0,88871:0:0:0:0:
460,192,88653,128,0,88708:0:0:0:0:
153,192,88871,1,0,0:0:0:0:
256,192,88979,1,0,0:0:0:0:
358,192,89088,128,0,89958:0:0:0:0:
51,192,89088,128,0,89958:0:0:0:0:
153,192,89088,1,0,0:0:0:0:
256,192,89414,1,0,0:0:0:0:
153,192,89523,1,0,0:0:0:0:
460,192,89523,1,0,0:0:0:0:
153,192,89740,1,0,0:0:0:0:
256,192,89849,1,0,0:0:0:0:
460,192,89958,128,0,90392:0:0:0:0:
153,192,89958,1,0,0:0:0:0:
358,192,90066,1,0,0:0:0:0:
358,192,90284,1,0,0:0:0:0:
51,192,90392,1,0,0:0:0:0:
256,192,90392,128,0,90610:0:0:0:0:
358,192,90610,128,0,90827:0:0:0:0:
51,192,90719,1,0,0:0:0:0:
153,192,90827,1,0,0:0:0:0:
256,192,90827,1,0,0:0:0:0:
460,192,90827,128,0,91045:0:0:0:0:
51,192,90954,1,0,0:0:0:0:
153,192,90999,1,0,0:0:0:0:
256,192,91045,1,0,0:0:0:0:
460,192,91153,1,0,0:0:0:0:
51,192,91262,128,0,91479:0:0:0:0:
153,192,91389,1,0,0:0:0:0:
256,192,91434,1,0,0:0:0:0:
460,192,91479,1,0,0:0:0:0:
358,192,91479,128,0,91697:0:0:0:0:
153,192,91588,1,0,0:0:0:0:
51,192,91697,128,0,91914:0:0:0:0:
256,192,91805,1,0,0:0:0:0:
153,192,91914,1,0,0:0:0:0:
460,192,91914,128,0,92132:0:0:0:0:
358,192,92023,1,0,0:0:0:0:
256,192,92132,128,0,92349:0:0:0:0:
51,192,92240,1,0,0:0:0:0:
153,192,92349,1,0,0:0:0:0:
460,192,92349,1,0,0:0:0:0:
358,192,92349,128,0,92566:0:0:0:0:
153,192,92566,1,0,0:0:0:0:
51,192,92566,1,0,0:0:0:0:
358,192,92675,1,0,0:0:0:0:
460,192,92675,1,0,0:0:0:0:
256,192,92675,128,0,92784:0:0:0:0:
51,192,92784,1,0,0:0:0:0:
153,192,92892,1,0,0:0:0:0:
256,192,93001,1,0,0:0:0:0:
51,192,93898,1,0,0:0:0:0:
153,192,94088,1,0,0:0:0:0:
256,192,94265,1,0,0:0:0:0:
358,192,94414,1,0,0:0:0:0:
51,192,94523,1,0,0:0:0:0:
460,192,94659,1,0,0:0:0:0:
358,192,95257,1,0,0:0:0:0:
256,192,95320,1,0,0:0:0:0:
153,192,95392,1,0,0:0:0:0:
358,192,95755,128,0,95845:0:0:0:0:
460,192,95845,128,0,96135:0:0:0:0:
51,192,96135,1,0,0:0:0:0:
153,192,96180,1,0,0:0:0:0:
256,192,96217,1,0,0:0:0:0:
358,192,96244,1,0,0:0:0:0:
51,192,96316,1,0,0:0:0:0:
460,192,96588,1,0,0:0:0:0:
153,192,96873,1,0,0:0:0:0:
460,192,96914,1,0,0:0:0:0:
256,192,97013,1,0,0:0:0:0:
51,192,97122,1,0,0:0:0:0:
358,192,97335,1,0,0:0:0:0:
256,192,97553,1,0,0:0:0:0:
358,192,97770,1,0,0:0:0:0:
153,192,97856,1,0,0:0:0:0:
460,192,97929,1,0,0:0:0:0:
256,192,98001,1,0,0:0:0:0:
51,192,98001,1,0,0:0:0:0:
358,192,98327,1,0,0:0:0:0:
358,192,98605,1,0,0:0:0:0:
256,192,98750,1,0,0:0:0:0:
51,192,98871,1,0,0:0:0:0:
153,192,98871,1,0,0:0:0:0:
358,192,99102,1,0,0:0:0:0:
460,192,99224,1,0,0:0:0:0:
358,192,99342,1,0,0:0:0:0:
256,192,99450,1,0,0:0:0:0:
153,192,99550,1,0,0:0:0:0:
51,192,99668,1,0,0:0:0:0:
256,192,99740,1,0,0:0:0:0:
358,192,99740,1,0,0:0:0:0:
460,192,99740,1,0,0:0:0:0:
460,192,99971,1,0,0:0:0:0:
153,192,100054,1,0,0:0:0:0:
460,192,100302,1,0,0:0:0:0:
256,192,100392,1,0,0:0:0:0:
51,192,100392,1,0,0:0:0:0:
460,192,100628,1,0,0:0:0:0:
153,192,100882,1,0,0:0:0:0:
256,192,101126,1,0,0:0:0:0:
153,192,101238,1,0,0:0:0:0:
358,192,101316,1,0,0:0:0:0:
256,192,101443,1,0,0:0:0:0:
358,192,101602,1,0,0:0:0:0:
51,192,101697,1,0,0:0:0:0:
460,192,101765,1,0,0:0:0:0:
256,192,101887,1,0,0:0:0:0:
51,192,102023,1,0,0:0:0:0:
358,192,102091,1,0,0:0:0:0:
460,192,102258,1,0,0:0:0:0:
51,192,102331,1,0,0:0:0:0:
153,192,102385,1,0,0:0:0:0:
256,192,102440,1,0,0:0:0:0:
153,192,102566,1,0,0:0:0:0:
358,192,102675,1,0,0:0:0:0:
256,192,102784,1,0,0:0:0:0:
51,192,102784,1,0,0:0:0:0:
460,192,102874,1,0,0:0:0:0:
153,192,102983,1,0,0:0:0:0:
460,192,103096,1,0,0:0:0:0:
51,192,103164,1,0,0:0:0:0:
256,192,103219,1,0,0:0:0:0:
358,192,103291,1,0,0:0:0:0:
153,192,103436,1,0,0:0:0:0:
256,192,103508,1,0,0:0:0:0:
256,192,103653,1,0,0:0:0:0:
153,192,103762,1,0,0:0:0:0:
460,192,103871,1,0,0:0:0:0:
153,192,103871,1,0,0:0:0:0:
51,192,104016,1,0,0:0:0:0:
51,192,104124,1,0,0:0:0:0:
460,192,104287,1,0,0:0:0:0:
460,192,104414,1,0,0:0:0:0:
358,192,104523,1,0,0:0:0:0:
358,192,104668,1,0,0:0:0:0:
256,192,104740,1,0,0:0:0:0:
51,192,104958,1,0,0:0:0:0:
153,192,104958,1,0,0:0:0:0:
153,192,105175,1,0,0:0:0:0:
256,192,105284,1,0,0:0:0:0:
358,192,105411,1,0,0:0:0:0:
460,192,105501,1,0,0:0:0:0:
256,192,105574,1,0,0:0:0:0:
358,192,105664,1,0,0:0:0:0:
51,192,105765,1,0,0:0:0:0:
153,192,105827,1,0,0:0:0:0:
256,192,105863,1,0,0:0:0:0:
358,192,105990,1,0,0:0:0:0:
51,192,106099,1,0,0:0:0:0:
153,192,106171,1,0,0:0:0:0:
460,192,106171,1,0,0:0:0:0:
256,192,106262,1,0,0:0:0:0:
460,192,106371,1,0,0:0:0:0:
153,192,106371,1,0,0:0:0:0:
51,192,106479,1,0,0:0:0:0:
358,192,106588,1,0,0:0:0:0:
460,192,106697,1,0,0:0:0:0:
256,192,106697,128,0,106751:0:0:0:0:
153,192,106697,1,0,0:0:0:0:
256,192,106842,128,0,106896:0:0:0:0:
358,192,107023,1,0,0:0:0:0:
51,192,107349,1,0,0:0:0:0:
153,192,107349,1,0,0:0:0:0:
358,192,107784,1,0,0:0:0:0:
51,192,107983,1,0,0:0:0:0:
153,192,107983,1,0,0:0:0:0:
256,192,108092,1,0,0:0:0:0:
460,192,108110,1,0,0:0:0:0:
51,192,108132,1,0,0:0:0:0:
358,192,108246,1,0,0:0:0:0:
153,192,108314,1,0,0:0:0:0:
256,192,108382,128,0,108436:0:0:0:0:
358,192,108436,1,0,0:0:0:0:
256,192,108545,128,0,108599:0:0:0:0:
51,192,108626,1,0,0:0:0:0:
358,192,108762,1,0,0:0:0:0:
153,192,108844,1,0,0:0:0:0:
153,192,108998,1,0,0:0:0:0:
51,192,109047,1,0,0:0:0:0:
460,192,109088,1,0,0:0:0:0:
358,192,109088,1,0,0:0:0:0:
256,192,109124,1,0,0:0:0:0:
153,192,109197,1,0,0:0:0:0:
51,192,109287,1,0,0:0:0:0:
153,192,109509,1,0,0:0:0:0:
358,192,109632,1,0,0:0:0:0:
460,192,109740,1,0,0:0:0:0:
51,192,109740,1,0,0:0:0:0:
256,192,109849,1,0,0:0:0:0:
358,192,109885,128,0,110175:0:0:0:0:
153,192,109958,1,0,0:0:0:0:
51,192,110066,1,0,0:0:0:0:
460,192,110175,128,0,110229:0:0:0:0:
460,192,110284,128,0,110338:0:0:0:0:
153,192,110392,1,0,0:0:0:0:
256,192,110501,1,0,0:0:0:0:
460,192,110814,1,0,0:0:0:0:
358,192,110814,1,0,0:0:0:0:
153,192,111244,1,0,0:0:0:0:
256,192,111479,1,0,0:0:0:0:
460,192,111479,1,0,0:0:0:0:
51,192,111624,1,0,0:0:0:0:
358,192,111697,1,0,0:0:0:0:
153,192,111833,1,0,0:0:0:0:
51,192,111914,128,0,111969:0:0:0:0:
460,192,111969,1,0,0:0:0:0:
51,192,112041,128,0,112095:0:0:0:0:
256,192,112132,1,0,0:0:0:0:
358,192,112240,1,0,0:0:0:0:
153,192,112313,1,0,0:0:0:0:
460,192,112494,1,0,0:0:0:0:
51,192,112548,1,0,0:0:0:0:
153,192,112548,1,0,0:0:0:0:
256,192,112639,1,0,0:0:0:0:
358,192,112729,1,0,0:0:0:0:
460,192,112820,1,0,0:0:0:0:
51,192,112892,1,0,0:0:0:0:
153,192,113001,1,0,0:0:0:0:
256,192,113074,1,0,0:0:0:0:
358,192,113128,1,0,0:0:0:0:
51,192,113128,1,0,0:0:0:0:
460,192,113182,1,0,0:0:0:0:
460,192,113327,1,0,0:0:0:0:
256,192,113327,1,0,0:0:0:0:
153,192,113436,1,0,0:0:0:0:
358,192,113508,1,0,0:0:0:0:
256,192,113653,1,0,0:0:0:0:
51,192,113653,1,0,0:0:0:0:
460,192,113653,1,0,0:0:0:0:
256,192,113871,1,0,0:0:0:0:
460,192,113979,1,0,0:0:0:0:
460,192,114197,1,0,0:0:0:0:
256,192,114305,1,0,0:0:0:0:
51,192,114305,1,0,0:0:0:0:
153,192,114722,1,0,0:0:0:0:
153,192,114958,1,0,0:0:0:0:
358,192,114958,1,0,0:0:0:0:
256,192,115066,1,0,0:0:0:0:
358,192,115189,1,0,0:0:0:0:
460,192,115266,1,0,0:0:0:0:
256,192,115392,1,0,0:0:0:0:
358,192,115392,1,0,0:0:0:0:
153,192,115392,1,0,0:0:0:0:
153,192,115731,1,0,0:0:0:0:
358,192,115954,1,0,0:0:0:0:
460,192,116027,128,0,116914:0:0:0:0:
256,192,116027,1,0,0:0:0:0:
51,192,116262,1,0,0:0:0:0:
256,192,116452,1,0,0:0:0:0:
153,192,116697,1,0,0:0:0:0:
51,192,116697,1,0,0:0:0:0:
358,192,116805,1,0,0:0:0:0:
153,192,117132,1,0,0:0:0:0:
256,192,117132,1,0,0:0:0:0:
358,192,117132,1,0,0:0:0:0:
460,192,117277,1,0,0:0:0:0:
358,192,117458,1,0,0:0:0:0:
256,192,117530,1,0,0:0:0:0:
153,192,117603,1,0,0:0:0:0:
358,192,117711,1,0,0:0:0:0:
51,192,117784,1,0,0:0:0:0:
256,192,117784,1,0,0:0:0:0:
153,192,117929,1,0,0:0:0:0:
51,192,118001,1,0,0:0:0:0:
460,192,118128,1,0,0:0:0:0:
358,192,118191,1,0,0:0:0:0:
256,192,118219,1,0,0:0:0:0:
153,192,118345,1,0,0:0:0:0:
51,192,118436,1,0,0:0:0:0:
460,192,118436,1,0,0:0:0:0:
358,192,118545,1,0,0:0:0:0:
256,192,118653,1,0,0:0:0:0:
51,192,118762,1,0,0:0:0:0:
358,192,118871,1,0,0:0:0:0:
153,192,118871,1,0,0:0:0:0:
460,192,118871,1,0,0:0:0:0:
358,192,119088,1,0,0:0:0:0:
153,192,119197,1,0,0:0:0:0:
256,192,119305,1,0,0:0:0:0:
358,192,119305,1,0,0:0:0:0:
460,192,119523,1,0,0:0:0:0:
256,192,119632,1,0,0:0:0:0:
358,192,119740,1,0,0:0:0:0:
460,192,119740,1,0,0:0:0:0:
51,192,119958,128,0,120284:0:0:0:0:
256,192,120103,1,0,0:0:0:0:
358,192,120148,1,0,0:0:0:0:
460,192,120175,1,0,0:0:0:0:
153,192,120284,128,0,120501:0:0:0:0:
460,192,120374,1,0,0:0:0:0:
256,192,120501,1,0,0:0:0:0:
358,192,120610,128,0,120827:0:0:0:0:
460,192,120610,1,0,0:0:0:0:
51,192,120610,1,0,0:0:0:0:
153,192,120827,1,0,0:0:0:0:
256,192,120936,1,0,0:0:0:0:
51,192,121045,1,0,0:0:0:0:
460,192,121262,128,0,121371:0:0:0:0:
256,192,121371,1,0,0:0:0:0:
460,192,121479,128,0,121697:0:0:0:0:
358,192,121697,1,0,0:0:0:0:
51,192,121805,128,0,122023:0:0:0:0:
256,192,121914,1,0,0:0:0:0:
153,192,122023,128,0,122295:0:0:0:0:
358,192,122132,1,0,0:0:0:0:
51,192,122240,1,0,0:0:0:0:
256,192,122295,128,0,122566:0:0:0:0:
460,192,122349,1,0,0:0:0:0:
153,192,122566,1,0,0:0:0:0:
358,192,122675,1,0,0:0:0:0:
256,192,122784,1,0,0:0:0:0:
460,192,123001,128,0,123219:0:0:0:0:
51,192,123110,1,0,0:0:0:0:
358,192,123219,128,0,123436:0:0:0:0:
256,192,123436,128,0,123653:0:0:0:0:
153,192,123545,1,0,0:0:0:0:
51,192,123653,128,0,123871:0:0:0:0:
460,192,123653,128,0,123708:0:0:0:0:
153,192,123871,128,0,124088:0:0:0:0:
256,192,123979,1,0,0:0:0:0:
460,192,124088,128,0,124414:0:0:0:0:
51,192,124305,1,0,0:0:0:0:
358,192,124414,128,0,124740:0:0:0:0:
153,192,124523,128,0,124577:0:0:0:0:
256,192,124740,128,0,124958:0:0:0:0:
51,192,124740,128,0,124795:0:0:0:0:
460,192,124849,1,0,0:0:0:0:
153,192,124958,128,0,125012:0:0:0:0:
51,192,125175,128,0,125392:0:0:0:0:
358,192,125175,128,0,125229:0:0:0:0:
256,192,125284,1,0,0:0:0:0:
460,192,125392,128,0,125447:0:0:0:0:
153,192,125392,128,0,125610:0:0:0:0:
256,192,125610,128,0,125827:0:0:0:0:
358,192,125719,1,0,0:0:0:0:
460,192,125827,128,0,126153:0:0:0:0:
153,192,126045,1,0,0:0:0:0:
358,192,126153,128,0,126479:0:0:0:0:
51,192,126262,1,0,0:0:0:0:
256,192,126479,128,0,126697:0:0:0:0:
153,192,126588,1,0,0:0:0:0:
51,192,126697,1,0,0:0:0:0:
153,192,126914,128,0,127113:0:0:0:0:
460,192,127050,1,0,0:0:0:0:
51,192,127050,1,0,0:0:0:0:
256,192,127113,1,0,0:0:0:0:
51,192,127186,1,0,0:0:0:0:
358,192,127258,1,0,0:0:0:0:
153,192,127331,1,0,0:0:0:0:
460,192,127421,1,0,0:0:0:0:
256,192,127494,1,0,0:0:0:0:
51,192,127566,1,0,0:0:0:0:
460,192,127566,128,0,128001:0:0:0:0:
153,192,127566,1,0,0:0:0:0:
153,192,127892,1,0,0:0:0:0:
256,192,128001,1,0,0:0:0:0:
51,192,128001,1,0,0:0:0:0:
153,192,128205,1,0,0:0:0:0:
460,192,128205,128,0,128436:0:0:0:0:
51,192,128205,128,0,128273:0:0:0:0:
358,192,128436,128,0,128626:0:0:0:0:
256,192,128626,1,0,0:0:0:0:
51,192,128762,128,0,128979:0:0:0:0:
358,192,128871,1,0,0:0:0:0:
153,192,128979,128,0,129197:0:0:0:0:
460,192,129088,1,0,0:0:0:0:
358,192,129197,128,0,129740:0:0:0:0:
51,192,129251,1,0,0:0:0:0:
256,192,129251,1,0,0:0:0:0:
153,192,129414,1,0,0:0:0:0:
460,192,129450,1,0,0:0:0:0:
256,192,129523,1,0,0:0:0:0:
153,192,129613,1,0,0:0:0:0:
51,192,129668,1,0,0:0:0:0:
256,192,129740,1,0,0:0:0:0:
460,192,129740,1,0,0:0:0:0:
153,192,129849,1,0,0:0:0:0:
460,192,129958,128,0,130175:0:0:0:0:
256,192,130039,1,0,0:0:0:0:
153,192,130121,1,0,0:0:0:0:
358,192,130175,128,0,130284:0:0:0:0:
51,192,130175,1,0,0:0:0:0:
256,192,130392,128,0,130501:0:0:0:0:
51,192,130392,128,0,130827:0:0:0:0:
460,192,130392,1,0,0:0:0:0:
153,192,130610,128,0,130827:0:0:0:0:
256,192,130827,1,0,0:0:0:0:
358,192,130827,1,0,0:0:0:0:
460,192,130972,128,0,132784:0:0:0:0:
51,192,131262,128,0,131316:0:0:0:0:
153,192,131371,128,0,131425:0:0:0:0:
256,192,131479,128,0,131534:0:0:0:0:
358,192,131588,128,0,131642:0:0:0:0:
153,192,131805,128,0,131860:0:0:0:0:
256,192,132023,128,0,132077:0:0:0:0:
358,192,132240,128,0,132458:0:0:0:0:
153,192,132458,1,0,0:0:0:0:
256,192,132566,1,0,0:0:0:0:
51,192,132639,1,0,0:0:0:0:
153,192,132711,1,0,0:0:0:0:
358,192,132784,1,0,0:0:0:0:
256,192,132784,128,0,133001:0:0:0:0:
153,192,132929,1,0,0:0:0:0:
358,192,132965,1,0,0:0:0:0:
51,192,133001,1,0,0:0:0:0:
460,192,133001,1,0,0:0:0:0:
51,192,133200,128,0,133545:0:0:0:0:
153,192,133327,1,0,0:0:0:0:
460,192,133436,128,0,133490:0:0:0:0:
358,192,133545,1,0,0:0:0:0:
256,192,133599,1,0,0:0:0:0:
153,192,133653,128,0,134088:0:0:0:0:
51,192,133871,1,0,0:0:0:0:
256,192,133925,1,0,0:0:0:0:
460,192,133979,1,0,0:0:0:0:
51,192,134034,1,0,0:0:0:0:
358,192,134088,128,0,134305:0:0:0:0:
256,192,134161,1,0,0:0:0:0:
153,192,134233,1,0,0:0:0:0:
51,192,134305,1,0,0:0:0:0:
460,192,134305,1,0,0:0:0:0:
460,192,134414,128,0,134740:0:0:0:0:
153,192,134414,128,0,134740:0:0:0:0:
256,192,134414,1,0,0:0:0:0:
51,192,134740,128,0,134958:0:0:0:0:
460,192,134813,1,0,0:0:0:0:
358,192,134921,1,0,0:0:0:0:
153,192,134958,128,0,135175:0:0:0:0:
460,192,135030,1,0,0:0:0:0:
51,192,135175,1,0,0:0:0:0:
153,192,135356,1,0,0:0:0:0:
256,192,135392,128,0,135719:0:0:0:0:
358,192,135474,1,0,0:0:0:0:
51,192,135691,1,0,0:0:0:0:
153,192,135719,128,0,136008:0:0:0:0:
460,192,135827,1,0,0:0:0:0:
358,192,135827,128,0,136153:0:0:0:0:
51,192,136008,1,0,0:0:0:0:
460,192,136153,128,0,136914:0:0:0:0:
153,192,136262,1,0,0:0:0:0:
256,192,136479,1,0,0:0:0:0:
153,192,136588,1,0,0:0:0:0:
51,192,136697,1,0,0:0:0:0:
358,192,136697,1,0,0:0:0:0:
153,192,136805,1,0,0:0:0:0:
256,192,136987,1,0,0:0:0:0:
460,192,137023,128,0,137295:0:0:0:0:
51,192,137132,1,0,0:0:0:0:
51,192,137349,128,0,137566:0:0:0:0:
153,192,137458,1,0,0:0:0:0:
256,192,137566,1,0,0:0:0:0:
460,192,137566,1,0,0:0:0:0:
358,192,137675,128,0,137892:0:0:0:0:
51,192,137766,128,0,137892:0:0:0:0:
153,192,137892,128,0,138110:0:0:0:0:
256,192,137892,1,0,0:0:0:0:
460,192,137892,128,0,138110:0:0:0:0:
51,192,138219,128,0,138436:0:0:0:0:
460,192,138327,1,0,0:0:0:0:
153,192,138436,128,0,138653:0:0:0:0:
358,192,138436,1,0,0:0:0:0:
460,192,138545,1,0,0:0:0:0:
51,192,138653,1,0,0:0:0:0:
256,192,138871,128,0,139305:0:0:0:0:
358,192,138961,1,0,0:0:0:0:
51,192,139197,128,0,139523:0:0:0:0:
153,192,139305,1,0,0:0:0:0:
460,192,139305,128,0,139523:0:0:0:0:
358,192,139305,1,0,0:0:0:0:
256,192,139523,128,0,139740:0:0:0:0:
153,192,139686,1,0,0:0:0:0:
460,192,139740,1,0,0:0:0:0:
358,192,139740,128,0,139903:0:0:0:0:
51,192,139740,1,0,0:0:0:0:
256,192,139958,128,0,140121:0:0:0:0:
51,192,140066,1,0,0:0:0:0:
153,192,140121,128,0,140284:0:0:0:0:
358,192,140175,1,0,0:0:0:0:
460,192,140175,1,0,0:0:0:0:
51,192,140284,128,0,140501:0:0:0:0:
153,192,140392,1,0,0:0:0:0:
460,192,140501,128,0,141045:0:0:0:0:
256,192,140501,1,0,0:0:0:0:
256,192,140719,1,0,0:0:0:0:
51,192,140827,128,0,141045:0:0:0:0:
358,192,140936,1,0,0:0:0:0:
153,192,141045,128,0,141099:0:0:0:0:
358,192,141153,128,0,141208:0:0:0:0:
153,192,141371,1,0,0:0:0:0:
51,192,141371,128,0,141679:0:0:0:0:
256,192,141371,128,0,141588:0:0:0:0:
358,192,141588,1,0,0:0:0:0:
460,192,141679,1,0,0:0:0:0:
153,192,141679,128,0,141914:0:0:0:0:
256,192,141914,128,0,142023:0:0:0:0:
358,192,142023,128,0,142132:0:0:0:0:
51,192,142132,1,0,0:0:0:0:
460,192,142132,1,0,0:0:0:0:
153,192,142240,128,0,142458:0:0:0:0:
460,192,142349,1,0,0:0:0:0:
256,192,142458,1,0,0:0:0:0:
358,192,142566,1,0,0:0:0:0:
460,192,142566,1,0,0:0:0:0:
51,192,142784,128,0,143001:0:0:0:0:
256,192,142892,1,0,0:0:0:0:
153,192,143001,128,0,143182:0:0:0:0:
460,192,143001,1,0,0:0:0:0:
256,192,143182,1,0,0:0:0:0:
460,192,143219,1,0,0:0:0:0:
358,192,143219,128,0,143327:0:0:0:0:
51,192,143219,1,0,0:0:0:0:
153,192,143436,128,0,143653:0:0:0:0:
51,192,143436,1,0,0:0:0:0:
256,192,143653,128,0,143871:0:0:0:0:
358,192,143762,1,0,0:0:0:0:
460,192,143871,128,0,144088:0:0:0:0:
153,192,143871,1,0,0:0:0:0:
256,192,143979,1,0,0:0:0:0:
51,192,143979,1,0,0:0:0:0:
358,192,144088,1,0,0:0:0:0:
256,192,144161,1,0,0:0:0:0:
153,192,144233,1,0,0:0:0:0:
460,192,144305,1,0,0:0:0:0:
256,192,144378,1,0,0:0:0:0:
51,192,144450,1,0,0:0:0:0:
460,192,144523,1,0,0:0:0:0:
153,192,144523,1,0,0:0:0:0:
358,192,144523,128,0,144740:0:0:0:0:
51,192,144740,1,0,0:0:0:0:
460,192,144740,1,0,0:0:0:0:
153,192,144849,128,0,144958:0:0:0:0:
256,192,144849,128,0,144958:0:0:0:0:
358,192,144849,128,0,144958:0:0:0:0:
51,192,145175,1,0,0:0:0:0:
153,192,145296,1,0,0:0:0:0:
256,192,145392,1,0,0:0:0:0:
358,192,145513,1,0,0:0:0:0:
153,192,145731,1,0,0:0:0:0:
256,192,145948,1,0,0:0:0:0:
51,192,146045,1,0,0:0:0:0:
358,192,146165,1,0,0:0:0:0:
460,192,146262,1,0,0:0:0:0:
153,192,146262,1,0,0:0:0:0:
460,192,146479,1,0,0:0:0:0:
358,192,146552,1,0,0:0:0:0:
153,192,146624,1,0,0:0:0:0:
256,192,146697,1,0,0:0:0:0:
51,192,146697,1,0,0:0:0:0:
153,192,146878,128,0,147132:0:0:0:0:
460,192,146914,128,0,147132:0:0:0:0:
358,192,146914,128,0,147132:0:0:0:0:
460,192,147240,128,0,147403:0:0:0:0:
358,192,147240,128,0,147403:0:0:0:0:
153,192,147240,128,0,147403:0:0:0:0:
460,192,147566,128,0,147929:0:0:0:0:
358,192,147566,1,0,0:0:0:0:
153,192,147566,1,0,0:0:0:0:
51,192,147784,1,0,0:0:0:0:
153,192,147856,1,0,0:0:0:0:
256,192,147929,1,0,0:0:0:0:
51,192,148001,128,0,148327:0:0:0:0:
358,192,148001,128,0,148327:0:0:0:0:
460,192,148110,1,0,0:0:0:0:
153,192,148110,1,0,0:0:0:0:
153,192,148327,128,0,148871:0:0:0:0:
460,192,148327,1,0,0:0:0:0:
256,192,148327,1,0,0:0:0:0:
256,192,148653,1,0,0:0:0:0:
358,192,148871,1,0,0:0:0:0:
51,192,148871,1,0,0:0:0:0:
256,192,149088,128,0,149305:0:0:0:0:
358,192,149305,128,0,149523:0:0:0:0:
153,192,149523,128,0,149740:0:0:0:0:
256,192,149632,1,0,0:0:0:0:
358,192,149740,1,0,0:0:0:0:
51,192,149740,1,0,0:0:0:0:
460,192,149849,128,0,150066:0:0:0:0:
51,192,150066,128,0,150284:0:0:0:0:
460,192,150175,1,0,0:0:0:0:
51,192,150392,1,0,0:0:0:0:
358,192,150610,1,0,0:0:0:0:
153,192,150610,1,0,0:0:0:0:
256,192,150827,128,0,151045:0:0:0:0:
460,192,151045,128,0,151479:0:0:0:0:
51,192,151262,1,0,0:0:0:0:
256,192,151371,1,0,0:0:0:0:
153,192,151479,128,0,151697:0:0:0:0:
358,192,151479,1,0,0:0:0:0:
358,192,151805,1,0,0:0:0:0:
51,192,151805,128,0,152132:0:0:0:0:
256,192,151805,1,0,0:0:0:0:
153,192,152132,128,0,152349:0:0:0:0:
460,192,152349,1,0,0:0:0:0:
256,192,152349,128,0,152566:0:0:0:0:
358,192,152566,128,0,152784:0:0:0:0:
256,192,152784,128,0,153219:0:0:0:0:
51,192,152784,128,0,153219:0:0:0:0:
153,192,152784,1,0,0:0:0:0:
460,192,153110,1,0,0:0:0:0:
153,192,153219,128,0,153436:0:0:0:0:
358,192,153219,128,0,153436:0:0:0:0:
256,192,153545,1,0,0:0:0:0:
51,192,153545,128,0,154305:0:0:0:0:
460,192,153545,128,0,154305:0:0:0:0:
153,192,153871,1,0,0:0:0:0:
256,192,154088,1,0,0:0:0:0:
358,192,154088,1,0,0:0:0:0:
153,192,154305,1,0,0:0:0:0:
358,192,154414,1,0,0:0:0:0:
460,192,154523,128,0,154958:0:0:0:0:
256,192,154632,1,0,0:0:0:0:
51,192,154740,128,0,154958:0:0:0:0:
256,192,154849,1,0,0:0:0:0:
153,192,154958,128,0,155175:0:0:0:0:
358,192,154958,128,0,155175:0:0:0:0:
51,192,155175,1,0,0:0:0:0:
256,192,155175,1,0,0:0:0:0:
256,192,155284,1,0,0:0:0:0:
358,192,155284,1,0,0:0:0:0:
460,192,155392,128,0,155610:0:0:0:0:
153,192,155392,1,0,0:0:0:0:
51,192,155392,128,0,155827:0:0:0:0:
256,192,155610,128,0,155827:0:0:0:0:
358,192,155827,1,0,0:0:0:0:
460,192,155827,1,0,0:0:0:0:
358,192,155936,128,0,156045:0:0:0:0:
460,192,156153,128,0,156479:0:0:0:0:
153,192,156153,128,0,156479:0:0:0:0:
51,192,156262,1,0,0:0:0:0:
256,192,156479,128,0,156697:0:0:0:0:
460,192,156697,1,0,0:0:0:0:
51,192,156697,128,0,156914:0:0:0:0:
358,192,156914,128,0,157132:0:0:0:0:
153,192,157132,1,0,0:0:0:0:
460,192,157132,1,0,0:0:0:0:
256,192,157132,128,0,157349:0:0:0:0:
51,192,157349,1,0,0:0:0:0:
153,192,157458,128,0,157566:0:0:0:0:
460,192,157566,1,0,0:0:0:0:
256,192,157566,1,0,0:0:0:0:
51,192,157784,128,0,157892:0:0:0:0:
256,192,157892,1,0,0:0:0:0:
358,192,157892,1,0,0:0:0:0:
153,192,157892,1,0,0:0:0:0:
460,192,158001,128,0,158219:0:0:0:0:
358,192,158219,128,0,158436:0:0:0:0:
51,192,158436,1,0,0:0:0:0:
256,192,158436,128,0,158653:0:0:0:0:
153,192,158653,128,0,158871:0:0:0:0:
358,192,158871,1,0,0:0:0:0:
460,192,158871,1,0,0:0:0:0:
51,192,158871,128,0,159632:0:0:0:0:
256,192,159088,1,0,0:0:0:0:
153,192,159197,128,0,159632:0:0:0:0:
460,192,159305,1,0,0:0:0:0:
358,192,159305,1,0,0:0:0:0:
256,192,159632,1,0,0:0:0:0:
460,192,159740,1,0,0:0:0:0:
153,192,159958,128,0,160175:0:0:0:0:
460,192,160175,128,0,160392:0:0:0:0:
51,192,160175,1,0,0:0:0:0:
153,192,160284,1,0,0:0:0:0:
51,192,160284,1,0,0:0:0:0:
358,192,160392,128,0,160610:0:0:0:0:
256,192,160610,128,0,161045:0:0:0:0:
51,192,160610,1,0,0:0:0:0:
153,192,160610,1,0,0:0:0:0:
460,192,160827,1,0,0:0:0:0:
153,192,161045,128,0,161479:0:0:0:0:
358,192,161045,1,0,0:0:0:0:
51,192,161045,1,0,0:0:0:0:
460,192,161262,1,0,0:0:0:0:
51,192,161479,128,0,161914:0:0:0:0:
256,192,161479,1,0,0:0:0:0:
358,192,161479,1,0,0:0:0:0:
460,192,161697,1,0,0:0:0:0:
358,192,161805,1,0,0:0:0:0:
256,192,161860,1,0,0:0:0:0:
460,192,161914,128,0,162349:0:0:0:0:
153,192,161914,1,0,0:0:0:0:
153,192,162023,1,0,0:0:0:0:
51,192,162023,1,0,0:0:0:0:
358,192,162118,1,0,0:0:0:0:
256,192,162240,1,0,0:0:0:0:
51,192,162349,128,0,162403:0:0:0:0:
153,192,162349,128,0,162403:0:0:0:0:
358,192,162476,1,0,0:0:0:0:
153,192,162476,128,0,162530:0:0:0:0:
51,192,162476,128,0,162530:0:0:0:0:
256,192,162566,1,0,0:0:0:0:
460,192,162675,1,0,0:0:0:0:
51,192,162675,128,0,162729:0:0:0:0:
153,192,162675,128,0,162729:0:0:0:0:
51,192,163001,128,0,163055:0:0:0:0:
153,192,163001,128,0,163055:0:0:0:0:
358,192,163110,1,0,0:0:0:0:
51,192,163110,128,0,163164:0:0:0:0:
153,192,163110,128,0,163164:0:0:0:0:
256,192,163219,1,0,0:0:0:0:
460,192,163327,1,0,0:0:0:0:
51,192,163327,128,0,163382:0:0:0:0:
153,192,163327,128,0,163382:0:0:0:0:
460,192,163545,1,0,0:0:0:0:
256,192,163599,1,0,0:0:0:0:
51,192,163653,128,0,163708:0:0:0:0:
153,192,163653,128,0,163708:0:0:0:0:
358,192,163726,1,0,0:0:0:0:
460,192,163726,1,0,0:0:0:0:
51,192,163798,128,0,163853:0:0:0:0:
153,192,163798,128,0,163853:0:0:0:0:
358,192,163871,1,0,0:0:0:0:
51,192,163943,128,0,163998:0:0:0:0:
153,192,163943,128,0,163998:0:0:0:0:
256,192,164016,1,0,0:0:0:0:
460,192,164088,128,0,164142:0:0:0:0:
358,192,164088,128,0,164142:0:0:0:0:
153,192,164215,1,0,0:0:0:0:
460,192,164215,128,0,164269:0:0:0:0:
358,192,164215,128,0,164269:0:0:0:0:
358,192,164414,128,0,164469:0:0:0:0:
460,192,164414,128,0,164469:0:0:0:0:
460,192,164632,128,0,164686:0:0:0:0:
358,192,164632,128,0,164686:0:0:0:0:
460,192,164849,128,0,164903:0:0:0:0:
358,192,164849,128,0,164903:0:0:0:0:
153,192,164958,1,0,0:0:0:0:
256,192,164958,1,0,0:0:0:0:
51,192,164958,128,0,165175:0:0:0:0:
460,192,165066,1,0,0:0:0:0:
358,192,165121,1,0,0:0:0:0:
256,192,165175,1,0,0:0:0:0:
153,192,165284,1,0,0:0:0:0:
51,192,165284,1,0,0:0:0:0:
358,192,165392,1,0,0:0:0:0:
460,192,165392,128,0,165719:0:0:0:0:
256,192,165392,1,0,0:0:0:0:
153,192,165501,1,0,0:0:0:0:
51,192,165501,1,0,0:0:0:0:
358,192,165610,1,0,0:0:0:0:
256,192,165610,1,0,0:0:0:0:
51,192,165719,1,0,0:0:0:0:
153,192,165719,1,0,0:0:0:0:
358,192,165827,128,0,166045:0:0:0:0:
153,192,165827,128,0,166045:0:0:0:0:
460,192,165827,1,0,0:0:0:0:
51,192,166045,1,0,0:0:0:0:
256,192,166045,1,0,0:0:0:0:
358,192,166153,128,0,166371:0:0:0:0:
460,192,166153,128,0,166371:0:0:0:0:
153,192,166262,1,0,0:0:0:0:
256,192,166371,1,0,0:0:0:0:
358,192,166479,128,0,166805:0:0:0:0:
51,192,166479,128,0,166805:0:0:0:0:
153,192,166588,1,0,0:0:0:0:
153,192,166805,1,0,0:0:0:0:
460,192,166914,1,0,0:0:0:0:
256,192,166914,128,0,167132:0:0:0:0:
51,192,167132,128,0,167349:0:0:0:0:
460,192,167349,1,0,0:0:0:0:
256,192,167349,128,0,167566:0:0:0:0:
153,192,167566,128,0,167784:0:0:0:0:
358,192,167566,128,0,167784:0:0:0:0:
51,192,167784,1,0,0:0:0:0:
256,192,167784,1,0,0:0:0:0:
460,192,167892,128,0,168110:0:0:0:0:
358,192,167892,128,0,168110:0:0:0:0:
153,192,168001,1,0,0:0:0:0:
256,192,168110,1,0,0:0:0:0:
358,192,168219,128,0,168545:0:0:0:0:
51,192,168219,128,0,168545:0:0:0:0:
153,192,168327,1,0,0:0:0:0:
153,192,168545,1,0,0:0:0:0:
460,192,168653,128,0,168871:0:0:0:0:
256,192,168653,1,0,0:0:0:0:
358,192,168871,128,0,169088:0:0:0:0:
51,192,168979,1,0,0:0:0:0:
153,192,169088,1,0,0:0:0:0:
256,192,169088,128,0,169305:0:0:0:0:
51,192,169305,128,0,169523:0:0:0:0:
460,192,169305,1,0,0:0:0:0:
358,192,169305,1,0,0:0:0:0:
460,192,169523,1,0,0:0:0:0:
153,192,169523,128,0,169632:0:0:0:0:
358,192,169740,128,0,169849:0:0:0:0:
51,192,169849,1,0,0:0:0:0:
256,192,169958,1,0,0:0:0:0:
460,192,169958,128,0,170392:0:0:0:0:
153,192,170066,1,0,0:0:0:0:
153,192,170284,1,0,0:0:0:0:
358,192,170392,128,0,170501:0:0:0:0:
51,192,170392,1,0,0:0:0:0:
256,192,170610,1,0,0:0:0:0:
153,192,170827,128,0,171045:0:0:0:0:
358,192,170827,1,0,0:0:0:0:
460,192,171045,128,0,171371:0:0:0:0:
51,192,171045,1,0,0:0:0:0:
256,192,171045,1,0,0:0:0:0:
51,192,171262,1,0,0:0:0:0:
153,192,171262,1,0,0:0:0:0:
358,192,171479,128,0,171697:0:0:0:0:
51,192,171588,1,0,0:0:0:0:
153,192,171697,128,0,171914:0:0:0:0:
460,192,171697,1,0,0:0:0:0:
256,192,171805,1,0,0:0:0:0:
256,192,172023,1,0,0:0:0:0:
460,192,172132,128,0,172458:0:0:0:0:
51,192,172132,1,0,0:0:0:0:
358,192,172349,1,0,0:0:0:0:
256,192,172458,1,0,0:0:0:0:
51,192,172566,128,0,173653:0:0:0:0:
153,192,172566,128,0,173219:0:0:0:0:
460,192,172566,1,0,0:0:0:0:
358,192,172892,1,0,0:0:0:0:
256,192,173001,1,0,0:0:0:0:
460,192,173001,1,0,0:0:0:0:
358,192,173219,1,0,0:0:0:0:
256,192,173327,1,0,0:0:0:0:
153,192,173436,1,0,0:0:0:0:
460,192,173436,128,0,174305:0:0:0:0:
358,192,173545,1,0,0:0:0:0:
358,192,173762,1,0,0:0:0:0:
51,192,173871,1,0,0:0:0:0:
256,192,173871,1,0,0:0:0:0:
51,192,174088,128,0,174305:0:0:0:0:
153,192,174305,128,0,174523:0:0:0:0:
358,192,174305,1,0,0:0:0:0:
256,192,174523,128,0,174740:0:0:0:0:
460,192,174632,1,0,0:0:0:0:
51,192,174740,1,0,0:0:0:0:
358,192,174740,1,0,0:0:0:0:
460,192,174849,128,0,175066:0:0:0:0:
256,192,174958,1,0,0:0:0:0:
153,192,175066,1,0,0:0:0:0:
358,192,175175,128,0,175501:0:0:0:0:
51,192,175175,1,0,0:0:0:0:
460,192,175284,1,0,0:0:0:0:
460,192,175501,1,0,0:0:0:0:
256,192,175610,128,0,175827:0:0:0:0:
153,192,175610,1,0,0:0:0:0:
51,192,175827,128,0,176045:0:0:0:0:
153,192,175936,128,0,176045:0:0:0:0:
460,192,176045,1,0,0:0:0:0:
358,192,176045,1,0,0:0:0:0:
51,192,176153,128,0,176479:0:0:0:0:
153,192,176153,128,0,176371:0:0:0:0:
256,192,176153,128,0,176371:0:0:0:0:
460,192,176371,1,0,0:0:0:0:
256,192,176479,1,0,0:0:0:0:
358,192,176479,128,0,176697:0:0:0:0:
153,192,176697,128,0,176914:0:0:0:0:
256,192,176805,128,0,176914:0:0:0:0:
51,192,176914,1,0,0:0:0:0:
460,192,176914,1,0,0:0:0:0:
358,192,177023,128,0,177240:0:0:0:0:
256,192,177023,128,0,177240:0:0:0:0:
153,192,177023,128,0,177349:0:0:0:0:
460,192,177240,1,0,0:0:0:0:
358,192,177349,1,0,0:0:0:0:
51,192,177349,128,0,177566:0:0:0:0:
256,192,177566,128,0,177784:0:0:0:0:
358,192,177675,128,0,177784:0:0:0:0:
153,192,177784,1,0,0:0:0:0:
51,192,177784,1,0,0:0:0:0:
460,192,177892,128,0,178110:0:0:0:0:
358,192,177892,128,0,178110:0:0:0:0:
256,192,177892,128,0,178110:0:0:0:0:
51,192,178110,1,0,0:0:0:0:
358,192,178219,128,0,178436:0:0:0:0:
153,192,178219,128,0,178436:0:0:0:0:
460,192,178436,128,0,178653:0:0:0:0:
256,192,178436,128,0,178653:0:0:0:0:
358,192,178545,1,0,0:0:0:0:
51,192,178653,128,0,178871:0:0:0:0:
153,192,178653,128,0,178871:0:0:0:0:
358,192,178871,128,0,179088:0:0:0:0:
460,192,178871,128,0,179088:0:0:0:0:
51,192,178961,1,0,0:0:0:0:
256,192,179024,1,0,0:0:0:0:
153,192,179088,128,0,179197:0:0:0:0:
51,192,179197,128,0,179305:0:0:0:0:
358,192,179197,128,0,179305:0:0:0:0:
256,192,179305,1,0,0:0:0:0:
153,192,179414,1,0,0:0:0:0:
460,192,179414,1,0,0:0:0:0:
51,192,179523,1,0,0:0:0:0:
358,192,179523,1,0,0:0:0:0:
153,192,179740,128,0,179958:0:0:0:0:
358,192,179740,128,0,179958:0:0:0:0:
460,192,179740,1,0,0:0:0:0:
51,192,179958,1,0,0:0:0:0:
256,192,179958,1,0,0:0:0:0:
358,192,180066,128,0,180284:0:0:0:0:
460,192,180066,128,0,180284:0:0:0:0:
153,192,180175,1,0,0:0:0:0:
256,192,180284,1,0,0:0:0:0:
51,192,180392,128,0,180719:0:0:0:0:
358,192,180392,128,0,180719:0:0:0:0:
153,192,180501,1,0,0:0:0:0:
153,192,180719,1,0,0:0:0:0:
460,192,180827,128,0,181045:0:0:0:0:
256,192,180827,1,0,0:0:0:0:
51,192,181045,128,0,181262:0:0:0:0:
358,192,181262,1,0,0:0:0:0:
153,192,181262,128,0,181479:0:0:0:0:
358,192,181479,1,0,0:0:0:0:
460,192,181479,1,0,0:0:0:0:
256,192,181479,128,0,181805:0:0:0:0:
51,192,181588,1,0,0:0:0:0:
460,192,181805,128,0,182132:0:0:0:0:
51,192,181914,1,0,0:0:0:0:
153,192,181914,128,0,182132:0:0:0:0:
256,192,182023,128,0,182132:0:0:0:0:
358,192,182132,128,0,182566:0:0:0:0:
51,192,182204,1,0,0:0:0:0:
153,192,182277,1,0,0:0:0:0:
256,192,182349,1,0,0:0:0:0:
460,192,182349,1,0,0:0:0:0:
460,192,182566,128,0,182784:0:0:0:0:
153,192,182566,1,0,0:0:0:0:
51,192,182566,1,0,0:0:0:0:
358,192,182784,128,0,183001:0:0:0:0:
51,192,182784,1,0,0:0:0:0:
256,192,182892,128,0,183001:0:0:0:0:
153,192,183001,128,0,183110:0:0:0:0:
51,192,183219,128,0,183327:0:0:0:0:
358,192,183219,1,0,0:0:0:0:
460,192,183219,1,0,0:0:0:0:
153,192,183436,128,0,183545:0:0:0:0:
460,192,183436,1,0,0:0:0:0:
256,192,183653,128,0,183762:0:0:0:0:
358,192,183762,1,0,0:0:0:0:
460,192,183871,128,0,184305:0:0:0:0:
51,192,183871,1,0,0:0:0:0:
153,192,183979,1,0,0:0:0:0:
153,192,184197,1,0,0:0:0:0:
256,192,184305,128,0,184523:0:0:0:0:
51,192,184305,1,0,0:0:0:0:
460,192,184523,1,0,0:0:0:0:
256,192,184632,1,0,0:0:0:0:
51,192,184740,128,0,184849:0:0:0:0:
358,192,184740,1,0,0:0:0:0:
256,192,184958,128,0,185392:0:0:0:0:
153,192,184958,128,0,185392:0:0:0:0:
460,192,184958,1,0,0:0:0:0:
460,192,185175,1,0,0:0:0:0:
358,192,185175,1,0,0:0:0:0:
51,192,185284,1,0,0:0:0:0:
358,192,185392,128,0,185501:0:0:0:0:
51,192,185501,1,0,0:0:0:0:
256,192,185610,1,0,0:0:0:0:
358,192,185610,128,0,185719:0:0:0:0:
460,192,185610,128,0,185719:0:0:0:0:
256,192,185936,1,0,0:0:0:0:
358,192,186008,1,0,0:0:0:0:
460,192,186045,128,0,186099:0:0:0:0:
153,192,186045,128,0,186262:0:0:0:0:
51,192,186262,1,0,0:0:0:0:
256,192,186371,1,0,0:0:0:0:
153,192,186479,1,0,0:0:0:0:
51,192,186479,128,0,187349:0:0:0:0:
358,192,186479,128,0,187349:0:0:0:0:
256,192,186805,1,0,0:0:0:0:
460,192,186914,1,0,0:0:0:0:
153,192,186914,1,0,0:0:0:0:
153,192,187132,1,0,0:0:0:0:
256,192,187240,1,0,0:0:0:0:
460,192,187349,128,0,187784:0:0:0:0:
153,192,187349,1,0,0:0:0:0:
358,192,187458,1,0,0:0:0:0:
358,192,187675,1,0,0:0:0:0:
51,192,187784,1,0,0:0:0:0:
256,192,187784,128,0,188001:0:0:0:0:
358,192,188001,128,0,188219:0:0:0:0:
51,192,188110,1,0,0:0:0:0:
256,192,188219,1,0,0:0:0:0:
153,192,188219,1,0,0:0:0:0:
460,192,188219,128,0,188436:0:0:0:0:
51,192,188345,1,0,0:0:0:0:
153,192,188391,1,0,0:0:0:0:
256,192,188436,1,0,0:0:0:0:
460,192,188545,1,0,0:0:0:0:
51,192,188653,128,0,188871:0:0:0:0:
153,192,188780,1,0,0:0:0:0:
256,192,188825,1,0,0:0:0:0:
460,192,188871,1,0,0:0:0:0:
358,192,188871,128,0,189088:0:0:0:0:
153,192,188979,1,0,0:0:0:0:
51,192,189088,128,0,189305:0:0:0:0:
256,192,189197,1,0,0:0:0:0:
153,192,189305,1,0,0:0:0:0:
460,192,189305,128,0,189523:0:0:0:0:
358,192,189414,1,0,0:0:0:0:
256,192,189523,128,0,189740:0:0:0:0:
51,192,189632,1,0,0:0:0:0:
153,192,189740,128,0,189958:0:0:0:0:
460,192,189740,1,0,0:0:0:0:
358,192,189740,1,0,0:0:0:0:
51,192,189958,1,0,0:0:0:0:
358,192,189958,1,0,0:0:0:0:
460,192,190066,128,0,190827:0:0:0:0:
153,192,190066,1,0,0:0:0:0:
256,192,190066,128,0,190175:0:0:0:0:
51,192,190284,1,0,0:0:0:0:
153,192,190338,1,0,0:0:0:0:
256,192,190392,1,0,0:0:0:0:
358,192,190392,1,0,0:0:0:0:
153,192,190501,1,0,0:0:0:0:
51,192,190501,1,0,0:0:0:0:
358,192,190610,1,0,0:0:0:0:
256,192,190719,1,0,0:0:0:0:
51,192,190827,1,0,0:0:0:0:
153,192,190827,128,0,191479:0:0:0:0:
460,192,191045,1,0,0:0:0:0:
256,192,191262,1,0,0:0:0:0:
358,192,191334,1,0,0:0:0:0:
51,192,191407,1,0,0:0:0:0:
256,192,191479,1,0,0:0:0:0:
460,192,191479,1,0,0:0:0:0:
51,192,191697,128,0,192349:0:0:0:0:
256,192,191697,1,0,0:0:0:0:
358,192,191697,1,0,0:0:0:0:
460,192,191914,1,0,0:0:0:0:
153,192,192132,1,0,0:0:0:0:
358,192,192349,1,0,0:0:0:0:
256,192,192349,128,0,193098:0:0:0:0:
51,192,192634,1,0,0:0:0:0:
460,192,192634,1,0,0:0:0:0:
358,192,192711,1,0,0:0:0:0:
460,192,192784,1,0,0:0:0:0:
51,192,192784,1,0,0:0:0:0:
153,192,192892,1,0,0:0:0:0:
153,192,193098,1,0,0:0:0:0:
51,192,193327,1,0,0:0:0:0:
153,192,193436,1,0,0:0:0:0:
460,192,193436,1,0,0:0:0:0:
358,192,193436,128,0,194305:0:0:0:0:
51,192,193762,1,0,0:0:0:0:
153,192,193816,1,0,0:0:0:0:
256,192,193871,1,0,0:0:0:0:
460,192,193871,1,0,0:0:0:0:
153,192,194088,1,0,0:0:0:0:
460,192,194197,1,0,0:0:0:0:
153,192,194305,128,0,194876:0:0:0:0:
256,192,194305,1,0,0:0:0:0:
51,192,194305,1,0,0:0:0:0:
51,192,194523,1,0,0:0:0:0:
460,192,194632,1,0,0:0:0:0:
358,192,194740,1,0,0:0:0:0:
256,192,194813,1,0,0:0:0:0:
51,192,194876,1,0,0:0:0:0:
460,192,194876,1,0,0:0:0:0:
358,192,194940,1,0,0:0:0:0:
153,192,195020,1,0,0:0:0:0:
256,192,195094,1,0,0:0:0:0:
51,192,195175,128,0,195827:0:0:0:0:
358,192,195175,1,0,0:0:0:0:
460,192,195175,1,0,0:0:0:0:
460,192,195555,1,0,0:0:0:0:
153,192,195664,1,0,0:0:0:0:
358,192,195719,1,0,0:0:0:0:
460,192,195791,1,0,0:0:0:0:
256,192,195827,128,0,196479:0:0:0:0:
51,192,195918,1,0,0:0:0:0:
153,192,196004,1,0,0:0:0:0:
460,192,196085,1,0,0:0:0:0:
358,192,196153,1,0,0:0:0:0:
153,192,196262,1,0,0:0:0:0:
51,192,196334,1,0,0:0:0:0:
358,192,196407,1,0,0:0:0:0:
460,192,196479,128,0,196679:0:0:0:0:
153,192,196570,1,0,0:0:0:0:
256,192,196642,1,0,0:0:0:0:
51,192,196679,1,0,0:0:0:0:
358,192,196679,1,0,0:0:0:0:
153,192,196878,128,0,197240:0:0:0:0:
256,192,196914,1,0,0:0:0:0:
51,192,196914,128,0,198219:0:0:0:0:
358,192,197132,1,0,0:0:0:0:
153,192,197349,128,0,197458:0:0:0:0:
153,192,197566,128,0,197784:0:0:0:0:
460,192,197566,1,0,0:0:0:0:
358,192,197784,1,0,0:0:0:0:
153,192,198001,128,0,198219:0:0:0:0:
256,192,198219,128,0,198436:0:0:0:0:
51,192,198327,1,0,0:0:0:0:
460,192,198436,128,0,198545:0:0:0:0:
358,192,198436,128,0,198545:0:0:0:0:
51,192,198653,128,0,199088:0:0:0:0:
153,192,198653,1,0,0:0:0:0:
358,192,198653,128,0,199305:0:0:0:0:
460,192,198871,1,0,0:0:0:0:
256,192,199088,128,0,199305:0:0:0:0:
153,192,199305,1,0,0:0:0:0:
51,192,199305,128,0,199523:0:0:0:0:
460,192,199523,128,0,199849:0:0:0:0:
358,192,199632,1,0,0:0:0:0:
256,192,199740,1,0,0:0:0:0:
153,192,199958,128,0,200175:0:0:0:0:
460,192,199958,1,0,0:0:0:0:
358,192,200012,1,0,0:0:0:0:
51,192,200066,1,0,0:0:0:0:
256,192,200121,1,0,0:0:0:0:
358,192,200175,128,0,200392:0:0:0:0:
460,192,200175,128,0,200392:0:0:0:0:
51,192,200284,1,0,0:0:0:0:
153,192,200392,128,0,200610:0:0:0:0:
256,192,200501,1,0,0:0:0:0:
51,192,200610,128,0,200827:0:0:0:0:
358,192,200610,128,0,200827:0:0:0:0:
460,192,200610,1,0,0:0:0:0:
256,192,200827,128,0,201045:0:0:0:0:
153,192,201045,128,0,201153:0:0:0:0:
358,192,201045,128,0,201153:0:0:0:0:
153,192,201262,128,0,201697:0:0:0:0:
358,192,201262,128,0,201697:0:0:0:0:
51,192,201262,1,0,0:0:0:0:
460,192,201479,1,0,0:0:0:0:
51,192,201697,128,0,201805:0:0:0:0:
256,192,201697,128,0,201805:0:0:0:0:
153,192,201914,128,0,202349:0:0:0:0:
460,192,201914,128,0,202349:0:0:0:0:
358,192,201914,1,0,0:0:0:0:
51,192,202349,1,0,0:0:0:0:
460,192,202458,1,0,0:0:0:0:
358,192,202494,1,0,0:0:0:0:
256,192,202530,1,0,0:0:0:0:
153,192,202566,128,0,202770:0:0:0:0:
51,192,202566,128,0,202770:0:0:0:0:
358,192,202770,1,0,0:0:0:0:
256,192,202770,1,0,0:0:0:0:
51,192,202906,1,0,0:0:0:0:
153,192,202906,1,0,0:0:0:0:
460,192,203001,128,0,203219:0:0:0:0:
358,192,203001,128,0,203219:0:0:0:0:
153,192,203110,1,0,0:0:0:0:
256,192,203110,1,0,0:0:0:0:
51,192,203219,128,0,203653:0:0:0:0:
256,192,203327,1,0,0:0:0:0:
358,192,203327,1,0,0:0:0:0:
153,192,203436,128,0,203871:0:0:0:0:
358,192,203545,1,0,0:0:0:0:
460,192,203545,1,0,0:0:0:0:
256,192,203653,128,0,203871:0:0:0:0:
358,192,203762,1,0,0:0:0:0:
51,192,203871,128,0,204414:0:0:0:0:
460,192,203943,128,0,204414:0:0:0:0:
358,192,204016,1,0,0:0:0:0:
256,192,204088,1,0,0:0:0:0:
153,192,204088,1,0,0:0:0:0:
256,192,204704,128,0,204958:0:0:0:0:
358,192,204958,128,0,205103:0:0:0:0:
153,192,205175,128,0,205392:0:0:0:0:
51,192,205392,1,0,0:0:0:0:
460,192,205501,128,0,205664:0:0:0:0:
256,192,205592,1,0,0:0:0:0:
51,192,205755,128,0,206045:0:0:0:0:
460,192,205827,1,0,0:0:0:0:
358,192,206153,1,0,0:0:0:0:
153,192,206479,128,0,206624:0:0:0:0:
460,192,206697,128,0,207132:0:0:0:0:
153,192,207132,128,0,207421:0:0:0:0:
358,192,207132,1,0,0:0:0:0:
51,192,207458,128,0,207675:0:0:0:0:
256,192,207566,1,0,0:0:0:0:
153,192,207820,128,0,208001:0:0:0:0:
256,192,208055,128,0,208255:0:0:0:0:
358,192,208255,128,0,208436:0:0:0:0:
51,192,208436,128,0,208871:0:0:0:0:
256,192,208436,128,0,208871:0:0:0:0:
460,192,208653,1,0,0:0:0:0:
358,192,208871,128,0,209197:0:0:0:0:
153,192,208871,128,0,209197:0:0:0:0:
256,192,209088,1,0,0:0:0:0:
460,192,209197,128,0,209958:0:0:0:0:
51,192,209305,128,0,209958:0:0:0:0:
153,192,209305,1,0,0:0:0:0:
256,192,209523,1,0,0:0:0:0:
358,192,209740,1,0,0:0:0:0:
153,192,209958,1,0,0:0:0:0:
358,192,210175,128,0,211045:0:0:0:0:
51,192,210392,128,0,210610:0:0:0:0:
153,192,210610,128,0,210827:0:0:0:0:
256,192,210827,128,0,211045:0:0:0:0:
153,192,211045,1,0,0:0:0:0:
460,192,211045,128,0,211153:0:0:0:0:
51,192,211045,1,0,0:0:0:0:
460,192,211262,128,0,211479:0:0:0:0:
153,192,211407,1,0,0:0:0:0:
358,192,211479,1,0,0:0:0:0:
358,192,211588,128,0,211697:0:0:0:0:
256,192,211697,1,0,0:0:0:0:
460,192,211805,128,0,212132:0:0:0:0:
153,192,211914,1,0,0:0:0:0:
51,192,211914,1,0,0:0:0:0:
256,192,212132,128,0,212349:0:0:0:0:
51,192,212277,1,0,0:0:0:0:
153,192,212349,128,0,212566:0:0:0:0:
358,192,212566,128,0,212784:0:0:0:0:
460,192,212711,1,0,0:0:0:0:
256,192,212784,128,0,213001:0:0:0:0:
153,192,212784,1,0,0:0:0:0:
51,192,213001,1,0,0:0:0:0:
153,192,213110,128,0,213327:0:0:0:0:
358,192,213219,1,0,0:0:0:0:
51,192,213436,128,0,213653:0:0:0:0:
256,192,213581,1,0,0:0:0:0:
460,192,213653,128,0,213871:0:0:0:0:
358,192,213653,1,0,0:0:0:0:
358,192,213871,128,0,214088:0:0:0:0:
153,192,214016,1,0,0:0:0:0:
256,192,214088,128,0,214305:0:0:0:0:
153,192,214305,128,0,214523:0:0:0:0:
460,192,214450,1,0,0:0:0:0:
51,192,214523,128,0,215284:0:0:0:0:
256,192,214523,1,0,0:0:0:0:
358,192,214740,1,0,0:0:0:0:
153,192,214849,128,0,215284:0:0:0:0:
460,192,214958,1,0,0:0:0:0:
358,192,215175,1,0,0:0:0:0:
256,192,215320,1,0,0:0:0:0:
460,192,215392,1,0,0:0:0:0:
358,192,215392,1,0,0:0:0:0:
153,192,215610,128,0,215827:0:0:0:0:
256,192,215746,1,0,0:0:0:0:
460,192,215827,128,0,216045:0:0:0:0:
358,192,216045,128,0,216262:0:0:0:0:
51,192,216180,1,0,0:0:0:0:
256,192,216262,128,0,216697:0:0:0:0:
153,192,216262,1,0,0:0:0:0:
51,192,216479,1,0,0:0:0:0:
358,192,216615,1,0,0:0:0:0:
153,192,216697,128,0,217132:0:0:0:0:
51,192,216697,1,0,0:0:0:0:
460,192,216914,1,0,0:0:0:0:
358,192,217050,1,0,0:0:0:0:
51,192,217132,128,0,217566:0:0:0:0:
256,192,217132,1,0,0:0:0:0:
460,192,217325,1,0,0:0:0:0:
153,192,217458,1,0,0:0:0:0:
358,192,217458,1,0,0:0:0:0:
460,192,217566,128,0,218001:0:0:0:0:
256,192,217566,1,0,0:0:0:0:
51,192,217702,1,0,0:0:0:0:
256,192,217770,1,0,0:0:0:0:
153,192,217852,1,0,0:0:0:0:
358,192,217920,1,0,0:0:0:0:
51,192,218001,128,0,218055:0:0:0:0:
153,192,218001,128,0,218055:0:0:0:0:
358,192,218128,1,0,0:0:0:0:
51,192,218128,128,0,218182:0:0:0:0:
153,192,218128,128,0,218182:0:0:0:0:
256,192,218219,1,0,0:0:0:0:
460,192,218327,1,0,0:0:0:0:
51,192,218327,128,0,218382:0:0:0:0:
153,192,218327,128,0,218382:0:0:0:0:
51,192,218653,128,0,218708:0:0:0:0:
153,192,218653,128,0,218708:0:0:0:0:
358,192,218762,1,0,0:0:0:0:
51,192,218762,128,0,218816:0:0:0:0:
153,192,218762,128,0,218816:0:0:0:0:
256,192,218871,1,0,0:0:0:0:
153,192,218979,128,0,219034:0:0:0:0:
51,192,218979,128,0,219034:0:0:0:0:
460,192,218979,1,0,0:0:0:0:
460,192,219197,1,0,0:0:0:0:
256,192,219251,1,0,0:0:0:0:
51,192,219305,128,0,219360:0:0:0:0:
153,192,219305,128,0,219360:0:0:0:0:
358,192,219378,1,0,0:0:0:0:
460,192,219378,1,0,0:0:0:0:
51,192,219450,128,0,219505:0:0:0:0:
153,192,219450,128,0,219505:0:0:0:0:
358,192,219523,1,0,0:0:0:0:
51,192,219595,128,0,219650:0:0:0:0:
153,192,219595,128,0,219650:0:0:0:0:
256,192,219668,1,0,0:0:0:0:
460,192,219740,128,0,219795:0:0:0:0:
358,192,219740,128,0,219795:0:0:0:0:
153,192,219867,1,0,0:0:0:0:
460,192,219867,128,0,219921:0:0:0:0:
358,192,219867,128,0,219921:0:0:0:0:
358,192,220066,128,0,220121:0:0:0:0:
460,192,220066,128,0,220121:0:0:0:0:
460,192,220284,128,0,220338:0:0:0:0:
358,192,220284,128,0,220338:0:0:0:0:
460,192,220501,128,0,220555:0:0:0:0:
358,192,220501,128,0,220555:0:0:0:0:
153,192,220610,1,0,0:0:0:0:
256,192,220610,1,0,0:0:0:0:
51,192,220610,128,0,220827:0:0:0:0:
460,192,220719,1,0,0:0:0:0:
358,192,220773,1,0,0:0:0:0:
256,192,220827,1,0,0:0:0:0:
51,192,220936,1,0,0:0:0:0:
153,192,220936,1,0,0:0:0:0:
256,192,221045,1,0,0:0:0:0:
460,192,221045,128,0,221371:0:0:0:0:
358,192,221045,1,0,0:0:0:0:
51,192,221153,1,0,0:0:0:0:
153,192,221153,1,0,0:0:0:0:
256,192,221262,1,0,0:0:0:0:
358,192,221262,1,0,0:0:0:0:
153,192,221371,1,0,0:0:0:0:
51,192,221371,1,0,0:0:0:0:
358,192,221479,128,0,221697:0:0:0:0:
153,192,221479,128,0,221697:0:0:0:0:
460,192,221479,1,0,0:0:0:0:
51,192,221697,1,0,0:0:0:0:
256,192,221697,1,0,0:0:0:0:
358,192,221805,128,0,222023:0:0:0:0:
460,192,221805,128,0,222023:0:0:0:0:
153,192,221914,1,0,0:0:0:0:
256,192,222023,1,0,0:0:0:0:
358,192,222132,128,0,222458:0:0:0:0:
51,192,222132,128,0,222458:0:0:0:0:
153,192,222240,1,0,0:0:0:0:
153,192,222458,1,0,0:0:0:0:
460,192,222566,1,0,0:0:0:0:
256,192,222566,128,0,222784:0:0:0:0:
51,192,222784,128,0,223001:0:0:0:0:
460,192,223001,1,0,0:0:0:0:
256,192,223001,128,0,223219:0:0:0:0:
153,192,223219,128,0,223436:0:0:0:0:
358,192,223219,128,0,223436:0:0:0:0:
51,192,223436,1,0,0:0:0:0:
256,192,223436,1,0,0:0:0:0:
460,192,223545,128,0,223762:0:0:0:0:
358,192,223545,128,0,223762:0:0:0:0:
153,192,223653,1,0,0:0:0:0:
256,192,223762,1,0,0:0:0:0:
358,192,223871,128,0,224197:0:0:0:0:
51,192,223871,128,0,224197:0:0:0:0:
153,192,223979,1,0,0:0:0:0:
153,192,224197,1,0,0:0:0:0:
460,192,224305,128,0,224523:0:0:0:0:
256,192,224305,1,0,0:0:0:0:
358,192,224523,128,0,224740:0:0:0:0:
51,192,224632,1,0,0:0:0:0:
153,192,224740,1,0,0:0:0:0:
256,192,224740,128,0,224958:0:0:0:0:
51,192,224958,128,0,225066:0:0:0:0:
460,192,224958,1,0,0:0:0:0:
358,192,224958,1,0,0:0:0:0:
460,192,225175,1,0,0:0:0:0:
153,192,225175,128,0,225392:0:0:0:0:
358,192,225392,128,0,225610:0:0:0:0:
51,192,225501,1,0,0:0:0:0:
256,192,225610,1,0,0:0:0:0:
460,192,225610,128,0,226045:0:0:0:0:
153,192,225719,1,0,0:0:0:0:
153,192,225936,1,0,0:0:0:0:
358,192,226045,128,0,226153:0:0:0:0:
51,192,226045,1,0,0:0:0:0:
256,192,226262,1,0,0:0:0:0:
153,192,226479,128,0,226697:0:0:0:0:
358,192,226479,1,0,0:0:0:0:
460,192,226697,128,0,227023:0:0:0:0:
51,192,226697,1,0,0:0:0:0:
256,192,226697,1,0,0:0:0:0:
51,192,226914,1,0,0:0:0:0:
153,192,226914,1,0,0:0:0:0:
358,192,227132,128,0,227349:0:0:0:0:
51,192,227240,1,0,0:0:0:0:
153,192,227349,128,0,227566:0:0:0:0:
460,192,227349,1,0,0:0:0:0:
256,192,227458,1,0,0:0:0:0:
256,192,227675,1,0,0:0:0:0:
460,192,227784,128,0,228110:0:0:0:0:
51,192,227784,1,0,0:0:0:0:
358,192,228001,1,0,0:0:0:0:
256,192,228110,1,0,0:0:0:0:
51,192,228219,128,0,229305:0:0:0:0:
153,192,228219,128,0,228871:0:0:0:0:
460,192,228219,1,0,0:0:0:0:
358,192,228545,1,0,0:0:0:0:
256,192,228653,1,0,0:0:0:0:
460,192,228653,1,0,0:0:0:0:
358,192,228871,1,0,0:0:0:0:
256,192,228979,1,0,0:0:0:0:
153,192,229088,1,0,0:0:0:0:
460,192,229088,128,0,229958:0:0:0:0:
358,192,229197,1,0,0:0:0:0:
358,192,229414,1,0,0:0:0:0:
256,192,229523,1,0,0:0:0:0:
51,192,229523,1,0,0:0:0:0:
51,192,229740,128,0,229958:0:0:0:0:
358,192,229958,1,0,0:0:0:0:
153,192,229958,128,0,230175:0:0:0:0:
256,192,230175,128,0,230392:0:0:0:0:
460,192,230284,1,0,0:0:0:0:
51,192,230392,1,0,0:0:0:0:
358,192,230392,1,0,0:0:0:0:
460,192,230501,128,0,230719:0:0:0:0:
256,192,230610,1,0,0:0:0:0:
153,192,230719,1,0,0:0:0:0:
358,192,230827,128,0,231153:0:0:0:0:
51,192,230827,1,0,0:0:0:0:
460,192,230936,1,0,0:0:0:0:
460,192,231153,1,0,0:0:0:0:
256,192,231262,128,0,231479:0:0:0:0:
153,192,231262,1,0,0:0:0:0:
51,192,231479,128,0,231697:0:0:0:0:
153,192,231588,128,0,231697:0:0:0:0:
460,192,231697,1,0,0:0:0:0:
358,192,231697,1,0,0:0:0:0:
51,192,231805,128,0,232132:0:0:0:0:
153,192,231805,128,0,232023:0:0:0:0:
256,192,231805,128,0,232023:0:0:0:0:
460,192,232023,1,0,0:0:0:0:
256,192,232132,1,0,0:0:0:0:
358,192,232132,128,0,232349:0:0:0:0:
153,192,232349,128,0,232566:0:0:0:0:
256,192,232458,128,0,232566:0:0:0:0:
51,192,232566,1,0,0:0:0:0:
460,192,232566,1,0,0:0:0:0:
358,192,232675,128,0,232892:0:0:0:0:
256,192,232675,128,0,232892:0:0:0:0:
153,192,232675,128,0,233001:0:0:0:0:
460,192,232892,1,0,0:0:0:0:
358,192,233001,1,0,0:0:0:0:
51,192,233001,128,0,233219:0:0:0:0:
256,192,233219,128,0,233436:0:0:0:0:
358,192,233327,128,0,233436:0:0:0:0:
153,192,233436,1,0,0:0:0:0:
51,192,233436,1,0,0:0:0:0:
460,192,233545,128,0,233762:0:0:0:0:
358,192,233545,128,0,233762:0:0:0:0:
256,192,233545,128,0,233762:0:0:0:0:
51,192,233762,1,0,0:0:0:0:
358,192,233871,128,0,234088:0:0:0:0:
153,192,233871,128,0,234088:0:0:0:0:
460,192,234088,128,0,234305:0:0:0:0:
256,192,234088,128,0,234305:0:0:0:0:
358,192,234197,1,0,0:0:0:0:
51,192,234305,128,0,234523:0:0:0:0:
153,192,234305,128,0,234523:0:0:0:0:
358,192,234523,128,0,234740:0:0:0:0:
460,192,234523,128,0,234740:0:0:0:0:
51,192,234613,1,0,0:0:0:0:
256,192,234676,1,0,0:0:0:0:
153,192,234740,128,0,234849:0:0:0:0:
51,192,234849,128,0,234958:0:0:0:0:
358,192,234849,128,0,234958:0:0:0:0:
153,192,235066,1,0,0:0:0:0:
460,192,235066,1,0,0:0:0:0:
358,192,235175,1,0,0:0:0:0:
51,192,235175,1,0,0:0:0:0:
153,192,235392,128,0,235610:0:0:0:0:
358,192,235392,128,0,235610:0:0:0:0:
460,192,235392,1,0,0:0:0:0:
51,192,235610,1,0,0:0:0:0:
256,192,235610,1,0,0:0:0:0:
358,192,235719,128,0,235936:0:0:0:0:
460,192,235719,128,0,235936:0:0:0:0:
153,192,235827,1,0,0:0:0:0:
256,192,235936,1,0,0:0:0:0:
51,192,236045,128,0,236371:0:0:0:0:
358,192,236045,128,0,236371:0:0:0:0:
153,192,236153,1,0,0:0:0:0:
153,192,236371,1,0,0:0:0:0:
460,192,236479,128,0,236697:0:0:0:0:
256,192,236479,1,0,0:0:0:0:
51,192,236697,128,0,236914:0:0:0:0:
358,192,236914,1,0,0:0:0:0:
153,192,236914,128,0,237132:0:0:0:0:
358,192,237132,1,0,0:0:0:0:
460,192,237132,1,0,0:0:0:0:
256,192,237132,128,0,237458:0:0:0:0:
51,192,237240,1,0,0:0:0:0:
460,192,237458,128,0,237784:0:0:0:0:
51,192,237566,1,0,0:0:0:0:
153,192,237566,128,0,237784:0:0:0:0:
256,192,237675,128,0,237784:0:0:0:0:
358,192,237784,128,0,238219:0:0:0:0:
51,192,237856,1,0,0:0:0:0:
153,192,237929,1,0,0:0:0:0:
256,192,238001,1,0,0:0:0:0:
460,192,238001,1,0,0:0:0:0:
460,192,238219,128,0,238436:0:0:0:0:
153,192,238219,1,0,0:0:0:0:
51,192,238219,1,0,0:0:0:0:
358,192,238436,128,0,238653:0:0:0:0:
51,192,238436,1,0,0:0:0:0:
256,192,238545,128,0,238653:0:0:0:0:
153,192,238653,128,0,238762:0:0:0:0:
51,192,238871,128,0,239088:0:0:0:0:
358,192,238871,1,0,0:0:0:0:
460,192,238871,1,0,0:0:0:0:
153,192,239088,128,0,239305:0:0:0:0:
460,192,239088,1,0,0:0:0:0:
256,192,239305,128,0,239523:0:0:0:0:
358,192,239414,1,0,0:0:0:0:
460,192,239523,128,0,239740:0:0:0:0:
51,192,239523,1,0,0:0:0:0:
153,192,239632,1,0,0:0:0:0:
153,192,239849,1,0,0:0:0:0:
256,192,239958,1,0,0:0:0:0:
51,192,239958,128,0,240501:0:0:0:0:
460,192,240175,1,0,0:0:0:0:
256,192,240284,1,0,0:0:0:0:
358,192,240392,1,0,0:0:0:0:
153,192,240392,128,0,240501:0:0:0:0:
256,192,240610,128,0,241045:0:0:0:0:
153,192,240610,128,0,241045:0:0:0:0:
460,192,240610,1,0,0:0:0:0:
460,192,240827,1,0,0:0:0:0:
358,192,240827,1,0,0:0:0:0:
51,192,240936,1,0,0:0:0:0:
358,192,241045,128,0,241153:0:0:0:0:
51,192,241153,1,0,0:0:0:0:
256,192,241262,1,0,0:0:0:0:
460,192,241262,128,0,241371:0:0:0:0:
358,192,241262,128,0,241371:0:0:0:0:
256,192,241588,1,0,0:0:0:0:
358,192,241661,1,0,0:0:0:0:
460,192,241697,128,0,241751:0:0:0:0:
153,192,241697,128,0,242132:0:0:0:0:
51,192,241914,1,0,0:0:0:0:
256,192,242023,1,0,0:0:0:0:
460,192,242132,1,0,0:0:0:0:
51,192,242132,128,0,243001:0:0:0:0:
358,192,242132,128,0,243001:0:0:0:0:
256,192,242458,1,0,0:0:0:0:
460,192,242566,1,0,0:0:0:0:
153,192,242566,1,0,0:0:0:0:
153,192,242784,1,0,0:0:0:0:
256,192,242892,1,0,0:0:0:0:
460,192,243001,128,0,243436:0:0:0:0:
153,192,243001,1,0,0:0:0:0:
358,192,243110,1,0,0:0:0:0:
358,192,243327,1,0,0:0:0:0:
51,192,243436,1,0,0:0:0:0:
256,192,243436,128,0,243653:0:0:0:0:
358,192,243653,128,0,243871:0:0:0:0:
51,192,243762,1,0,0:0:0:0:
153,192,243871,1,0,0:0:0:0:
256,192,243871,1,0,0:0:0:0:
460,192,243871,128,0,244170:0:0:0:0:
51,192,244170,1,0,0:0:0:0:
153,192,244251,1,0,0:0:0:0:
460,192,244305,1,0,0:0:0:0:
256,192,244305,128,0,244523:0:0:0:0:
51,192,244414,1,0,0:0:0:0:
153,192,244414,1,0,0:0:0:0:
358,192,244523,128,0,244740:0:0:0:0:
460,192,244523,1,0,0:0:0:0:
51,192,244632,1,0,0:0:0:0:
153,192,244632,1,0,0:0:0:0:
256,192,244740,128,0,244958:0:0:0:0:
460,192,244740,1,0,0:0:0:0:
153,192,244849,1,0,0:0:0:0:
51,192,244849,1,0,0:0:0:0:
460,192,244958,128,0,245175:0:0:0:0:
358,192,244958,1,0,0:0:0:0:
256,192,245048,1,0,0:0:0:0:
153,192,245111,1,0,0:0:0:0:
51,192,245175,128,0,245392:0:0:0:0:
358,192,245175,1,0,0:0:0:0:
256,192,245284,1,0,0:0:0:0:
460,192,245392,1,0,0:0:0:0:
460,192,245501,128,0,245610:0:0:0:0:
256,192,245610,1,0,0:0:0:0:
358,192,245610,1,0,0:0:0:0:
51,192,245719,128,0,245963:0:0:0:0:
460,192,245827,1,0,0:0:0:0:
153,192,245827,128,0,245963:0:0:0:0:
358,192,245963,1,0,0:0:0:0:
256,192,246045,1,0,0:0:0:0:
153,192,246099,128,0,248219:0:0:0:0:
51,192,246153,128,0,249088:0:0:0:0:
460,192,246262,1,0,0:0:0:0:
256,192,246371,1,0,0:0:0:0:
358,192,246479,1,0,0:0:0:0:
460,192,246479,1,0,0:0:0:0:
256,192,246588,1,0,0:0:0:0:
358,192,246805,1,0,0:0:0:0:
256,192,246914,1,0,0:0:0:0:
460,192,246914,1,0,0:0:0:0:
460,192,247132,1,0,0:0:0:0:
358,192,247349,1,0,0:0:0:0:
256,192,247349,1,0,0:0:0:0:
358,192,247566,1,0,0:0:0:0:
460,192,247784,1,0,0:0:0:0:
256,192,247784,1,0,0:0:0:0:
460,192,248001,1,0,0:0:0:0:
256,192,248110,1,0,0:0:0:0:
460,192,248219,128,0,248327:0:0:0:0:
358,192,248219,1,0,0:0:0:0:
153,192,248327,1,0,0:0:0:0:
358,192,248436,128,0,248545:0:0:0:0:
460,192,248545,128,0,248653:0:0:0:0:
256,192,248653,1,0,0:0:0:0:
153,192,248653,1,0,0:0:0:0:
358,192,248762,128,0,248871:0:0:0:0:
460,192,248871,1,0,0:0:0:0:
256,192,248979,128,0,249088:0:0:0:0:
153,192,249088,1,0,0:0:0:0:
460,192,249088,128,0,249305:0:0:0:0:
358,192,249251,128,0,249305:0:0:0:0:
256,192,249305,1,0,0:0:0:0:
51,192,249305,1,0,0:0:0:0:
153,192,249305,128,0,250392:0:0:0:0:
256,192,249523,1,0,0:0:0:0:
460,192,249523,1,0,0:0:0:0:
358,192,249740,1,0,0:0:0:0:
460,192,249849,1,0,0:0:0:0:
256,192,249958,1,0,0:0:0:0:
51,192,249958,1,0,0:0:0:0:
358,192,250066,1,0,0:0:0:0:
358,192,250284,1,0,0:0:0:0:
51,192,250392,1,0,0:0:0:0:
460,192,250392,1,0,0:0:0:0:
256,192,250501,1,0,0:0:0:0:
153,192,250555,1,0,0:0:0:0:
51,192,250610,128,0,250827:0:0:0:0:
460,192,250827,1,0,0:0:0:0:
153,192,250827,128,0,250882:0:0:0:0:
460,192,251045,128,0,251479:0:0:0:0:
358,192,251045,1,0,0:0:0:0:
51,192,251262,1,0,0:0:0:0:
256,192,251262,1,0,0:0:0:0:
358,192,251479,128,0,251697:0:0:0:0:
153,192,251588,1,0,0:0:0:0:
51,192,251588,1,0,0:0:0:0:
256,192,251697,128,0,251805:0:0:0:0:
460,192,251805,1,0,0:0:0:0:
460,192,252023,1,0,0:0:0:0:
256,192,252132,1,0,0:0:0:0:
153,192,252132,128,0,252240:0:0:0:0:
358,192,252349,1,0,0:0:0:0:
460,192,252458,1,0,0:0:0:0:
153,192,252566,1,0,0:0:0:0:
256,192,252566,1,0,0:0:0:0:
51,192,252566,128,0,253327:0:0:0:0:
358,192,252892,1,0,0:0:0:0:
153,192,253001,1,0,0:0:0:0:
460,192,253001,1,0,0:0:0:0:
256,192,253219,1,0,0:0:0:0:
460,192,253327,1,0,0:0:0:0:
358,192,253436,128,0,254523:0:0:0:0:
153,192,253436,1,0,0:0:0:0:
51,192,253545,1,0,0:0:0:0:
51,192,253762,1,0,0:0:0:0:
460,192,253871,1,0,0:0:0:0:
153,192,253871,1,0,0:0:0:0:
256,192,254088,1,0,0:0:0:0:
51,192,254197,1,0,0:0:0:0:
153,192,254305,1,0,0:0:0:0:
460,192,254305,1,0,0:0:0:0:
256,192,254523,1,0,0:0:0:0:
460,192,254613,128,0,254740:0:0:0:0:
358,192,254740,128,0,254849:0:0:0:0:
51,192,254740,1,0,0:0:0:0:
256,192,254849,128,0,254903:0:0:0:0:
153,192,254958,128,0,255066:0:0:0:0:
256,192,255066,128,0,255175:0:0:0:0:
153,192,255175,128,0,255284:0:0:0:0:
460,192,255175,1,0,0:0:0:0:
51,192,255284,128,0,255338:0:0:0:0:
358,192,255392,128,0,255447:0:0:0:0:
256,192,255501,128,0,255592:0:0:0:0:
460,192,255592,128,0,255719:0:0:0:0:
153,192,255592,1,0,0:0:0:0:
358,192,255719,128,0,255773:0:0:0:0:
256,192,255827,128,0,255936:0:0:0:0:
153,192,255936,128,0,256045:0:0:0:0:
460,192,256045,1,0,0:0:0:0:
51,192,256045,128,0,256153:0:0:0:0:
358,192,256153,128,0,256316:0:0:0:0:
256,192,256153,128,0,256316:0:0:0:0:
153,192,256153,1,0,0:0:0:0:
358,192,256371,1,0,0:0:0:0:
256,192,256425,128,0,256479:0:0:0:0:
460,192,256479,1,0,0:0:0:0:
153,192,256479,128,0,256615:0:0:0:0:
51,192,256615,128,0,256805:0:0:0:0:
358,192,256697,1,0,0:0:0:0:
256,192,256805,128,0,256914:0:0:0:0:
358,192,256914,1,0,0:0:0:0:
460,192,256914,1,0,0:0:0:0:
153,192,257023,128,0,257240:0:0:0:0:
256,192,257023,128,0,257240:0:0:0:0:
51,192,257240,128,0,257349:0:0:0:0:
460,192,257349,1,0,0:0:0:0:
153,192,257349,128,0,257458:0:0:0:0:
256,192,257458,128,0,257566:0:0:0:0:
358,192,257566,128,0,257621:0:0:0:0:
153,192,257661,128,0,257716:0:0:0:0:
51,192,257757,1,0,0:0:0:0:
256,192,257757,128,0,257811:0:0:0:0:
358,192,257892,128,0,258110:0:0:0:0:
460,192,257892,128,0,258110:0:0:0:0:
153,192,257892,1,0,0:0:0:0:
51,192,258110,1,0,0:0:0:0:
460,192,258219,1,0,0:0:0:0:
153,192,258219,1,0,0:0:0:0:
358,192,258273,1,0,0:0:0:0:
256,192,258327,128,0,258436:0:0:0:0:
51,192,258436,128,0,258545:0:0:0:0:
153,192,258545,1,0,0:0:0:0:
256,192,258599,1,0,0:0:0:0:
460,192,258653,1,0,0:0:0:0:
358,192,258653,1,0,0:0:0:0:
51,192,258735,128,0,258871:0:0:0:0:
256,192,258871,128,0,258979:0:0:0:0:
51,192,258979,128,0,259052:0:0:0:0:
358,192,259034,1,0,0:0:0:0:
256,192,259052,128,0,259197:0:0:0:0:
153,192,259197,128,0,259269:0:0:0:0:
460,192,259197,1,0,0:0:0:0:
358,192,259269,128,0,259414:0:0:0:0:
256,192,259414,128,0,259487:0:0:0:0:
358,192,259487,128,0,259595:0:0:0:0:
460,192,259595,128,0,259686:0:0:0:0:
153,192,259740,1,0,0:0:0:0:
256,192,259740,1,0,0:0:0:0:
51,192,259740,1,0,0:0:0:0:
460,192,259849,128,0,259958:0:0:0:0:
256,192,259958,128,0,260066:0:0:0:0:
358,192,259958,1,0,0:0:0:0:
51,192,260066,128,0,260175:0:0:0:0:
460,192,260175,128,0,260392:0:0:0:0:
153,192,260284,1,0,0:0:0:0:
256,192,260392,128,0,260501:0:0:0:0:
358,192,260392,1,0,0:0:0:0:
51,192,260501,128,0,260610:0:0:0:0:
460,192,260610,128,0,260719:0:0:0:0:
256,192,260719,128,0,260827:0:0:0:0:
51,192,260827,128,0,260936:0:0:0:0:
153,192,260827,1,0,0:0:0:0:
460,192,260936,128,0,261153:0:0:0:0:
358,192,261045,1,0,0:0:0:0:
256,192,261153,128,0,261262:0:0:0:0:
51,192,261262,128,0,261353:0:0:0:0:
153,192,261262,1,0,0:0:0:0:
460,192,261353,128,0,261479:0:0:0:0:
358,192,261479,1,0,0:0:0:0:
153,192,261479,1,0,0:0:0:0:
256,192,261479,1,0,0:0:0:0:
460,192,261588,128,0,261697:0:0:0:0:
256,192,261697,128,0,261805:0:0:0:0:
51,192,261805,128,0,261914:0:0:0:0:
460,192,261914,128,0,262132:0:0:0:0:
153,192,261914,1,0,0:0:0:0:
256,192,262132,128,0,262240:0:0:0:0:
153,192,262186,1,0,0:0:0:0:
51,192,262240,128,0,262349:0:0:0:0:
358,192,262295,1,0,0:0:0:0:
460,192,262349,128,0,262458:0:0:0:0:
153,192,262349,1,0,0:0:0:0:
256,192,262458,128,0,262512:0:0:0:0:
51,192,262566,128,0,262621:0:0:0:0:
153,192,262566,1,0,0:0:0:0:
358,192,262639,1,0,0:0:0:0:
460,192,262689,128,0,262874:0:0:0:0:
256,192,262784,1,0,0:0:0:0:
51,192,262784,1,0,0:0:0:0:
153,192,262874,128,0,262947:0:0:0:0:
358,192,262947,128,0,263028:0:0:0:0:
256,192,263028,128,0,263092:0:0:0:0:
51,192,263092,128,0,263219:0:0:0:0:
358,192,263219,128,0,263382:0:0:0:0:
460,192,263219,1,0,0:0:0:0:
153,192,263219,1,0,0:0:0:0:
51,192,263382,128,0,263545:0:0:0:0:
256,192,263436,1,0,0:0:0:0:
460,192,263436,1,0,0:0:0:0:
153,192,263545,128,0,264740:0:0:0:0:
358,192,263653,1,0,0:0:0:0:
51,192,263762,1,0,0:0:0:0:
460,192,263871,1,0,0:0:0:0:
256,192,263871,1,0,0:0:0:0:
358,192,263979,1,0,0:0:0:0:
358,192,264197,1,0,0:0:0:0:
256,192,264305,1,0,0:0:0:0:
460,192,264305,1,0,0:0:0:0:
358,192,264523,1,0,0:0:0:0:
51,192,264632,1,0,0:0:0:0:
256,192,264740,1,0,0:0:0:0:
460,192,264740,1,0,0:0:0:0:
358,192,264921,1,0,0:0:0:0:
153,192,264958,1,0,0:0:0:0:
51,192,264958,1,0,0:0:0:0:
460,192,264958,128,0,265284:0:0:0:0:
358,192,265284,1,0,0:0:0:0:
153,192,265338,1,0,0:0:0:0:
51,192,265392,128,0,265610:0:0:0:0:
358,192,265501,1,0,0:0:0:0:
460,192,265610,128,0,265719:0:0:0:0:
256,192,265610,128,0,265719:0:0:0:0:
153,192,265610,1,0,0:0:0:0:
51,192,265936,1,0,0:0:0:0:
153,192,266045,128,0,266153:0:0:0:0:
358,192,266045,128,0,266153:0:0:0:0:
51,192,266262,1,0,0:0:0:0:
460,192,266371,1,0,0:0:0:0:
358,192,266479,1,0,0:0:0:0:
256,192,266479,128,0,267240:0:0:0:0:
51,192,266479,128,0,267240:0:0:0:0:
153,192,266805,1,0,0:0:0:0:
358,192,266914,1,0,0:0:0:0:
460,192,266914,1,0,0:0:0:0:
460,192,267132,1,0,0:0:0:0:
153,192,267240,5,0,0:0:0:0:
358,192,267349,128,0,268001:0:0:0:0:
51,192,267349,1,0,0:0:0:0:
460,192,267458,1,0,0:0:0:0:
153,192,267566,1,0,0:0:0:0:
460,192,267675,1,0,0:0:0:0:
51,192,267784,1,0,0:0:0:0:
256,192,267784,1,0,0:0:0:0:
153,192,268001,1,0,0:0:0:0:
358,192,268110,1,0,0:0:0:0:
51,192,268219,128,0,268490:0:0:0:0:
153,192,268219,1,0,0:0:0:0:
256,192,268219,1,0,0:0:0:0:
460,192,268508,1,0,0:0:0:0:
358,192,268545,1,0,0:0:0:0:
256,192,268581,1,0,0:0:0:0:
51,192,268653,128,0,268726:0:0:0:0:
256,192,268726,1,0,0:0:0:0:
153,192,268871,128,0,269124:0:0:0:0:
256,192,268871,1,0,0:0:0:0:
256,192,269051,1,0,0:0:0:0:
358,192,269124,128,0,269355:0:0:0:0:
256,192,269227,1,0,0:0:0:0:
51,192,269433,1,0,0:0:0:0:
153,192,269433,1,0,0:0:0:0:
460,192,269524,128,0,270073:0:0:0:0:
358,192,270164,128,0,270216:0:0:0:0:
256,192,270321,128,0,270374:0:0:0:0:
153,192,270479,128,0,270532:0:0:0:0:
460,192,270543,1,0,0:0:0:0:
358,192,270651,128,0,270703:0:0:0:0:
256,192,270784,128,0,270837:0:0:0:0:
256,192,270911,128,0,270964:0:0:0:0:
153,192,271014,128,0,271066:0:0:0:0:
358,192,271079,1,0,0:0:0:0:
51,192,271195,128,0,271247:0:0:0:0:
460,192,271353,128,0,271406:0:0:0:0:
358,192,271553,128,0,271605:0:0:0:0:
256,192,271773,128,0,271825:0:0:0:0:
153,192,272089,128,0,272141:0:0:0:0:
460,192,272240,1,0,0:0:0:0:
358,192,272331,1,0,0:0:0:0:
256,192,272452,1,0,0:0:0:0:
51,192,272573,128,0,274165:0:0:0:0:
358,192,272862,1,0,0:0:0:0:
256,192,273135,1,0,0:0:0:0:
153,192,273408,1,0,0:0:0:0:
460,192,273682,1,0,0:0:0:0:
358,192,273892,1,0,0:0:0:0:
358,192,274329,1,0,0:0:0:0:
460,192,274399,128,0,274593:0:0:0:0:
358,192,274646,128,0,275590:0:0:0:0:
51,192,275590,128,0,275718:0:0:0:0:
153,192,275718,128,0,275782:0:0:0:0:
460,192,275782,128,0,276120:0:0:0:0:
358,192,276120,128,0,276470:0:0:0:0:
256,192,276470,128,0,276821:0:0:0:0:
153,192,276821,128,0,277172:0:0:0:0:
256,192,277172,128,0,277523:0:0:0:0:
460,192,277370,1,0,0:0:0:0:
51,192,277523,128,0,277918:0:0:0:0:
153,192,277918,128,0,278293:0:0:0:0:
256,192,277918,1,0,0:0:0:0:
460,192,277918,1,0,0:0:0:0:
358,192,278293,128,0,278345:0:0:0:0:
153,192,278699,1,0,0:0:0:0:
256,192,278730,1,0,0:0:0:0:
358,192,278730,128,0,278782:0:0:0:0:
358,192,279270,1,0,0:0:0:0:
256,192,279338,128,0,285088:0:0:0:0:
153,192,279338,1,0,0:0:0:0:
51,192,279338,1,0,0:0:0:0:
51,192,280222,1,0,0:0:0:0:
460,192,280278,1,0,0:0:0:0:
460,192,280651,1,0,0:0:0:0:
358,192,280823,1,0,0:0:0:0:
51,192,280886,1,0,0:0:0:0:
153,192,280960,1,0,0:0:0:0:
358,192,281015,1,0,0:0:0:0:
460,192,281082,1,0,0:0:0:0:
51,192,281148,1,0,0:0:0:0:
153,192,281190,1,0,0:0:0:0:
358,192,281218,1,0,0:0:0:0:
460,192,281259,1,0,0:0:0:0:
51,192,281314,1,0,0:0:0:0:
153,192,281365,1,0,0:0:0:0:
358,192,281402,1,0,0:0:0:0:
460,192,281439,1,0,0:0:0:0:
51,192,281508,1,0,0:0:0:0:
153,192,281536,1,0,0:0:0:0:
460,192,281591,1,0,0:0:0:0:
358,192,281660,1,0,0:0:0:0:
153,192,281743,1,0,0:0:0:0:
51,192,281784,1,0,0:0:0:0:
460,192,281826,1,0,0:0:0:0:
358,192,281867,1,0,0:0:0:0:
153,192,281900,1,0,0:0:0:0:
51,192,281964,1,0,0:0:0:0:
460,192,282033,1,0,0:0:0:0:
358,192,282089,1,0,0:0:0:0:
153,192,282158,1,0,0:0:0:0:
51,192,282227,1,0,0:0:0:0:
460,192,282310,1,0,0:0:0:0:
358,192,282379,1,0,0:0:0:0:
153,192,282434,1,0,0:0:0:0:
51,192,282545,1,0,0:0:0:0:
460,192,282637,1,0,0:0:0:0:
358,192,282748,1,0,0:0:0:0:
51,192,282803,1,0,0:0:0:0:
460,192,282858,1,0,0:0:0:0:
153,192,282946,1,0,0:0:0:0:
51,192,282992,1,0,0:0:0:0:
460,192,283084,1,0,0:0:0:0:
51,192,283167,1,0,0:0:0:0:
460,192,283256,1,0,0:0:0:0:
51,192,283333,1,0,0:0:0:0:
460,192,283448,1,0,0:0:0:0:
51,192,283503,1,0,0:0:0:0:
460,192,283595,1,0,0:0:0:0:
51,192,285088,1,0,0:0:0:0:
358,192,285134,1,0,0:0:0:0:
460,192,285134,1,0,0:0:0:0:
51,192,285181,1,0,0:0:0:0:
153,192,285181,1,0,0:0:0:0:
