osu file format v14

[General]
AudioFilename: audio.mp3
AudioLeadIn: 0
PreviewTime: 40815
Countdown: 1
SampleSet: None
StackLeniency: 0.7
Mode: 1
LetterboxInBreaks: 0
WidescreenStoryboard: 0

[Editor]
DistanceSpacing: 0.4
BeatDivisor: 4
GridSize: 32
TimelineZoom: 1.7

[Metadata]
Title:Toumeiseisai
TitleUnicode:透明声彩
Artist:YuNi
ArtistUnicode:YuNi
Creator:komasy
Version:Transparent
Source:
Tags:YUC'e ゆーしえ Virtual YouTuber VTuber VSinger
BeatmapID:1826860
BeatmapSetID:874018

[Difficulty]
HPDrainRate:5
CircleSize:5
OverallDifficulty:5
ApproachRate:5
SliderMultiplier:1.4
SliderTickRate:1

[Events]
//Background and Video events
0,0,"BG.jpg",0,100
//Break Periods
//Storyboard Layer 0 (Background)
//Storyboard Layer 1 (Fail)
//Storyboard Layer 2 (Pass)
//Storyboard Layer 3 (Foreground)
//Storyboard Sound Samples

[TimingPoints]
-6,428.571428571429,4,1,0,5,1,0
1708,-133.333333333333,4,1,0,5,0,0
3315,-200,4,1,0,10,0,0
10172,-133.333333333333,4,1,0,20,0,0
17029,-113.636363636364,4,1,0,30,0,0
22386,-113.636363636364,4,1,0,50,0,0
23458,-100,4,1,0,60,0,0
23994,-100,4,1,0,60,0,0
24101,-100,4,1,0,70,0,0
30744,-100,4,1,0,5,0,0
30851,-100,4,1,0,5,0,1
31386,-100,4,1,0,70,0,1
31494,-100,4,1,0,70,0,0
36101,-100,4,1,0,5,0,0
37172,-100,4,1,0,50,0,0
38458,-117.647058823529,4,1,0,50,0,0
39315,-142.857142857143,4,1,0,50,0,0
40172,-181.818181818182,4,1,0,50,0,0
40601,-100,4,1,0,50,0,0
41136,-75.187969924812,4,1,0,90,0,1
47565,-75.187969924812,4,1,0,70,0,0
47994,-75.187969924812,4,1,0,90,0,1
54422,-75.187969924812,4,1,0,90,0,0
54851,-75.187969924812,4,1,0,90,0,1
61279,-75.187969924812,4,1,0,90,0,0
61708,-75.187969924812,4,1,0,90,0,1
65244,-83.3333333333333,4,1,0,90,0,1
67065,-84.0336134453781,4,1,0,80,0,1
67172,-86.2068965517241,4,1,0,80,0,1
67279,-88.4955752212389,4,1,0,80,0,1
67386,-90.9090909090909,4,1,0,80,0,1
67601,-93.4579439252336,4,1,0,80,0,1
67708,-96.1538461538461,4,1,0,80,0,1
67815,-99.009900990099,4,1,0,80,0,1
67922,-102.040816326531,4,1,0,80,0,1
68029,-105.263157894737,4,1,0,80,0,1
68136,-108.695652173913,4,1,0,80,0,0
68244,-112.359550561798,4,1,0,80,0,0
68351,-116.279069767442,4,1,0,80,0,0
68458,-120.481927710843,4,1,0,80,0,0
68565,-125,4,1,0,60,0,1
82279,-100,4,1,0,70,0,1
89244,-83.3333333333333,4,1,0,70,0,1
90744,-71.4285714285714,4,1,0,70,0,1
92565,-62.5,4,1,0,70,0,1
94279,-55.5555555555556,4,1,0,70,0,1
95136,-50,4,1,0,70,0,1
95994,-50,4,1,0,5,0,0
97601,-133.333333333333,4,1,0,30,0,0
98458,-153.846153846154,4,1,0,30,0,0
99315,-181.818181818182,4,1,0,30,0,0
100172,-222.222222222222,4,1,0,40,0,0
100601,-133.333333333333,4,1,0,50,0,0
101029,-83.3333333333333,4,1,0,70,0,0
104458,-75.187969924812,4,1,0,90,0,0
104565,-75.187969924812,4,1,0,90,0,1
109815,-75.187969924812,4,1,0,80,0,1
110994,-75.187969924812,4,1,0,80,0,0
111422,-75.187969924812,4,1,0,90,0,1
117851,-75.187969924812,4,1,0,90,0,0
118279,-75.187969924812,4,1,0,90,0,1
122029,-83.3333333333333,4,1,0,80,0,1
123636,-88.4955752212389,4,1,0,80,0,1
123744,-89.2857142857143,4,1,0,80,0,1
123851,-90.0900900900901,4,1,0,80,0,1
123958,-90.9090909090909,4,1,0,80,0,1
124172,-91.743119266055,4,1,0,80,0,1
124279,-92.5925925925926,4,1,0,80,0,1
124386,-93.4579439252336,4,1,0,80,0,1
124494,-94.3396226415094,4,1,0,80,0,1
124601,-95.2380952380952,4,1,0,80,0,1
124708,-96.1538461538461,4,1,0,80,0,0
124815,-97.0873786407767,4,1,0,80,0,0
124922,-98.0392156862745,4,1,0,80,0,0
125029,-99.009900990099,4,1,0,80,0,0
125136,-100,4,1,0,80,0,1
131565,-100,4,1,0,80,0,0
131994,-100,4,1,0,80,0,1
132101,-85.4700854700855,4,1,0,80,0,1
135315,-74.6268656716418,4,1,0,80,0,1
137244,-66.6666666666667,4,1,0,80,0,1
138851,-66.6666666666667,4,1,0,70,0,0
138958,-100,4,1,0,20,0,0
140458,-111.111111111111,4,1,0,20,0,0
142172,-125,4,1,0,10,0,0
143886,-142.857142857143,4,1,0,10,0,0
145601,-166.666666666667,4,1,0,10,0,0
147315,-200,4,1,0,5,0,0
149029,-250,4,1,0,5,0,0
150744,-333.333333333333,4,1,0,5,0,0

[HitObjects]
293,203,3422,5,8,0:0:0:0:
215,185,4065,1,8,0:0:0:0:
349,216,5136,1,8,0:0:0:0:
270,198,5779,1,8,0:0:0:0:
270,198,6851,1,8,0:0:0:0:
270,198,7494,1,8,0:0:0:0:
270,198,8565,1,8,0:0:0:0:
270,198,9208,1,8,0:0:0:0:
336,316,10279,1,0,0:0:0:0:
319,267,10708,1,8,0:0:0:0:
311,242,10922,1,0,0:0:0:0:
311,242,11565,1,8,0:0:0:0:
311,242,11994,1,0,0:0:0:0:
311,242,12422,1,8,0:0:0:0:
311,242,12636,1,0,0:0:0:0:
311,242,13065,1,0,0:0:0:0:
311,242,13279,1,8,0:0:0:0:
311,242,13708,1,0,0:0:0:0:
311,242,14136,1,8,0:0:0:0:
311,242,14351,1,0,0:0:0:0:
311,242,14994,1,8,0:0:0:0:
311,242,15422,1,0,0:0:0:0:
311,242,15851,1,8,0:0:0:0:
311,242,16065,1,0,0:0:0:0:
311,242,16494,1,0,0:0:0:0:
311,242,16601,1,8,0:0:0:0:
311,242,16708,1,8,0:0:0:0:
311,242,16922,1,8,0:0:0:0:
311,242,17136,1,0,0:0:0:0:
356,270,17565,1,8,0:0:0:0:
354,268,17779,1,0,0:0:0:0:
347,263,17886,1,8,0:0:0:0:
316,241,18208,1,0,0:0:0:0:
295,226,18422,1,8,0:0:0:0:
284,205,18636,1,8,0:0:0:0:
274,185,18851,1,0,0:0:0:0:
324,186,19279,1,8,0:0:0:0:
344,186,19494,1,0,0:0:0:0:
359,186,19601,1,8,0:0:0:0:
367,186,19708,1,8,0:0:0:0:
422,186,19922,1,0,0:0:0:0:
395,186,20136,1,8,0:0:0:0:
375,178,20351,1,8,0:0:0:0:
311,242,20565,1,0,0:0:0:0:
356,270,20994,1,8,0:0:0:0:
354,268,21208,1,0,0:0:0:0:
347,263,21315,1,8,0:0:0:0:
316,241,21637,1,0,0:0:0:0:
295,226,21851,1,8,0:0:0:0:
284,205,22065,1,8,0:0:0:0:
279,195,22172,1,8,0:0:0:0:
274,185,22280,1,0,0:0:0:0:
324,186,22708,1,8,0:0:0:0:
344,186,22923,1,0,0:0:0:0:
422,186,23351,1,0,0:0:0:0:
395,186,23565,1,8,0:0:0:0:
385,179,23672,1,8,0:0:0:0:
374,172,23779,1,8,0:0:0:0:
363,165,23886,1,8,0:0:0:0:
353,158,23994,1,0,0:0:0:0:
305,221,24636,1,0,0:0:0:0:
317,205,24851,1,8,0:0:0:0:
371,197,25279,1,8,0:0:0:0:
350,200,25494,1,8,0:0:0:0:
350,200,25601,1,8,0:0:0:0:
350,200,25708,1,0,0:0:0:0:
368,181,25922,1,0,0:0:0:0:
368,181,26351,1,0,0:0:0:0:
368,181,26565,1,8,0:0:0:0:
350,200,26779,1,0,0:0:0:0:
354,201,26851,1,0,0:0:0:0:
359,202,26922,1,0,0:0:0:0:
365,203,26994,1,8,0:0:0:0:
359,202,27208,1,8,0:0:0:0:
359,202,27315,1,8,0:0:0:0:
350,202,27422,1,0,0:0:0:0:
372,246,27851,1,8,0:0:0:0:
363,227,28065,1,0,0:0:0:0:
363,227,28279,1,8,0:0:0:0:
363,227,28494,1,8,0:0:0:0:
363,227,28922,1,8,0:0:0:0:
363,227,29136,1,0,0:0:0:0:
293,204,29565,1,0,0:0:0:0:
310,190,29779,1,12,0:0:0:0:
348,158,30208,1,4,0:0:0:0:
390,124,30636,1,12,0:0:0:0:
390,124,31494,1,0,0:0:0:0:
390,124,31708,1,8,0:0:0:0:
431,154,32136,1,8,0:0:0:0:
412,140,32351,1,8,0:0:0:0:
399,149,32458,1,8,0:0:0:0:
412,140,32565,1,0,0:0:0:0:
397,155,32779,1,0,0:0:0:0:
360,192,33208,1,0,0:0:0:0:
340,212,33422,1,8,0:0:0:0:
363,204,33636,1,0,0:0:0:0:
295,179,33851,1,8,0:0:0:0:
321,174,34065,1,8,0:0:0:0:
330,172,34136,1,8,0:0:0:0:
339,170,34208,1,8,0:0:0:0:
348,168,34279,1,0,0:0:0:0:
324,155,34494,1,8,0:0:0:0:
324,155,34708,1,8,0:0:0:0:
345,166,34922,1,0,0:0:0:0:
359,145,35136,1,8,0:0:0:0:
385,106,35244,1,8,0:0:0:0:
372,125,35351,1,8,0:0:0:0:
385,106,35565,1,0,0:0:0:0:
385,106,35779,1,8,0:0:0:0:
385,106,35994,1,4,0:0:0:0:
265,214,37279,1,8,0:0:0:0:
274,205,37386,1,8,0:0:0:0:
279,200,37494,1,8,0:0:0:0:
286,193,37601,1,8,0:0:0:0:
295,185,37708,1,8,0:0:0:0:
383,120,38565,1,8,0:0:0:0:
298,182,39422,1,8,0:0:0:0:
384,123,40279,1,8,0:0:0:0:
343,151,40708,1,12,0:0:0:0:
395,153,41136,1,4,0:0:0:0:
397,189,41458,1,8,0:0:0:0:
397,200,41565,1,0,0:0:0:0:
412,217,41779,1,8,0:0:0:0:
428,235,41994,1,0,0:0:0:0:
444,254,42208,1,8,0:0:0:0:
451,262,42315,1,8,0:0:0:0:
459,270,42422,1,0,0:0:0:0:
475,287,42636,1,8,0:0:0:0:
475,287,42851,1,0,0:0:0:0:
475,287,43172,1,8,0:0:0:0:
475,287,43279,1,0,0:0:0:0:
475,287,43494,1,8,0:0:0:0:
475,287,43708,1,0,0:0:0:0:
475,287,43815,1,8,0:0:0:0:
475,287,44029,1,8,0:0:0:0:
475,287,44136,1,0,0:0:0:0:
453,277,44351,1,0,0:0:0:0:
442,272,44458,1,8,0:0:0:0:
426,265,44565,1,0,0:0:0:0:
415,258,44672,1,0,0:0:0:0:
384,247,44886,1,8,0:0:0:0:
393,251,44994,1,0,0:0:0:0:
385,226,45208,1,8,0:0:0:0:
378,198,45422,1,0,0:0:0:0:
378,198,45529,1,8,0:0:0:0:
378,198,45744,1,8,0:0:0:0:
378,198,45851,1,0,0:0:0:0:
378,198,46065,1,8,0:0:0:0:
378,198,46279,1,0,0:0:0:0:
378,198,46386,1,0,0:0:0:0:
378,198,46494,1,8,0:0:0:0:
360,186,46601,1,8,0:0:0:0:
378,198,46708,1,0,0:0:0:0:
378,198,46922,1,8,0:0:0:0:
378,198,47136,1,0,0:0:0:0:
370,198,47244,1,8,0:0:0:0:
343,200,47458,1,8,0:0:0:0:
341,189,47565,1,0,0:0:0:0:
339,179,47636,1,0,0:0:0:0:
337,167,47708,1,0,0:0:0:0:
331,159,47779,1,8,0:0:0:0:
322,146,47886,1,8,0:0:0:0:
313,132,47994,1,0,0:0:0:0:
335,98,48315,1,8,0:0:0:0:
335,98,48422,1,0,0:0:0:0:
335,98,48636,1,8,0:0:0:0:
335,98,48851,1,0,0:0:0:0:
335,98,49065,1,8,0:0:0:0:
335,98,49172,1,0,0:0:0:0:
310,106,49386,1,8,0:0:0:0:
295,111,49494,1,0,0:0:0:0:
277,118,49601,1,8,0:0:0:0:
273,106,49708,1,0,0:0:0:0:
287,116,49815,1,0,0:0:0:0:
308,110,50029,1,8,0:0:0:0:
316,111,50136,1,0,0:0:0:0:
316,111,50351,1,8,0:0:0:0:
316,111,50565,1,0,0:0:0:0:
316,111,50672,1,8,0:0:0:0:
316,111,50886,1,8,0:0:0:0:
316,111,50994,1,0,0:0:0:0:
316,111,51101,1,0,0:0:0:0:
316,111,51208,1,8,0:0:0:0:
316,111,51422,1,0,0:0:0:0:
316,111,51636,1,0,0:0:0:0:
316,111,51744,1,0,0:0:0:0:
316,111,51851,1,8,0:0:0:0:
316,111,52065,1,8,0:0:0:0:
299,117,52172,1,8,0:0:0:0:
279,96,52279,1,0,0:0:0:0:
264,131,52386,1,8,0:0:0:0:
316,111,52494,1,8,0:0:0:0:
316,111,52601,1,0,0:0:0:0:
264,131,52815,1,8,0:0:0:0:
279,96,52922,1,0,0:0:0:0:
322,151,53351,1,8,0:0:0:0:
217,73,53458,1,8,0:0:0:0:
224,75,53565,1,8,0:0:0:0:
243,90,53779,1,8,0:0:0:0:
250,95,53851,1,8,0:0:0:0:
259,102,53922,1,8,0:0:0:0:
264,106,53994,1,0,0:0:0:0:
276,110,54101,1,8,0:0:0:0:
291,116,54208,1,0,0:0:0:0:
305,122,54315,1,0,0:0:0:0:
217,73,54422,1,8,0:0:0:0:
395,153,54851,1,4,0:0:0:0:
397,189,55173,1,8,0:0:0:0:
397,200,55280,1,0,0:0:0:0:
412,217,55494,1,8,0:0:0:0:
428,235,55709,1,0,0:0:0:0:
444,254,55923,1,8,0:0:0:0:
451,262,56030,1,8,0:0:0:0:
459,270,56137,1,0,0:0:0:0:
475,287,56351,1,8,0:0:0:0:
475,287,56566,1,0,0:0:0:0:
464,284,56672,1,0,0:0:0:0:
475,287,56887,1,8,0:0:0:0:
475,287,56994,1,0,0:0:0:0:
475,287,57209,1,0,0:0:0:0:
475,287,57315,1,8,0:0:0:0:
466,285,57422,1,0,0:0:0:0:
475,287,57530,1,8,0:0:0:0:
456,282,57744,1,8,0:0:0:0:
475,287,57851,1,0,0:0:0:0:
453,277,58066,1,8,0:0:0:0:
442,272,58173,1,8,0:0:0:0:
426,265,58280,1,0,0:0:0:0:
415,258,58601,1,8,0:0:0:0:
393,251,58709,1,0,0:0:0:0:
385,226,58923,1,8,0:0:0:0:
378,198,59137,1,0,0:0:0:0:
378,198,59244,1,8,0:0:0:0:
378,198,59459,1,8,0:0:0:0:
378,198,59566,1,0,0:0:0:0:
378,198,59780,1,8,0:0:0:0:
364,192,59886,1,8,0:0:0:0:
378,198,59994,1,0,0:0:0:0:
378,198,60101,1,8,0:0:0:0:
360,186,60316,1,8,0:0:0:0:
378,198,60423,1,0,0:0:0:0:
378,198,60637,1,8,0:0:0:0:
378,198,60851,1,0,0:0:0:0:
370,198,60959,1,0,0:0:0:0:
355,203,61065,1,8,0:0:0:0:
341,198,61172,1,0,0:0:0:0:
332,198,61279,1,8,0:0:0:0:
300,187,61494,1,8,0:0:0:0:
282,181,61601,1,8,0:0:0:0:
261,174,61708,1,0,0:0:0:0:
335,98,62030,1,8,0:0:0:0:
335,98,62137,1,0,0:0:0:0:
335,98,62351,1,8,0:0:0:0:
335,98,62566,1,0,0:0:0:0:
350,102,62672,1,0,0:0:0:0:
335,98,62780,1,8,0:0:0:0:
335,98,62887,1,0,0:0:0:0:
310,106,63101,1,8,0:0:0:0:
295,111,63209,1,0,0:0:0:0:
277,118,63316,1,8,0:0:0:0:
273,106,63423,1,0,0:0:0:0:
287,116,63530,1,0,0:0:0:0:
308,110,63744,1,8,0:0:0:0:
316,111,63851,1,0,0:0:0:0:
316,111,64066,1,8,0:0:0:0:
316,111,64280,1,0,0:0:0:0:
316,111,64387,1,8,0:0:0:0:
316,111,64601,1,8,0:0:0:0:
316,111,64709,1,0,0:0:0:0:
316,111,64816,1,0,0:0:0:0:
316,111,64923,1,8,0:0:0:0:
320,96,65029,1,8,0:0:0:0:
316,111,65137,1,0,0:0:0:0:
224,128,65779,1,0,0:0:0:0:
256,128,65994,1,8,0:0:0:0:
288,128,66208,1,4,0:0:0:0:
288,128,66636,1,12,0:0:0:0:
352,192,67065,1,8,0:0:0:0:
352,192,67172,1,8,0:0:0:0:
320,192,67279,1,8,0:0:0:0:
320,192,67386,1,0,0:0:0:0:
416,256,67601,1,0,0:0:0:0:
416,256,67708,1,8,0:0:0:0:
416,256,67815,1,8,0:0:0:0:
416,256,67922,1,0,0:0:0:0:
416,256,68029,1,0,0:0:0:0:
416,256,68136,1,8,0:0:0:0:
416,256,68244,1,8,0:0:0:0:
416,256,68351,1,8,0:0:0:0:
416,256,68458,1,8,0:0:0:0:
416,256,68565,1,0,0:0:0:0:
320,128,69422,1,8,0:0:0:0:
300,124,69636,1,8,0:0:0:0:
352,160,69744,1,0,0:0:0:0:
352,160,70065,1,0,0:0:0:0:
224,128,70494,1,8,0:0:0:0:
224,128,70922,1,0,0:0:0:0:
192,128,71136,1,8,0:0:0:0:
162,123,71458,1,8,0:0:0:0:
224,64,71565,1,0,0:0:0:0:
206,70,71779,1,8,0:0:0:0:
192,128,71994,1,4,0:0:0:0:
288,128,72636,1,0,0:0:0:0:
256,128,72851,1,8,0:0:0:0:
192,128,73065,1,8,0:0:0:0:
192,128,73172,1,0,0:0:0:0:
256,128,73494,1,0,0:0:0:0:
216,115,73922,1,0,0:0:0:0:
196,109,74136,1,8,0:0:0:0:
192,115,74351,1,0,0:0:0:0:
216,115,74458,1,0,0:0:0:0:
256,96,74565,1,8,0:0:0:0:
256,96,74672,1,8,0:0:0:0:
231,103,74886,1,8,0:0:0:0:
256,96,74994,1,0,0:0:0:0:
256,96,75422,1,4,0:0:0:0:
313,124,76065,1,0,0:0:0:0:
320,128,76279,1,8,0:0:0:0:
299,125,76494,1,8,0:0:0:0:
352,160,76601,1,0,0:0:0:0:
352,160,76922,1,0,0:0:0:0:
306,155,77351,1,8,0:0:0:0:
224,128,77779,1,0,0:0:0:0:
192,128,77993,1,8,0:0:0:0:
224,128,78208,1,8,0:0:0:0:
256,128,78315,1,8,0:0:0:0:
224,64,78422,1,0,0:0:0:0:
192,128,78851,1,4,0:0:0:0:
162,114,79172,1,8,0:0:0:0:
162,114,79279,1,8,0:0:0:0:
256,128,79493,1,8,0:0:0:0:
224,128,79708,1,0,0:0:0:0:
162,114,79922,1,8,0:0:0:0:
224,128,80029,1,8,0:0:0:0:
224,128,80136,1,8,0:0:0:0:
192,128,80351,1,8,0:0:0:0:
192,128,80565,1,0,0:0:0:0:
224,128,80672,1,8,0:0:0:0:
128,128,80886,1,8,0:0:0:0:
256,128,80994,1,8,0:0:0:0:
256,128,81208,1,8,0:0:0:0:
256,96,81422,1,0,0:0:0:0:
256,96,81636,1,8,0:0:0:0:
256,96,81744,1,8,0:0:0:0:
256,96,81851,1,0,0:0:0:0:
256,96,81922,1,0,0:0:0:0:
256,96,81994,1,0,0:0:0:0:
224,96,82065,1,8,0:0:0:0:
224,96,82172,1,8,0:0:0:0:
256,96,82279,1,0,0:0:0:0:
224,160,82708,1,0,0:0:0:0:
192,160,82922,1,8,0:0:0:0:
192,160,83136,1,0,0:0:0:0:
192,160,83351,1,8,0:0:0:0:
192,160,83458,1,0,0:0:0:0:
192,160,83780,1,0,0:0:0:0:
192,160,83994,1,0,0:0:0:0:
256,192,84422,1,0,0:0:0:0:
288,192,84636,1,8,0:0:0:0:
288,192,84851,1,0,0:0:0:0:
288,192,85172,1,0,0:0:0:0:
288,192,85279,1,8,0:0:0:0:
256,160,85494,1,0,0:0:0:0:
256,160,85708,1,0,0:0:0:0:
320,160,86136,1,0,0:0:0:0:
320,160,86351,1,8,0:0:0:0:
320,160,86565,1,0,0:0:0:0:
320,160,86779,1,8,0:0:0:0:
320,160,86886,1,0,0:0:0:0:
320,160,87208,1,0,0:0:0:0:
320,160,87422,1,0,0:0:0:0:
288,160,87636,1,8,0:0:0:0:
288,160,87744,1,8,0:0:0:0:
288,160,87851,1,0,0:0:0:0:
288,160,88065,1,8,0:0:0:0:
288,160,88279,1,0,0:0:0:0:
256,160,88386,1,0,0:0:0:0:
288,160,88494,1,8,0:0:0:0:
288,160,88708,1,8,0:0:0:0:
256,160,88779,1,8,0:0:0:0:
224,160,88851,1,8,0:0:0:0:
192,160,88922,1,0,0:0:0:0:
192,160,89029,1,0,0:0:0:0:
192,160,89136,1,8,0:0:0:0:
256,128,89565,1,8,0:0:0:0:
256,128,89886,1,0,0:0:0:0:
256,128,89994,1,8,0:0:0:0:
224,128,90208,1,0,0:0:0:0:
224,128,90422,1,8,0:0:0:0:
192,96,90636,1,0,0:0:0:0:
224,128,90851,1,8,0:0:0:0:
160,64,91279,1,8,0:0:0:0:
192,96,91601,1,0,0:0:0:0:
192,96,91708,1,8,0:0:0:0:
192,96,91922,1,0,0:0:0:0:
192,96,92136,1,8,0:0:0:0:
192,96,92351,1,0,0:0:0:0:
192,96,92458,1,0,0:0:0:0:
192,96,92565,1,8,0:0:0:0:
192,96,92779,1,8,0:0:0:0:
192,96,92994,1,8,0:0:0:0:
224,128,93208,1,8,0:0:0:0:
224,128,93315,1,0,0:0:0:0:
224,128,93422,1,8,0:0:0:0:
256,128,93636,1,8,0:0:0:0:
256,128,93851,1,8,0:0:0:0:
256,128,94065,1,0,0:0:0:0:
256,128,94172,1,0,0:0:0:0:
256,128,94279,1,8,0:0:0:0:
256,128,94386,1,8,0:0:0:0:
256,128,94494,1,0,0:0:0:0:
256,128,94601,1,0,0:0:0:0:
256,128,94708,1,8,0:0:0:0:
256,128,94815,1,8,0:0:0:0:
256,128,94922,1,0,0:0:0:0:
256,128,95029,1,0,0:0:0:0:
256,128,95136,1,8,0:0:0:0:
256,128,95244,1,8,0:0:0:0:
256,128,95351,1,8,0:0:0:0:
256,128,95458,1,8,0:0:0:0:
256,160,95565,1,8,0:0:0:0:
256,160,95672,1,8,0:0:0:0:
256,160,95779,1,8,0:0:0:0:
256,160,95886,1,8,0:0:0:0:
416,160,97708,1,8,0:0:0:0:
416,160,98565,1,8,0:0:0:0:
288,192,99422,1,8,0:0:0:0:
288,192,100279,1,8,0:0:0:0:
288,192,100708,1,12,0:0:0:0:
224,192,101136,1,4,0:0:0:0:
288,160,101565,1,8,0:0:0:0:
288,160,101636,1,8,0:0:0:0:
288,160,101708,1,8,0:0:0:0:
288,160,101779,1,8,0:0:0:0:
352,224,101994,1,4,0:0:0:0:
320,192,102315,1,12,0:0:0:0:
320,192,102636,1,12,0:0:0:0:
320,192,102851,1,4,0:0:0:0:
352,192,103172,1,8,0:0:0:0:
352,192,103279,1,0,0:0:0:0:
384,192,103494,1,8,0:0:0:0:
416,192,103708,1,0,0:0:0:0:
352,192,103815,1,8,0:0:0:0:
384,192,103922,1,0,0:0:0:0:
352,192,104029,1,0,0:0:0:0:
352,160,104136,1,8,0:0:0:0:
352,160,104565,1,4,0:0:0:0:
416,160,104886,1,8,0:0:0:0:
416,160,104994,1,0,0:0:0:0:
384,192,105208,1,8,0:0:0:0:
416,160,105422,1,0,0:0:0:0:
384,160,105529,1,8,0:0:0:0:
384,192,105636,1,8,0:0:0:0:
384,192,105744,1,0,0:0:0:0:
352,160,105958,1,8,0:0:0:0:
320,160,106065,1,0,0:0:0:0:
320,128,106172,1,8,0:0:0:0:
320,128,106279,1,0,0:0:0:0:
320,128,106386,1,0,0:0:0:0:
288,128,106601,1,8,0:0:0:0:
288,128,106708,1,0,0:0:0:0:
256,128,106922,1,8,0:0:0:0:
224,128,107136,1,0,0:0:0:0:
224,128,107244,1,8,0:0:0:0:
128,128,107458,1,8,0:0:0:0:
128,128,107565,1,0,0:0:0:0:
128,128,107672,1,8,0:0:0:0:
128,128,107779,1,8,0:0:0:0:
128,128,107886,1,8,0:0:0:0:
128,128,107994,1,0,0:0:0:0:
146,132,108101,1,0,0:0:0:0:
160,128,108315,1,8,0:0:0:0:
192,128,108422,1,0,0:0:0:0:
224,128,108636,1,8,0:0:0:0:
256,128,108851,1,0,0:0:0:0:
256,128,108958,1,0,0:0:0:0:
320,96,109065,1,8,0:0:0:0:
320,128,109172,1,0,0:0:0:0:
320,160,109279,1,8,0:0:0:0:
320,160,109386,1,8,0:0:0:0:
320,160,109494,1,0,0:0:0:0:
256,192,109922,1,0,0:0:0:0:
416,160,110029,1,8,0:0:0:0:
416,160,110136,1,8,0:0:0:0:
320,160,110351,1,8,0:0:0:0:
320,160,110422,1,8,0:0:0:0:
320,160,110494,1,8,0:0:0:0:
320,160,110565,1,0,0:0:0:0:
320,160,110672,1,8,0:0:0:0:
320,192,110779,1,0,0:0:0:0:
288,192,110886,1,0,0:0:0:0:
288,192,110994,1,8,0:0:0:0:
288,192,111065,1,0,0:0:0:0:
288,192,111136,1,0,0:0:0:0:
288,192,111208,1,8,0:0:0:0:
288,192,111315,1,8,0:0:0:0:
288,160,111422,1,0,0:0:0:0:
352,160,111744,1,8,0:0:0:0:
384,160,111851,1,0,0:0:0:0:
416,192,112065,1,8,0:0:0:0:
384,192,112279,1,0,0:0:0:0:
352,192,112386,1,0,0:0:0:0:
352,192,112494,1,8,0:0:0:0:
352,192,112601,1,8,0:0:0:0:
352,192,112708,1,0,0:0:0:0:
320,192,112922,1,8,0:0:0:0:
320,192,113136,1,0,0:0:0:0:
320,192,113244,1,0,0:0:0:0:
320,192,113458,1,8,0:0:0:0:
320,192,113565,1,0,0:0:0:0:
288,192,113779,1,8,0:0:0:0:
288,192,113886,1,8,0:0:0:0:
288,192,113994,1,0,0:0:0:0:
288,192,114101,1,8,0:0:0:0:
288,192,114315,1,8,0:0:0:0:
288,192,114422,1,0,0:0:0:0:
284,180,114529,1,0,0:0:0:0:
279,164,114636,1,8,0:0:0:0:
288,160,114744,1,8,0:0:0:0:
288,160,114851,1,0,0:0:0:0:
256,160,115172,1,8,0:0:0:0:
256,160,115279,1,0,0:0:0:0:
224,160,115494,1,8,0:0:0:0:
192,160,115708,1,0,0:0:0:0:
160,160,115815,1,8,0:0:0:0:
128,160,116029,1,8,0:0:0:0:
128,160,116136,1,0,0:0:0:0:
128,160,116244,1,0,0:0:0:0:
128,160,116351,1,8,0:0:0:0:
96,160,116565,1,0,0:0:0:0:
96,160,116672,1,0,0:0:0:0:
64,128,116886,1,8,0:0:0:0:
96,160,116994,1,0,0:0:0:0:
128,160,117208,1,8,0:0:0:0:
128,160,117315,1,8,0:0:0:0:
160,160,117422,1,0,0:0:0:0:
192,160,117529,1,8,0:0:0:0:
192,160,117636,1,8,0:0:0:0:
192,160,117744,1,0,0:0:0:0:
224,160,117851,1,8,0:0:0:0:
256,160,118065,1,8,0:0:0:0:
256,160,118172,1,8,0:0:0:0:
256,160,118279,1,0,0:0:0:0:
192,160,118601,1,8,0:0:0:0:
192,160,118708,1,0,0:0:0:0:
192,160,118922,1,8,0:0:0:0:
192,160,119136,1,0,0:0:0:0:
192,160,119244,1,0,0:0:0:0:
192,160,119351,1,8,0:0:0:0:
192,160,119458,1,0,0:0:0:0:
192,160,119672,1,8,0:0:0:0:
192,160,119779,1,0,0:0:0:0:
192,160,119886,1,8,0:0:0:0:
192,160,119994,1,0,0:0:0:0:
192,160,120101,1,0,0:0:0:0:
224,128,120315,1,8,0:0:0:0:
224,128,120422,1,0,0:0:0:0:
224,128,120636,1,8,0:0:0:0:
224,128,120851,1,0,0:0:0:0:
224,128,120958,1,8,0:0:0:0:
224,128,121065,1,8,0:0:0:0:
224,128,121172,1,8,0:0:0:0:
224,128,121279,1,0,0:0:0:0:
237,140,121386,1,0,0:0:0:0:
224,128,121494,1,8,0:0:0:0:
244,135,121601,1,8,0:0:0:0:
224,128,121708,1,0,0:0:0:0:
288,128,122136,1,8,0:0:0:0:
320,128,122351,1,0,0:0:0:0:
320,128,122458,1,0,0:0:0:0:
320,160,122565,1,8,0:0:0:0:
320,160,122779,1,4,0:0:0:0:
320,160,123208,1,12,0:0:0:0:
320,160,123636,1,8,0:0:0:0:
320,160,123744,1,8,0:0:0:0:
320,160,123851,1,8,0:0:0:0:
320,160,123958,1,0,0:0:0:0:
288,160,124172,1,0,0:0:0:0:
288,160,124279,1,8,0:0:0:0:
256,160,124386,1,8,0:0:0:0:
256,160,124494,1,0,0:0:0:0:
256,160,124601,1,0,0:0:0:0:
256,160,124708,1,8,0:0:0:0:
224,160,124815,1,8,0:0:0:0:
224,160,124922,1,8,0:0:0:0:
192,160,125029,1,8,0:0:0:0:
224,160,125136,1,0,0:0:0:0:
256,192,125458,1,8,0:0:0:0:
256,192,125565,1,0,0:0:0:0:
288,224,125779,1,8,0:0:0:0:
256,224,125994,1,0,0:0:0:0:
256,224,126101,1,0,0:0:0:0:
256,224,126315,1,8,0:0:0:0:
256,224,126422,1,0,0:0:0:0:
256,224,126636,1,8,0:0:0:0:
256,224,126744,1,8,0:0:0:0:
256,224,126851,1,0,0:0:0:0:
256,224,126958,1,8,0:0:0:0:
256,224,127172,1,8,0:0:0:0:
256,192,127279,1,0,0:0:0:0:
256,160,127494,1,8,0:0:0:0:
256,160,127708,1,0,0:0:0:0:
256,160,127815,1,8,0:0:0:0:
256,160,127922,1,0,0:0:0:0:
256,160,128029,1,0,0:0:0:0:
224,160,128136,1,8,0:0:0:0:
224,128,128351,1,8,0:0:0:0:
224,128,128565,1,0,0:0:0:0:
256,192,128886,1,8,0:0:0:0:
256,192,128993,1,0,0:0:0:0:
288,224,129207,1,8,0:0:0:0:
288,224,129315,1,8,0:0:0:0:
256,224,129422,1,0,0:0:0:0:
256,224,129636,1,0,0:0:0:0:
256,224,129743,1,8,0:0:0:0:
256,224,129850,1,0,0:0:0:0:
256,224,130064,1,8,0:0:0:0:
256,224,130279,1,0,0:0:0:0:
256,224,130386,1,8,0:0:0:0:
256,224,130600,1,8,0:0:0:0:
256,192,130707,1,0,0:0:0:0:
256,160,130922,1,8,0:0:0:0:
256,160,131136,1,0,0:0:0:0:
256,160,131244,1,0,0:0:0:0:
256,160,131350,1,8,0:0:0:0:
256,160,131458,1,8,0:0:0:0:
224,160,131564,1,0,0:0:0:0:
224,160,131636,1,0,0:0:0:0:
224,160,131708,1,0,0:0:0:0:
224,160,131779,1,8,0:0:0:0:
224,128,131886,1,8,0:0:0:0:
224,128,131993,1,0,0:0:0:0:
277,111,132315,1,8,0:0:0:0:
299,104,132422,1,0,0:0:0:0:
337,91,132636,1,8,0:0:0:0:
337,91,132851,1,0,0:0:0:0:
337,91,133065,1,8,0:0:0:0:
337,91,133172,1,0,0:0:0:0:
319,96,133279,1,8,0:0:0:0:
303,100,133386,1,8,0:0:0:0:
288,104,133494,1,0,0:0:0:0:
276,107,133601,1,8,0:0:0:0:
265,110,133708,1,0,0:0:0:0:
233,121,133922,1,8,0:0:0:0:
216,127,134029,1,8,0:0:0:0:
198,135,134136,1,0,0:0:0:0:
198,135,134351,1,8,0:0:0:0:
198,135,134565,1,0,0:0:0:0:
198,135,134672,1,8,0:0:0:0:
198,135,134779,1,8,0:0:0:0:
198,135,134886,1,8,0:0:0:0:
198,135,134994,1,0,0:0:0:0:
198,135,135208,1,8,0:0:0:0:
198,135,135422,1,0,0:0:0:0:
188,135,135529,1,0,0:0:0:0:
188,135,135744,1,8,0:0:0:0:
188,135,135851,1,0,0:0:0:0:
188,135,136065,1,8,0:0:0:0:
188,135,136279,1,0,0:0:0:0:
188,135,136386,1,8,0:0:0:0:
188,135,136601,1,0,0:0:0:0:
188,135,136815,1,8,0:0:0:0:
188,135,136922,1,0,0:0:0:0:
258,119,137351,1,8,0:0:0:0:
252,121,137404,1,8,0:0:0:0:
241,123,137458,1,8,0:0:0:0:
241,123,137565,1,8,0:0:0:0:
241,123,137672,1,8,0:0:0:0:
241,123,137779,1,8,0:0:0:0:
241,123,137886,1,8,0:0:0:0:
241,123,137994,1,0,0:0:0:0:
241,123,138101,1,0,0:0:0:0:
241,123,138208,1,8,0:0:0:0:
241,123,138315,1,0,0:0:0:0:
241,123,138422,1,8,0:0:0:0:
241,123,138529,1,8,0:0:0:0:
241,123,138636,1,8,0:0:0:0:
247,130,138690,1,8,0:0:0:0:
241,123,138744,1,8,0:0:0:0:
230,125,138797,1,8,0:0:0:0:
241,123,138851,1,0,0:0:0:0:
319,145,139494,1,8,0:0:0:0:
461,118,140565,1,0,0:0:0:0:
378,103,141208,1,8,0:0:0:0:
279,250,142279,1,0,0:0:0:0:
352,223,142922,1,8,0:0:0:0:
234,150,143994,1,0,0:0:0:0:
399,183,144636,1,8,0:0:0:0:
249,217,145708,5,8,0:0:0:0:
249,217,146351,1,8,0:0:0:0:
249,217,147422,1,8,0:0:0:0:
249,217,148065,1,8,0:0:0:0:
249,217,149136,1,8,0:0:0:0:
249,217,149779,1,8,0:0:0:0:
249,217,150851,1,8,0:0:0:0:
249,217,151494,1,8,0:0:0:0:
258,193,152136,1,8,0:0:0:0:
259,188,152244,1,8,0:0:0:0:
260,184,152351,1,8,0:0:0:0:
