osu file format v14

[General]
AudioFilename: audio.mp3
AudioLeadIn: 0
PreviewTime: -1
Countdown: 1
SampleSet: None
StackLeniency: 0.7
Mode: 0
LetterboxInBreaks: 0
WidescreenStoryboard: 0

[Editor]
DistanceSpacing: 1.1
BeatDivisor: 16
GridSize: 4
TimelineZoom: 1

[Metadata]
Title:SpongeBob
TitleUnicode:SpongeBob
Artist:YuKoSeiii
ArtistUnicode:YuKoSeiii
Creator:YuKoSeiii
Version:Normal
Source:Spongebob
Tags:spongebob
BeatmapID:1475638
BeatmapSetID:696679

[Difficulty]
HPDrainRate:3
CircleSize:3
OverallDifficulty:9
ApproachRate:9
SliderMultiplier:3.59999990463257
SliderTickRate:1

[Events]
//Background and Video events
//Break Periods
2,3579,8624
2,20272,31136
//Storyboard Layer 0 (Background)
//Storyboard Layer 1 (Fail)
//Storyboard Layer 2 (Pass)
//Storyboard Layer 3 (Foreground)
//Storyboard Sound Samples

[TimingPoints]
360.391972736663,194.805194805195,4,1,0,100,1,0

[Colours]
Combo1 : 255,0,255
Combo2 : 64,0,128
Combo3 : 128,0,255
Combo4 : 255,0,128

[HitObjects]
44,52,3379,5,0,0:0:0:0:
468,52,9224,5,0,0:0:0:0:
476,344,10794,1,0,0:0:0:0:
44,356,12267,1,0,0:0:0:0:
256,192,15129,1,0,0:0:0:0:
40,44,16590,1,0,0:0:0:0:
472,44,18160,1,0,0:0:0:0:
472,336,20072,1,0,0:0:0:0:
48,344,31736,5,0,0:0:0:0:
48,40,34390,2,0,P|48:360|48:368,22,314.99999165535
464,44,38189,2,0,B|464:364|464:364|36:360|44:40|464:48|408:396|408:396|208:80|364:64|276:200|56:176|104:64|216:40|312:40|416:56|420:120|408:164|372:212|260:236|176:240|88:208|36:120|116:64|280:44|388:44|488:52|480:168|400:248|304:268|196:264|128:228|96:156|116:76|268:72|252:48|92:80|16:160|0:240|60:304|88:336|184:388|308:364|420:344|448:184|420:72|416:72|372:44|252:32|216:32|136:40|60:56|32:136|52:248|124:304|228:328|344:308|440:244|440:152|380:100|318:102,1,2857.4999243021
45,38,40478,2,0,B|473:45|102:331|61:148|481:188|93:333|478:44|426:326|61:252|83:125|455:53|383:312|109:331|54:167|422:59|485:237|397:359|87:323|472:28|476:226|406:340|106:313|37:115|399:23|509:77|474:255|482:331|164:330|29:329|34:171|128:141|428:92|446:233|426:332|165:315|123:183|350:139|304:224|211:187|327:142|419:268|271:328|122:297|119:166|152:120|152:120|333:88|459:111|453:249|431:316|322:337|181:340|82:320|70:234|55:130|93:93|378:52|498:77|504:196|483:272|455:320|416:358|271:368|137:359|62:332|68:210|39:103|303:58|361:20|494:48|474:174|476:310|385:354|201:343|91:302|43:151|57:114|401:49|465:121|463:247|420:326|242:355|77:331|57:218|29:120|12:84|9:21|281:29|440:34|492:25|492:25|479:192|447:317|406:350|312:372|171:364|24:352|14:136|429:98|471:355|36:365|28:90|422:96|412:96,19,3442.49990880489
256,192,76456,12,0,81155,0:0:0:0:
133,69,78842,5,0,0:0:0:0:
54,47,79183,1,0,0:0:0:0:
287,37,79402,1,0,0:0:0:0:
436,57,79597,1,0,0:0:0:0:
435,298,79816,1,0,0:0:0:0:
197,327,80060,1,0,0:0:0:0:
48,289,80242,1,0,0:0:0:0:
76,117,80425,1,0,0:0:0:0:
353,82,80644,1,0,0:0:0:0:
392,250,80851,1,0,0:0:0:0:
201,238,81058,1,0,0:0:0:0:
172,104,81253,1,0,0:0:0:0:
331,135,81521,1,0,0:0:0:0:
365,235,81715,1,0,0:0:0:0:
128,221,81862,1,0,0:0:0:0:
121,106,82081,1,0,0:0:0:0:
362,94,82275,1,0,0:0:0:0:
362,284,82482,1,0,0:0:0:0:
146,273,82653,1,0,0:0:0:0:
133,81,82823,1,0,0:0:0:0:
384,93,83018,1,0,0:0:0:0:
372,275,83201,1,0,0:0:0:0:
150,268,83408,1,0,0:0:0:0:
152,74,83639,1,0,0:0:0:0:
378,89,83895,1,0,0:0:0:0:
357,287,84175,1,0,0:0:0:0:
152,269,84406,1,0,0:0:0:0:
151,112,84686,1,0,0:0:0:0:
346,111,84893,1,0,0:0:0:0:
344,259,85149,1,0,0:0:0:0:
181,247,85368,1,0,0:0:0:0:
138,109,85587,1,0,0:0:0:0:
36,38,85965,1,0,0:0:0:0:
36,38,85977,1,0,0:0:0:0:
44,41,85989,1,0,0:0:0:0:
45,42,86001,1,0,0:0:0:0:
46,43,86013,1,0,0:0:0:0:
47,44,86025,1,0,0:0:0:0:
49,45,86038,1,0,0:0:0:0:
55,46,86050,1,0,0:0:0:0:
63,46,86062,1,0,0:0:0:0:
70,46,86074,1,0,0:0:0:0:
86,46,86099,1,0,0:0:0:0:
99,47,86111,1,0,0:0:0:0:
108,47,86123,1,0,0:0:0:0:
116,47,86135,1,0,0:0:0:0:
122,47,86147,1,0,0:0:0:0:
131,47,86159,1,0,0:0:0:0:
134,47,86172,1,0,0:0:0:0:
140,47,86184,1,0,0:0:0:0:
152,45,86500,1,0,0:0:0:0:
160,45,86512,1,0,0:0:0:0:
163,45,86525,1,0,0:0:0:0:
184,43,86561,1,0,0:0:0:0:
207,40,86586,1,0,0:0:0:0:
215,39,86598,1,0,0:0:0:0:
218,39,86610,1,0,0:0:0:0:
225,39,86622,1,0,0:0:0:0:
232,39,86634,1,0,0:0:0:0:
237,39,86646,1,0,0:0:0:0:
240,39,86659,1,0,0:0:0:0:
248,40,86671,1,0,0:0:0:0:
262,43,86683,1,0,0:0:0:0:
276,45,86695,1,0,0:0:0:0:
285,46,86707,1,0,0:0:0:0:
304,49,86719,1,0,0:0:0:0:
309,50,86732,1,0,0:0:0:0:
363,74,86841,1,0,0:0:0:0:
369,78,86853,1,0,0:0:0:0:
380,91,86866,1,0,0:0:0:0:
382,94,86878,1,0,0:0:0:0:
384,102,86890,1,0,0:0:0:0:
384,103,86902,1,0,0:0:0:0:
382,107,86914,1,0,0:0:0:0:
380,110,86926,1,0,0:0:0:0:
377,115,86939,1,0,0:0:0:0:
377,117,86951,1,0,0:0:0:0:
378,121,86963,1,0,0:0:0:0:
380,130,86975,1,0,0:0:0:0:
382,146,87000,1,0,0:0:0:0:
383,159,87012,1,0,0:0:0:0:
379,167,87024,1,0,0:0:0:0:
369,175,87036,1,0,0:0:0:0:
359,180,87048,1,0,0:0:0:0:
343,187,87060,1,0,0:0:0:0:
316,200,87109,1,0,0:0:0:0:
315,202,87121,1,0,0:0:0:0:
311,204,87133,1,0,0:0:0:0:
303,207,87146,1,0,0:0:0:0:
287,212,87170,1,0,0:0:0:0:
278,214,87182,1,0,0:0:0:0:
269,215,87194,1,0,0:0:0:0:
260,216,87206,1,0,0:0:0:0:
257,216,87219,1,0,0:0:0:0:
254,216,87231,1,0,0:0:0:0:
252,216,87243,1,0,0:0:0:0:
248,215,87255,1,0,0:0:0:0:
236,213,87267,1,0,0:0:0:0:
219,211,87280,1,0,0:0:0:0:
207,209,87292,1,0,0:0:0:0:
200,208,87304,1,0,0:0:0:0:
191,206,87316,1,0,0:0:0:0:
177,196,87340,1,0,0:0:0:0:
176,194,87353,1,0,0:0:0:0:
173,191,87365,1,0,0:0:0:0:
167,186,87377,1,0,0:0:0:0:
165,184,87389,1,0,0:0:0:0:
159,180,87401,1,0,0:0:0:0:
154,176,87413,1,0,0:0:0:0:
150,170,87426,1,0,0:0:0:0:
149,160,87438,1,0,0:0:0:0:
156,148,87462,1,0,0:0:0:0:
160,143,87474,1,0,0:0:0:0:
164,137,87487,1,0,0:0:0:0:
165,135,87499,1,0,0:0:0:0:
166,132,87511,1,0,0:0:0:0:
169,129,87523,1,0,0:0:0:0:
172,126,87535,1,0,0:0:0:0:
186,119,87547,1,0,0:0:0:0:
192,117,87560,1,0,0:0:0:0:
279,108,87669,1,0,0:0:0:0:
305,111,87693,1,0,0:0:0:0:
313,112,87706,1,0,0:0:0:0:
320,114,87718,1,0,0:0:0:0:
322,116,87730,1,0,0:0:0:0:
328,125,87754,1,0,0:0:0:0:
338,132,87779,1,0,0:0:0:0:
348,141,87791,1,0,0:0:0:0:
351,144,87803,1,0,0:0:0:0:
363,158,87827,1,0,0:0:0:0:
364,161,87840,1,0,0:0:0:0:
368,174,87864,1,0,0:0:0:0:
377,185,87876,1,0,0:0:0:0:
382,192,87888,1,0,0:0:0:0:
383,194,87900,1,0,0:0:0:0:
363,240,87986,1,0,0:0:0:0:
363,240,87998,1,0,0:0:0:0:
363,240,88010,1,0,0:0:0:0:
363,240,88022,1,0,0:0:0:0:
346,255,88047,1,0,0:0:0:0:
334,261,88059,1,0,0:0:0:0:
321,268,88071,1,0,0:0:0:0:
310,273,88107,1,0,0:0:0:0:
302,273,88132,1,0,0:0:0:0:
288,274,88144,1,0,0:0:0:0:
271,275,88156,1,0,0:0:0:0:
263,275,88168,1,0,0:0:0:0:
247,275,88181,1,0,0:0:0:0:
245,275,88193,1,0,0:0:0:0:
240,273,88205,1,0,0:0:0:0:
186,271,88266,1,0,0:0:0:0:
186,271,88290,1,0,0:0:0:0:
170,260,88314,1,0,0:0:0:0:
165,257,88327,1,0,0:0:0:0:
159,255,88339,1,0,0:0:0:0:
154,251,88351,1,0,0:0:0:0:
148,245,88363,1,0,0:0:0:0:
145,233,88375,1,0,0:0:0:0:
144,226,88387,1,0,0:0:0:0:
142,224,88400,1,0,0:0:0:0:
140,221,88412,1,0,0:0:0:0:
134,214,88424,1,0,0:0:0:0:
132,211,88436,1,0,0:0:0:0:
129,205,88448,1,0,0:0:0:0:
129,197,88461,1,0,0:0:0:0:
132,184,88473,1,0,0:0:0:0:
213,140,88668,1,0,0:0:0:0:
222,138,88680,1,0,0:0:0:0:
243,134,88692,1,0,0:0:0:0:
252,132,88704,1,0,0:0:0:0:
260,130,88716,1,0,0:0:0:0:
302,129,88765,1,0,0:0:0:0:
333,126,88789,1,0,0:0:0:0:
345,125,88801,1,0,0:0:0:0:
390,115,88850,1,0,0:0:0:0:
390,115,88862,1,0,0:0:0:0:
406,107,88875,1,0,0:0:0:0:
421,73,89008,1,0,0:0:0:0:
413,67,89021,1,0,0:0:0:0:
386,62,89045,1,0,0:0:0:0:
359,64,89069,1,0,0:0:0:0:
350,66,89081,1,0,0:0:0:0:
324,66,89118,1,0,0:0:0:0:
309,63,89142,1,0,0:0:0:0:
306,61,89155,1,0,0:0:0:0:
300,60,89167,1,0,0:0:0:0:
279,58,89179,1,0,0:0:0:0:
271,58,89191,1,0,0:0:0:0:
250,60,89203,1,0,0:0:0:0:
232,62,89215,1,0,0:0:0:0:
221,62,89228,1,0,0:0:0:0:
208,60,89252,1,0,0:0:0:0:
184,58,89276,1,0,0:0:0:0:
176,58,89288,1,0,0:0:0:0:
156,61,89301,1,0,0:0:0:0:
146,62,89313,1,0,0:0:0:0:
138,64,89325,1,0,0:0:0:0:
115,71,89337,1,0,0:0:0:0:
98,88,89386,1,0,0:0:0:0:
87,100,89398,1,0,0:0:0:0:
80,111,89422,1,0,0:0:0:0:
76,126,89447,1,0,0:0:0:0:
76,134,89459,1,0,0:0:0:0:
140,208,89593,1,0,0:0:0:0:
185,220,89666,1,0,0:0:0:0:
185,220,89678,1,0,0:0:0:0:
194,215,89715,1,0,0:0:0:0:
212,205,89727,1,0,0:0:0:0:
218,196,89751,1,0,0:0:0:0:
218,193,89763,1,0,0:0:0:0:
217,183,89775,1,0,0:0:0:0:
215,179,89788,1,0,0:0:0:0:
210,153,89812,1,0,0:0:0:0:
210,147,89824,1,0,0:0:0:0:
212,140,89836,1,0,0:0:0:0:
220,126,89849,1,0,0:0:0:0:
223,121,89861,1,0,0:0:0:0:
225,114,89873,1,0,0:0:0:0:
226,111,89885,1,0,0:0:0:0:
227,104,89897,1,0,0:0:0:0:
259,84,89946,1,0,0:0:0:0:
278,75,89970,1,0,0:0:0:0:
282,73,89995,1,0,0:0:0:0:
308,70,90031,1,0,0:0:0:0:
314,70,90043,1,0,0:0:0:0:
322,70,90056,1,0,0:0:0:0:
381,91,90141,1,0,0:0:0:0:
406,100,90165,1,0,0:0:0:0:
408,103,90177,1,0,0:0:0:0:
408,113,90202,1,0,0:0:0:0:
408,117,90214,1,0,0:0:0:0:
410,130,90226,1,0,0:0:0:0:
415,138,90238,1,0,0:0:0:0:
425,158,90250,1,0,0:0:0:0:
428,170,90275,1,0,0:0:0:0:
429,191,90299,1,0,0:0:0:0:
429,194,90311,1,0,0:0:0:0:
429,194,90323,1,0,0:0:0:0:
429,194,90336,1,0,0:0:0:0:
429,194,90348,1,0,0:0:0:0:
429,194,90396,1,0,0:0:0:0:
419,217,90433,1,0,0:0:0:0:
414,222,90445,1,0,0:0:0:0:
406,228,90457,1,0,0:0:0:0:
369,251,90518,1,0,0:0:0:0:
369,251,90530,1,0,0:0:0:0:
356,255,90543,1,0,0:0:0:0:
308,267,90579,1,0,0:0:0:0:
297,269,90591,1,0,0:0:0:0:
273,277,90603,1,0,0:0:0:0:
267,278,90616,1,0,0:0:0:0:
198,284,90725,1,0,0:0:0:0:
179,281,90750,1,0,0:0:0:0:
166,279,90762,1,0,0:0:0:0:
151,273,90786,1,0,0:0:0:0:
146,270,90798,1,0,0:0:0:0:
139,264,90810,1,0,0:0:0:0:
135,257,90823,1,0,0:0:0:0:
134,250,90835,1,0,0:0:0:0:
130,237,90871,1,0,0:0:0:0:
116,219,90883,1,0,0:0:0:0:
106,208,90896,1,0,0:0:0:0:
100,203,90908,1,0,0:0:0:0:
92,192,90920,1,0,0:0:0:0:
105,135,91042,1,0,0:0:0:0:
114,129,91054,1,0,0:0:0:0:
122,125,91066,1,0,0:0:0:0:
143,115,91090,1,0,0:0:0:0:
151,113,91103,1,0,0:0:0:0:
162,106,91127,1,0,0:0:0:0:
169,108,91139,1,0,0:0:0:0:
172,113,91163,1,0,0:0:0:0:
172,113,91176,1,0,0:0:0:0:
173,113,91188,1,0,0:0:0:0:
187,112,91200,1,0,0:0:0:0:
191,110,91212,1,0,0:0:0:0:
194,105,91224,1,0,0:0:0:0:
196,98,91237,1,0,0:0:0:0:
231,182,91431,1,0,0:0:0:0:
231,182,91443,1,0,0:0:0:0:
236,184,91468,1,0,0:0:0:0:
243,182,91504,1,0,0:0:0:0:
241,183,91529,1,0,0:0:0:0:
241,183,91541,1,0,0:0:0:0:
241,183,91553,1,0,0:0:0:0:
241,183,91565,1,0,0:0:0:0:
243,183,91577,1,0,0:0:0:0:
249,182,91590,1,0,0:0:0:0:
249,182,91614,1,0,0:0:0:0:
249,182,91626,1,0,0:0:0:0:
249,182,91650,1,0,0:0:0:0:
249,184,91663,1,0,0:0:0:0:
250,187,91675,1,0,0:0:0:0:
252,187,91699,1,0,0:0:0:0:
252,187,91711,1,0,0:0:0:0:
252,187,91724,1,0,0:0:0:0:
251,187,91748,1,0,0:0:0:0:
251,188,91760,1,0,0:0:0:0:
251,188,91772,1,0,0:0:0:0:
251,188,91784,1,0,0:0:0:0:
251,188,91797,1,0,0:0:0:0:
251,188,91809,1,0,0:0:0:0:
251,188,91821,1,0,0:0:0:0:
251,188,91857,1,0,0:0:0:0:
249,184,91894,1,0,0:0:0:0:
249,184,91906,1,0,0:0:0:0:
251,188,91918,1,0,0:0:0:0:
251,188,92064,1,0,0:0:0:0:
251,188,92101,1,0,0:0:0:0:
249,184,92125,1,0,0:0:0:0:
249,184,92137,1,0,0:0:0:0:
251,188,92174,1,0,0:0:0:0:
251,188,92198,1,0,0:0:0:0:
251,188,92223,1,0,0:0:0:0:
251,188,92235,1,0,0:0:0:0:
251,188,92247,1,0,0:0:0:0:
251,188,92259,1,0,0:0:0:0:
249,184,92271,1,0,0:0:0:0:
249,184,92284,1,0,0:0:0:0:
249,184,92296,1,0,0:0:0:0:
249,184,92381,1,0,0:0:0:0:
251,188,92393,1,0,0:0:0:0:
251,188,92405,1,0,0:0:0:0:
251,188,92418,1,0,0:0:0:0:
251,188,92430,1,0,0:0:0:0:
251,188,92442,1,0,0:0:0:0:
249,184,92466,1,0,0:0:0:0:
249,184,92503,1,0,0:0:0:0:
249,184,92527,1,0,0:0:0:0:
251,188,92539,1,0,0:0:0:0:
249,184,92551,1,0,0:0:0:0:
251,188,92564,1,0,0:0:0:0:
249,184,92600,1,0,0:0:0:0:
251,188,92685,1,0,0:0:0:0:
249,184,92698,1,0,0:0:0:0:
251,188,92722,1,0,0:0:0:0:
249,184,92734,1,0,0:0:0:0:
251,188,92746,1,0,0:0:0:0:
251,188,92771,1,0,0:0:0:0:
249,184,92783,1,0,0:0:0:0:
251,188,92795,1,0,0:0:0:0:
249,184,92807,1,0,0:0:0:0:
249,184,92819,1,0,0:0:0:0:
251,188,92856,1,0,0:0:0:0:
251,188,92868,1,0,0:0:0:0:
249,184,92880,1,0,0:0:0:0:
249,184,92892,1,0,0:0:0:0:
251,188,92905,1,0,0:0:0:0:
251,188,93002,1,0,0:0:0:0:
249,184,93014,1,0,0:0:0:0:
249,184,93051,1,0,0:0:0:0:
251,188,93087,1,0,0:0:0:0:
251,188,93099,1,0,0:0:0:0:
249,184,93112,1,0,0:0:0:0:
249,184,93136,1,0,0:0:0:0:
251,188,93148,1,0,0:0:0:0:
251,188,93172,1,0,0:0:0:0:
251,188,93185,1,0,0:0:0:0:
251,188,93197,1,0,0:0:0:0:
249,184,93209,1,0,0:0:0:0:
249,184,93221,1,0,0:0:0:0:
251,188,93306,1,0,0:0:0:0:
249,184,93318,1,0,0:0:0:0:
251,188,93343,1,0,0:0:0:0:
251,188,93355,1,0,0:0:0:0:
251,188,93367,1,0,0:0:0:0:
249,184,93379,1,0,0:0:0:0:
251,188,93392,1,0,0:0:0:0:
249,184,93416,1,0,0:0:0:0:
249,184,93428,1,0,0:0:0:0:
249,184,93440,1,0,0:0:0:0:
251,188,93452,1,0,0:0:0:0:
251,188,93477,1,0,0:0:0:0:
251,188,93489,1,0,0:0:0:0:
251,188,93501,1,0,0:0:0:0:
249,184,93513,1,0,0:0:0:0:
251,188,93538,1,0,0:0:0:0:
251,188,93635,1,0,0:0:0:0:
249,184,93647,1,0,0:0:0:0:
249,184,93684,1,0,0:0:0:0:
251,188,93696,1,0,0:0:0:0:
251,188,93732,1,0,0:0:0:0:
251,188,93745,1,0,0:0:0:0:
249,184,93757,1,0,0:0:0:0:
251,188,93781,1,0,0:0:0:0:
251,188,93793,1,0,0:0:0:0:
249,184,93806,1,0,0:0:0:0:
251,188,93818,1,0,0:0:0:0:
249,184,93842,1,0,0:0:0:0:
249,184,93854,1,0,0:0:0:0:
251,188,93939,1,0,0:0:0:0:
251,188,93952,1,0,0:0:0:0:
251,188,93964,1,0,0:0:0:0:
249,184,93988,1,0,0:0:0:0:
249,184,94000,1,0,0:0:0:0:
249,184,94012,1,0,0:0:0:0:
251,188,94037,1,0,0:0:0:0:
251,188,94049,1,0,0:0:0:0:
251,188,94061,1,0,0:0:0:0:
251,188,94086,1,0,0:0:0:0:
251,188,94098,1,0,0:0:0:0:
249,184,94122,1,0,0:0:0:0:
249,184,94159,1,0,0:0:0:0:
249,184,94171,1,0,0:0:0:0:
251,188,94268,1,0,0:0:0:0:
251,188,94280,1,0,0:0:0:0:
251,188,94293,1,0,0:0:0:0:
251,188,94317,1,0,0:0:0:0:
251,188,94341,1,0,0:0:0:0:
249,184,94366,1,0,0:0:0:0:
249,184,94378,1,0,0:0:0:0:
249,184,94402,1,0,0:0:0:0:
249,184,94414,1,0,0:0:0:0:
251,188,94426,1,0,0:0:0:0:
251,188,94439,1,0,0:0:0:0:
251,188,94451,1,0,0:0:0:0:
251,188,94463,1,0,0:0:0:0:
251,188,94475,1,0,0:0:0:0:
249,184,94487,1,0,0:0:0:0:
251,188,94585,1,0,0:0:0:0:
249,184,94633,1,0,0:0:0:0:
249,184,94646,1,0,0:0:0:0:
251,188,94658,1,0,0:0:0:0:
251,188,94670,1,0,0:0:0:0:
251,188,94682,1,0,0:0:0:0:
251,188,94694,1,0,0:0:0:0:
249,184,94706,1,0,0:0:0:0:
249,184,94719,1,0,0:0:0:0:
249,184,94743,1,0,0:0:0:0:
249,184,94767,1,0,0:0:0:0:
251,188,94780,1,0,0:0:0:0:
249,184,94792,1,0,0:0:0:0:
251,188,94804,1,0,0:0:0:0:
251,188,94816,1,0,0:0:0:0:
251,188,94828,1,0,0:0:0:0:
249,184,94840,1,0,0:0:0:0:
249,184,94877,1,0,0:0:0:0:
249,184,94901,1,0,0:0:0:0:
249,184,94926,1,0,0:0:0:0:
251,188,94950,1,0,0:0:0:0:
249,184,94974,1,0,0:0:0:0:
251,188,94999,1,0,0:0:0:0:
251,188,95011,1,0,0:0:0:0:
251,188,95035,1,0,0:0:0:0:
249,184,95145,1,0,0:0:0:0:
251,188,95181,1,0,0:0:0:0:
251,188,95230,1,0,0:0:0:0:
251,188,95242,1,0,0:0:0:0:
251,188,95267,1,0,0:0:0:0:
251,188,95279,1,0,0:0:0:0:
249,184,95327,1,0,0:0:0:0:
249,184,95340,1,0,0:0:0:0:
249,184,95352,1,0,0:0:0:0:
249,184,95376,1,0,0:0:0:0:
251,188,95388,1,0,0:0:0:0:
251,188,95413,1,0,0:0:0:0:
251,188,95425,1,0,0:0:0:0:
251,188,95437,1,0,0:0:0:0:
251,188,95449,1,0,0:0:0:0:
249,184,95474,1,0,0:0:0:0:
249,184,95486,1,0,0:0:0:0:
249,184,95510,1,0,0:0:0:0:
249,184,95534,1,0,0:0:0:0:
251,188,95559,1,0,0:0:0:0:
251,188,95571,1,0,0:0:0:0:
249,184,95583,1,0,0:0:0:0:
251,188,95595,1,0,0:0:0:0:
251,188,95607,1,0,0:0:0:0:
249,184,95717,1,0,0:0:0:0:
249,184,95754,1,0,0:0:0:0:
251,188,95790,1,0,0:0:0:0:
251,188,95802,1,0,0:0:0:0:
251,188,95851,1,0,0:0:0:0:
249,184,95912,1,0,0:0:0:0:
251,188,96034,1,0,0:0:0:0:
251,188,96046,1,0,0:0:0:0:
251,188,96070,1,0,0:0:0:0:
251,188,96082,1,0,0:0:0:0:
251,188,96094,1,0,0:0:0:0:
249,184,96119,1,0,0:0:0:0:
249,184,96131,1,0,0:0:0:0:
249,184,96143,1,0,0:0:0:0:
251,188,96180,1,0,0:0:0:0:
251,188,96204,1,0,0:0:0:0:
251,188,96216,1,0,0:0:0:0:
251,188,96228,1,0,0:0:0:0:
249,184,96241,1,0,0:0:0:0:
251,188,96253,1,0,0:0:0:0:
249,184,96265,1,0,0:0:0:0:
249,184,96362,1,0,0:0:0:0:
249,184,96375,1,0,0:0:0:0:
251,188,96387,1,0,0:0:0:0:
251,188,96399,1,0,0:0:0:0:
251,188,96423,1,0,0:0:0:0:
251,188,96448,1,0,0:0:0:0:
251,188,96460,1,0,0:0:0:0:
249,184,96472,1,0,0:0:0:0:
249,184,96484,1,0,0:0:0:0:
249,184,96533,1,0,0:0:0:0:
251,188,96569,1,0,0:0:0:0:
249,184,96581,1,0,0:0:0:0:
251,188,96606,1,0,0:0:0:0:
251,188,96618,1,0,0:0:0:0:
251,188,96642,1,0,0:0:0:0:
251,188,96667,1,0,0:0:0:0:
249,184,96679,1,0,0:0:0:0:
249,184,96691,1,0,0:0:0:0:
249,184,96715,1,0,0:0:0:0:
251,188,96728,1,0,0:0:0:0:
251,188,96752,1,0,0:0:0:0:
249,184,96764,1,0,0:0:0:0:
251,188,96801,1,0,0:0:0:0:
251,188,96813,1,0,0:0:0:0:
251,188,96825,1,0,0:0:0:0:
249,184,96837,1,0,0:0:0:0:
249,184,96849,1,0,0:0:0:0:
249,184,96862,1,0,0:0:0:0:
249,184,96874,1,0,0:0:0:0:
251,188,96886,1,0,0:0:0:0:
251,188,96898,1,0,0:0:0:0:
251,188,96910,1,0,0:0:0:0:
251,188,96922,1,0,0:0:0:0:
249,184,96935,1,0,0:0:0:0:
251,188,96959,1,0,0:0:0:0:
249,184,96971,1,0,0:0:0:0:
251,188,96983,1,0,0:0:0:0:
249,184,96995,1,0,0:0:0:0:
251,188,97020,1,0,0:0:0:0:
249,184,97032,1,0,0:0:0:0:
251,188,97142,1,0,0:0:0:0:
249,184,97178,1,0,0:0:0:0:
249,184,97215,1,0,0:0:0:0:
251,188,97227,1,0,0:0:0:0:
249,184,97239,1,0,0:0:0:0:
251,188,97263,1,0,0:0:0:0:
251,188,97275,1,0,0:0:0:0:
251,188,97300,1,0,0:0:0:0:
251,188,97312,1,0,0:0:0:0:
249,184,97324,1,0,0:0:0:0:
251,188,97336,1,0,0:0:0:0:
249,184,97349,1,0,0:0:0:0:
249,184,97361,1,0,0:0:0:0:
251,188,97373,1,0,0:0:0:0:
251,188,97470,1,0,0:0:0:0:
249,184,97482,1,0,0:0:0:0:
251,188,97495,1,0,0:0:0:0:
251,188,97507,1,0,0:0:0:0:
251,188,97519,1,0,0:0:0:0:
249,184,97543,1,0,0:0:0:0:
249,184,97556,1,0,0:0:0:0:
249,184,97568,1,0,0:0:0:0:
251,188,97616,1,0,0:0:0:0:
251,188,97629,1,0,0:0:0:0:
249,184,97641,1,0,0:0:0:0:
251,188,97653,1,0,0:0:0:0:
251,188,97677,1,0,0:0:0:0:
251,188,97689,1,0,0:0:0:0:
249,184,97799,1,0,0:0:0:0:
249,184,97811,1,0,0:0:0:0:
251,188,97823,1,0,0:0:0:0:
251,188,97872,1,0,0:0:0:0:
249,184,97884,1,0,0:0:0:0:
251,188,97933,1,0,0:0:0:0:
249,184,97969,1,0,0:0:0:0:
249,184,97982,1,0,0:0:0:0:
249,184,97994,1,0,0:0:0:0:
249,184,98006,1,0,0:0:0:0:
251,188,98018,1,0,0:0:0:0:
251,188,98140,1,0,0:0:0:0:
251,188,98152,1,0,0:0:0:0:
251,188,98164,1,0,0:0:0:0:
251,188,98176,1,0,0:0:0:0:
249,184,98189,1,0,0:0:0:0:
249,184,98201,1,0,0:0:0:0:
249,184,98225,1,0,0:0:0:0:
249,184,98237,1,0,0:0:0:0:
249,184,98250,1,0,0:0:0:0:
251,188,98262,1,0,0:0:0:0:
251,188,98286,1,0,0:0:0:0:
251,188,98310,1,0,0:0:0:0:
251,188,98335,1,0,0:0:0:0:
251,188,98347,1,0,0:0:0:0:
249,184,98359,1,0,0:0:0:0:
249,184,98383,1,0,0:0:0:0:
249,184,98420,1,0,0:0:0:0:
249,184,98456,1,0,0:0:0:0:
249,184,98469,1,0,0:0:0:0:
249,184,98481,1,0,0:0:0:0:
251,188,98505,1,0,0:0:0:0:
251,188,98517,1,0,0:0:0:0:
251,188,98578,1,0,0:0:0:0:
249,184,98603,1,0,0:0:0:0:
249,184,98651,1,0,0:0:0:0:
249,184,98676,1,0,0:0:0:0:
249,184,98700,1,0,0:0:0:0:
249,184,98712,1,0,0:0:0:0:
251,188,98724,1,0,0:0:0:0:
251,188,98749,1,0,0:0:0:0:
251,188,98761,1,0,0:0:0:0:
251,188,98773,1,0,0:0:0:0:
251,188,98785,1,0,0:0:0:0:
249,184,98797,1,0,0:0:0:0:
249,184,98810,1,0,0:0:0:0:
249,184,98943,1,0,0:0:0:0:
251,188,98968,1,0,0:0:0:0:
251,188,98992,1,0,0:0:0:0:
251,188,99017,1,0,0:0:0:0:
251,188,99029,1,0,0:0:0:0:
249,184,99053,1,0,0:0:0:0:
249,184,99065,1,0,0:0:0:0:
249,184,99077,1,0,0:0:0:0:
249,184,99114,1,0,0:0:0:0:
251,188,99126,1,0,0:0:0:0:
249,184,99138,1,0,0:0:0:0:
251,188,99150,1,0,0:0:0:0:
251,188,99163,1,0,0:0:0:0:
249,184,99175,1,0,0:0:0:0:
251,188,99187,1,0,0:0:0:0:
251,188,99224,1,0,0:0:0:0:
251,188,99248,1,0,0:0:0:0:
249,184,99260,1,0,0:0:0:0:
249,184,99272,1,0,0:0:0:0:
249,184,99284,1,0,0:0:0:0:
251,188,99297,1,0,0:0:0:0:
249,184,99309,1,0,0:0:0:0:
251,188,99333,1,0,0:0:0:0:
251,188,99357,1,0,0:0:0:0:
249,184,99370,1,0,0:0:0:0:
251,188,99394,1,0,0:0:0:0:
251,188,99418,1,0,0:0:0:0:
251,188,99455,1,0,0:0:0:0:
249,184,99479,1,0,0:0:0:0:
249,184,99491,1,0,0:0:0:0:
249,184,99504,1,0,0:0:0:0:
251,188,99528,1,0,0:0:0:0:
249,184,99552,1,0,0:0:0:0:
251,188,99577,1,0,0:0:0:0:
249,184,99589,1,0,0:0:0:0:
249,184,99613,1,0,0:0:0:0:
251,188,99637,1,0,0:0:0:0:
249,184,99747,1,0,0:0:0:0:
251,188,99771,1,0,0:0:0:0:
249,184,99784,1,0,0:0:0:0:
249,184,99796,1,0,0:0:0:0:
249,184,99832,1,0,0:0:0:0:
249,184,99857,1,0,0:0:0:0:
251,188,99869,1,0,0:0:0:0:
249,184,99881,1,0,0:0:0:0:
251,188,99893,1,0,0:0:0:0:
251,188,99918,1,0,0:0:0:0:
251,188,99942,1,0,0:0:0:0:
251,188,99966,1,0,0:0:0:0:
249,184,100076,1,0,0:0:0:0:
249,184,100088,1,0,0:0:0:0:
249,184,100112,1,0,0:0:0:0:
251,188,100137,1,0,0:0:0:0:
251,188,100173,1,0,0:0:0:0:
251,188,100210,1,0,0:0:0:0:
249,184,100234,1,0,0:0:0:0:
249,184,100246,1,0,0:0:0:0:
249,184,100258,1,0,0:0:0:0:
249,184,100271,1,0,0:0:0:0:
249,184,100283,1,0,0:0:0:0:
251,188,100405,1,0,0:0:0:0:
251,188,100429,1,0,0:0:0:0:
251,188,100441,1,0,0:0:0:0:
251,188,100453,1,0,0:0:0:0:
249,184,100490,1,0,0:0:0:0:
249,184,100526,1,0,0:0:0:0:
251,188,100538,1,0,0:0:0:0:
251,188,100551,1,0,0:0:0:0:
251,188,100575,1,0,0:0:0:0:
251,188,100587,1,0,0:0:0:0:
251,188,100599,1,0,0:0:0:0:
251,188,100612,1,0,0:0:0:0:
249,184,100624,1,0,0:0:0:0:
249,184,100697,1,0,0:0:0:0:
249,184,100709,1,0,0:0:0:0:
249,184,100733,1,0,0:0:0:0:
251,188,100770,1,0,0:0:0:0:
251,188,100782,1,0,0:0:0:0:
251,188,100794,1,0,0:0:0:0:
251,188,100806,1,0,0:0:0:0:
251,188,100818,1,0,0:0:0:0:
249,184,100831,1,0,0:0:0:0:
251,188,100855,1,0,0:0:0:0:
249,184,100867,1,0,0:0:0:0:
249,184,100904,1,0,0:0:0:0:
249,184,100916,1,0,0:0:0:0:
251,188,101013,1,0,0:0:0:0:
251,188,101025,1,0,0:0:0:0:
251,188,101062,1,0,0:0:0:0:
249,184,101074,1,0,0:0:0:0:
251,188,101099,1,0,0:0:0:0:
249,184,101135,1,0,0:0:0:0:
249,184,101159,1,0,0:0:0:0:
236,181,101184,1,0,0:0:0:0:
228,177,101208,1,0,0:0:0:0:
223,176,101232,1,0,0:0:0:0:
223,176,101245,1,0,0:0:0:0:
213,171,101330,1,0,0:0:0:0:
209,167,101366,1,0,0:0:0:0:
208,166,101379,1,0,0:0:0:0:
204,164,101391,1,0,0:0:0:0:
201,163,101403,1,0,0:0:0:0:
199,161,101415,1,0,0:0:0:0:
196,160,101427,1,0,0:0:0:0:
194,158,101439,1,0,0:0:0:0:
194,158,101452,1,0,0:0:0:0:
189,155,101476,1,0,0:0:0:0:
187,154,101488,1,0,0:0:0:0:
184,153,101500,1,0,0:0:0:0:
182,152,101512,1,0,0:0:0:0:
179,149,101525,1,0,0:0:0:0:
178,149,101549,1,0,0:0:0:0:
165,138,101634,1,0,0:0:0:0:
165,137,101646,1,0,0:0:0:0:
163,135,101671,1,0,0:0:0:0:
162,134,101683,1,0,0:0:0:0:
161,132,101695,1,0,0:0:0:0:
161,132,101707,1,0,0:0:0:0:
161,131,101719,1,0,0:0:0:0:
161,131,101732,1,0,0:0:0:0:
160,131,101744,1,0,0:0:0:0:
159,128,101768,1,0,0:0:0:0:
156,126,101793,1,0,0:0:0:0:
154,125,101817,1,0,0:0:0:0:
153,124,101829,1,0,0:0:0:0:
136,113,101951,1,0,0:0:0:0:
136,112,101963,1,0,0:0:0:0:
135,111,101975,1,0,0:0:0:0:
133,109,102000,1,0,0:0:0:0:
131,108,102012,1,0,0:0:0:0:
128,107,102024,1,0,0:0:0:0:
125,106,102048,1,0,0:0:0:0:
125,106,102060,1,0,0:0:0:0:
122,103,102073,1,0,0:0:0:0:
119,101,102085,1,0,0:0:0:0:
108,94,102109,1,0,0:0:0:0:
98,87,102133,1,0,0:0:0:0:
97,86,102146,1,0,0:0:0:0:
81,74,102255,1,0,0:0:0:0:
81,74,102267,1,0,0:0:0:0:
81,74,102280,1,0,0:0:0:0:
74,69,102304,1,0,0:0:0:0:
72,69,102316,1,0,0:0:0:0:
67,67,102340,1,0,0:0:0:0:
67,67,102353,1,0,0:0:0:0:
68,65,102377,1,0,0:0:0:0:
68,64,102389,1,0,0:0:0:0:
68,64,102401,1,0,0:0:0:0:
68,64,102413,1,0,0:0:0:0:
70,64,102426,1,0,0:0:0:0:
71,64,102438,1,0,0:0:0:0:
76,63,102450,1,0,0:0:0:0:
93,61,102474,1,0,0:0:0:0:
130,58,102584,1,0,0:0:0:0:
145,58,102620,1,0,0:0:0:0:
148,58,102645,1,0,0:0:0:0:
158,60,102681,1,0,0:0:0:0:
163,60,102693,1,0,0:0:0:0:
169,60,102706,1,0,0:0:0:0:
186,58,102730,1,0,0:0:0:0:
188,58,102742,1,0,0:0:0:0:
188,58,102767,1,0,0:0:0:0:
189,58,102779,1,0,0:0:0:0:
191,59,102791,1,0,0:0:0:0:
237,60,102900,1,0,0:0:0:0:
237,60,102913,1,0,0:0:0:0:
246,60,102949,1,0,0:0:0:0:
246,60,102974,1,0,0:0:0:0:
247,60,102986,1,0,0:0:0:0:
249,60,102998,1,0,0:0:0:0:
276,58,103034,1,0,0:0:0:0:
292,58,103071,1,0,0:0:0:0:
299,59,103083,1,0,0:0:0:0:
314,59,103095,1,0,0:0:0:0:
323,58,103107,1,0,0:0:0:0:
326,58,103120,1,0,0:0:0:0:
351,55,103205,1,0,0:0:0:0:
363,53,103229,1,0,0:0:0:0:
367,52,103241,1,0,0:0:0:0:
379,50,103266,1,0,0:0:0:0:
381,50,103278,1,0,0:0:0:0:
395,49,103327,1,0,0:0:0:0:
412,48,103363,1,0,0:0:0:0:
416,48,103375,1,0,0:0:0:0:
417,48,103387,1,0,0:0:0:0:
418,48,103400,1,0,0:0:0:0:
426,50,103424,1,0,0:0:0:0:
441,69,103546,1,0,0:0:0:0:
443,78,103582,1,0,0:0:0:0:
443,80,103594,1,0,0:0:0:0:
441,100,103643,1,0,0:0:0:0:
443,111,103680,1,0,0:0:0:0:
445,114,103692,1,0,0:0:0:0:
445,120,103716,1,0,0:0:0:0:
444,123,103728,1,0,0:0:0:0:
442,127,103741,1,0,0:0:0:0:
442,132,103765,1,0,0:0:0:0:
442,134,103777,1,0,0:0:0:0:
441,164,103887,1,0,0:0:0:0:
441,164,103899,1,0,0:0:0:0:
441,164,103935,1,0,0:0:0:0:
440,171,103948,1,0,0:0:0:0:
439,173,103960,1,0,0:0:0:0:
438,177,103984,1,0,0:0:0:0:
438,181,104008,1,0,0:0:0:0:
438,183,104033,1,0,0:0:0:0:
438,186,104045,1,0,0:0:0:0:
437,193,104057,1,0,0:0:0:0:
432,199,104081,1,0,0:0:0:0:
431,200,104106,1,0,0:0:0:0:
430,201,104118,1,0,0:0:0:0:
430,204,104130,1,0,0:0:0:0:
428,214,104167,1,0,0:0:0:0:
426,216,104179,1,0,0:0:0:0:
423,222,104203,1,0,0:0:0:0:
422,225,104228,1,0,0:0:0:0:
422,225,104240,1,0,0:0:0:0:
422,225,104252,1,0,0:0:0:0:
414,241,104313,1,0,0:0:0:0:
414,246,104325,1,0,0:0:0:0:
408,266,104435,1,0,0:0:0:0:
408,267,104459,1,0,0:0:0:0:
407,268,104471,1,0,0:0:0:0:
406,269,104483,1,0,0:0:0:0:
401,273,104508,1,0,0:0:0:0:
396,277,104532,1,0,0:0:0:0:
396,279,104544,1,0,0:0:0:0:
396,279,104556,1,0,0:0:0:0:
396,279,104581,1,0,0:0:0:0:
396,279,104593,1,0,0:0:0:0:
394,281,104605,1,0,0:0:0:0:
391,283,104617,1,0,0:0:0:0:
382,288,104642,1,0,0:0:0:0:
378,289,104654,1,0,0:0:0:0:
333,303,104763,1,0,0:0:0:0:
333,303,104775,1,0,0:0:0:0:
333,303,104788,1,0,0:0:0:0:
333,303,104812,1,0,0:0:0:0:
333,303,104824,1,0,0:0:0:0:
325,308,104836,1,0,0:0:0:0:
312,309,104849,1,0,0:0:0:0:
300,311,104873,1,0,0:0:0:0:
295,311,104885,1,0,0:0:0:0:
294,311,104897,1,0,0:0:0:0:
294,311,104909,1,0,0:0:0:0:
294,311,104922,1,0,0:0:0:0:
290,312,104946,1,0,0:0:0:0:
277,314,104958,1,0,0:0:0:0:
259,317,104982,1,0,0:0:0:0:
256,317,104995,1,0,0:0:0:0:
254,317,105007,1,0,0:0:0:0:
253,317,105031,1,0,0:0:0:0:
252,317,105043,1,0,0:0:0:0:
246,317,105056,1,0,0:0:0:0:
235,317,105068,1,0,0:0:0:0:
229,317,105080,1,0,0:0:0:0:
225,317,105104,1,0,0:0:0:0:
225,317,105116,1,0,0:0:0:0:
224,317,105129,1,0,0:0:0:0:
223,317,105141,1,0,0:0:0:0:
220,317,105153,1,0,0:0:0:0:
213,317,105165,1,0,0:0:0:0:
201,317,105189,1,0,0:0:0:0:
199,317,105214,1,0,0:0:0:0:
174,314,105311,1,0,0:0:0:0:
173,312,105336,1,0,0:0:0:0:
171,311,105360,1,0,0:0:0:0:
152,304,105396,1,0,0:0:0:0:
151,303,105421,1,0,0:0:0:0:
149,302,105445,1,0,0:0:0:0:
142,300,105457,1,0,0:0:0:0:
137,298,105469,1,0,0:0:0:0:
128,294,105494,1,0,0:0:0:0:
126,292,105506,1,0,0:0:0:0:
125,290,105518,1,0,0:0:0:0:
123,288,105530,1,0,0:0:0:0:
102,275,105616,1,0,0:0:0:0:
105,271,105640,1,0,0:0:0:0:
103,263,105664,1,0,0:0:0:0:
99,259,105676,1,0,0:0:0:0:
88,241,105701,1,0,0:0:0:0:
88,236,105725,1,0,0:0:0:0:
88,235,105737,1,0,0:0:0:0:
93,229,105750,1,0,0:0:0:0:
97,227,105762,1,0,0:0:0:0:
98,218,105798,1,0,0:0:0:0:
97,214,105810,1,0,0:0:0:0:
97,211,105823,1,0,0:0:0:0:
96,206,105835,1,0,0:0:0:0:
96,206,105847,1,0,0:0:0:0:
96,206,105859,1,0,0:0:0:0:
96,206,105871,1,0,0:0:0:0:
93,199,105896,1,0,0:0:0:0:
92,196,105908,1,0,0:0:0:0:
90,194,105920,1,0,0:0:0:0:
89,182,105969,1,0,0:0:0:0:
91,178,105981,1,0,0:0:0:0:
95,174,105993,1,0,0:0:0:0:
96,173,106005,1,0,0:0:0:0:
96,171,106017,1,0,0:0:0:0:
96,170,106030,1,0,0:0:0:0:
96,169,106066,1,0,0:0:0:0:
110,129,106188,1,0,0:0:0:0:
110,129,106200,1,0,0:0:0:0:
121,114,106212,1,0,0:0:0:0:
123,112,106224,1,0,0:0:0:0:
124,110,106237,1,0,0:0:0:0:
125,109,106261,1,0,0:0:0:0:
125,109,106273,1,0,0:0:0:0:
125,109,106285,1,0,0:0:0:0:
127,108,106297,1,0,0:0:0:0:
153,96,106334,1,0,0:0:0:0:
155,95,106346,1,0,0:0:0:0:
160,94,106370,1,0,0:0:0:0:
161,94,106383,1,0,0:0:0:0:
173,93,106407,1,0,0:0:0:0:
179,92,106419,1,0,0:0:0:0:
186,90,106431,1,0,0:0:0:0:
200,87,106443,1,0,0:0:0:0:
203,86,106456,1,0,0:0:0:0:
211,84,106480,1,0,0:0:0:0:
225,82,106517,1,0,0:0:0:0:
243,79,106553,1,0,0:0:0:0:
254,78,106565,1,0,0:0:0:0:
260,78,106590,1,0,0:0:0:0:
262,78,106614,1,0,0:0:0:0:
264,78,106626,1,0,0:0:0:0:
269,78,106638,1,0,0:0:0:0:
310,72,106748,1,0,0:0:0:0:
349,73,106809,1,0,0:0:0:0:
349,73,106821,1,0,0:0:0:0:
349,73,106833,1,0,0:0:0:0:
356,75,106857,1,0,0:0:0:0:
360,76,106870,1,0,0:0:0:0:
369,77,106882,1,0,0:0:0:0:
384,78,106918,1,0,0:0:0:0:
389,82,106955,1,0,0:0:0:0:
392,85,106967,1,0,0:0:0:0:
401,90,106991,1,0,0:0:0:0:
409,92,107016,1,0,0:0:0:0:
411,93,107040,1,0,0:0:0:0:
411,95,107052,1,0,0:0:0:0:
412,97,107064,1,0,0:0:0:0:
413,101,107077,1,0,0:0:0:0:
418,105,107101,1,0,0:0:0:0:
425,114,107137,1,0,0:0:0:0:
429,130,107174,1,0,0:0:0:0:
429,134,107186,1,0,0:0:0:0:
430,137,107198,1,0,0:0:0:0:
431,139,107211,1,0,0:0:0:0:
431,140,107223,1,0,0:0:0:0:
432,144,107259,1,0,0:0:0:0:
432,165,107308,1,0,0:0:0:0:
433,169,107320,1,0,0:0:0:0:
436,176,107332,1,0,0:0:0:0:
437,179,107344,1,0,0:0:0:0:
437,182,107357,1,0,0:0:0:0:
437,187,107369,1,0,0:0:0:0:
436,188,107381,1,0,0:0:0:0:
435,193,107405,1,0,0:0:0:0:
435,197,107418,1,0,0:0:0:0:
435,197,107430,1,0,0:0:0:0:
435,222,107527,1,0,0:0:0:0:
436,225,107539,1,0,0:0:0:0:
438,230,107551,1,0,0:0:0:0:
440,234,107564,1,0,0:0:0:0:
441,241,107576,1,0,0:0:0:0:
441,244,107588,1,0,0:0:0:0:
440,247,107625,1,0,0:0:0:0:
439,252,107637,1,0,0:0:0:0:
439,255,107649,1,0,0:0:0:0:
439,256,107661,1,0,0:0:0:0:
439,256,107673,1,0,0:0:0:0:
439,257,107685,1,0,0:0:0:0:
437,262,107710,1,0,0:0:0:0:
434,269,107734,1,0,0:0:0:0:
432,276,107746,1,0,0:0:0:0:
432,279,107758,1,0,0:0:0:0:
413,296,107868,1,0,0:0:0:0:
405,297,107892,1,0,0:0:0:0:
402,297,107905,1,0,0:0:0:0:
396,298,107917,1,0,0:0:0:0:
380,299,107929,1,0,0:0:0:0:
361,302,107965,1,0,0:0:0:0:
351,303,108002,1,0,0:0:0:0:
351,303,108014,1,0,0:0:0:0:
350,303,108026,1,0,0:0:0:0:
328,303,108063,1,0,0:0:0:0:
262,307,108209,1,0,0:0:0:0:
262,307,108221,1,0,0:0:0:0:
262,307,108233,1,0,0:0:0:0:
262,307,108245,1,0,0:0:0:0:
253,307,108258,1,0,0:0:0:0:
247,307,108270,1,0,0:0:0:0:
230,307,108282,1,0,0:0:0:0:
224,307,108294,1,0,0:0:0:0:
211,307,108318,1,0,0:0:0:0:
205,306,108343,1,0,0:0:0:0:
195,303,108367,1,0,0:0:0:0:
190,303,108379,1,0,0:0:0:0:
166,298,108416,1,0,0:0:0:0:
160,296,108440,1,0,0:0:0:0:
108,266,108550,1,0,0:0:0:0:
99,254,108574,1,0,0:0:0:0:
89,244,108599,1,0,0:0:0:0:
85,238,108647,1,0,0:0:0:0:
85,233,108659,1,0,0:0:0:0:
85,229,108672,1,0,0:0:0:0:
85,226,108684,1,0,0:0:0:0:
83,218,108696,1,0,0:0:0:0:
81,214,108708,1,0,0:0:0:0:
78,207,108720,1,0,0:0:0:0:
75,200,108732,1,0,0:0:0:0:
75,194,108745,1,0,0:0:0:0:
76,191,108757,1,0,0:0:0:0:
82,181,108769,1,0,0:0:0:0:
86,147,108866,1,0,0:0:0:0:
86,147,108891,1,0,0:0:0:0:
92,139,108903,1,0,0:0:0:0:
98,131,108915,1,0,0:0:0:0:
103,120,108939,1,0,0:0:0:0:
104,114,108952,1,0,0:0:0:0:
105,112,108976,1,0,0:0:0:0:
106,111,108988,1,0,0:0:0:0:
109,108,109000,1,0,0:0:0:0:
128,98,109037,1,0,0:0:0:0:
144,91,109073,1,0,0:0:0:0:
154,89,109098,1,0,0:0:0:0:
172,85,109122,1,0,0:0:0:0:
183,84,109134,1,0,0:0:0:0:
204,81,109146,1,0,0:0:0:0:
212,80,109159,1,0,0:0:0:0:
236,77,109195,1,0,0:0:0:0:
239,77,109207,1,0,0:0:0:0:
242,77,109219,1,0,0:0:0:0:
266,75,109256,1,0,0:0:0:0:
271,75,109268,1,0,0:0:0:0:
285,75,109280,1,0,0:0:0:0:
302,77,109317,1,0,0:0:0:0:
306,77,109329,1,0,0:0:0:0:
310,78,109341,1,0,0:0:0:0:
316,78,109353,1,0,0:0:0:0:
330,78,109366,1,0,0:0:0:0:
348,80,109402,1,0,0:0:0:0:
351,81,109414,1,0,0:0:0:0:
359,85,109439,1,0,0:0:0:0:
373,90,109463,1,0,0:0:0:0:
380,92,109475,1,0,0:0:0:0:
396,98,109487,1,0,0:0:0:0:
400,100,109500,1,0,0:0:0:0:
409,108,109524,1,0,0:0:0:0:
413,114,109548,1,0,0:0:0:0:
421,133,109585,1,0,0:0:0:0:
425,146,109609,1,0,0:0:0:0:
428,150,109621,1,0,0:0:0:0:
434,157,109646,1,0,0:0:0:0:
435,169,109658,1,0,0:0:0:0:
435,172,109670,1,0,0:0:0:0:
435,191,109694,1,0,0:0:0:0:
439,209,109731,1,0,0:0:0:0:
441,220,109755,1,0,0:0:0:0:
440,229,109767,1,0,0:0:0:0:
439,233,109780,1,0,0:0:0:0:
438,238,109792,1,0,0:0:0:0:
436,243,109804,1,0,0:0:0:0:
435,257,109828,1,0,0:0:0:0:
433,267,109853,1,0,0:0:0:0:
424,282,109901,1,0,0:0:0:0:
418,291,109926,1,0,0:0:0:0:
416,295,109938,1,0,0:0:0:0:
407,307,109974,1,0,0:0:0:0:
397,312,109999,1,0,0:0:0:0:
382,316,110023,1,0,0:0:0:0:
373,319,110047,1,0,0:0:0:0:
367,320,110072,1,0,0:0:0:0:
365,320,110084,1,0,0:0:0:0:
359,321,110108,1,0,0:0:0:0:
337,322,110133,1,0,0:0:0:0:
309,322,110181,1,0,0:0:0:0:
292,320,110206,1,0,0:0:0:0:
286,320,110218,1,0,0:0:0:0:
267,318,110254,1,0,0:0:0:0:
195,303,110376,1,0,0:0:0:0:
189,300,110388,1,0,0:0:0:0:
183,297,110400,1,0,0:0:0:0:
174,294,110413,1,0,0:0:0:0:
171,292,110425,1,0,0:0:0:0:
151,286,110449,1,0,0:0:0:0:
135,280,110498,1,0,0:0:0:0:
134,274,110522,1,0,0:0:0:0:
131,269,110534,1,0,0:0:0:0:
122,258,110559,1,0,0:0:0:0:
116,251,110571,1,0,0:0:0:0:
105,239,110583,1,0,0:0:0:0:
101,235,110595,1,0,0:0:0:0:
96,221,110620,1,0,0:0:0:0:
96,217,110632,1,0,0:0:0:0:
95,209,110644,1,0,0:0:0:0:
93,195,110656,1,0,0:0:0:0:
89,182,110681,1,0,0:0:0:0:
90,154,110729,1,0,0:0:0:0:
101,136,110754,1,0,0:0:0:0:
106,126,110778,1,0,0:0:0:0:
107,122,110790,1,0,0:0:0:0:
108,115,110802,1,0,0:0:0:0:
116,101,110851,1,0,0:0:0:0:
125,97,110863,1,0,0:0:0:0:
140,91,110887,1,0,0:0:0:0:
144,90,110900,1,0,0:0:0:0:
150,88,110924,1,0,0:0:0:0:
151,87,110936,1,0,0:0:0:0:
163,84,110961,1,0,0:0:0:0:
168,83,110973,1,0,0:0:0:0:
206,74,111009,1,0,0:0:0:0:
217,72,111034,1,0,0:0:0:0:
225,72,111070,1,0,0:0:0:0:
230,72,111082,1,0,0:0:0:0:
298,78,111204,1,0,0:0:0:0:
315,81,111228,1,0,0:0:0:0:
323,83,111241,1,0,0:0:0:0:
336,86,111253,1,0,0:0:0:0:
340,89,111265,1,0,0:0:0:0:
352,97,111277,1,0,0:0:0:0:
356,101,111301,1,0,0:0:0:0:
379,129,111338,1,0,0:0:0:0:
395,180,111399,1,0,0:0:0:0:
395,189,111411,1,0,0:0:0:0:
395,203,111423,1,0,0:0:0:0:
395,218,111448,1,0,0:0:0:0:
396,227,111460,1,0,0:0:0:0:
397,232,111472,1,0,0:0:0:0:
395,245,111508,1,0,0:0:0:0:
391,251,111521,1,0,0:0:0:0:
382,268,111545,1,0,0:0:0:0:
379,274,111557,1,0,0:0:0:0:
371,285,111581,1,0,0:0:0:0:
369,286,111594,1,0,0:0:0:0:
364,288,111606,1,0,0:0:0:0:
360,288,111618,1,0,0:0:0:0:
240,298,111764,1,0,0:0:0:0:
233,297,111788,1,0,0:0:0:0:
230,296,111801,1,0,0:0:0:0:
225,295,111813,1,0,0:0:0:0:
219,295,111825,1,0,0:0:0:0:
192,292,111849,1,0,0:0:0:0:
180,291,111874,1,0,0:0:0:0:
178,289,111910,1,0,0:0:0:0:
176,287,111922,1,0,0:0:0:0:
168,283,111935,1,0,0:0:0:0:
163,281,111947,1,0,0:0:0:0:
155,275,111959,1,0,0:0:0:0:
149,272,111971,1,0,0:0:0:0:
142,268,111983,1,0,0:0:0:0:
117,216,112105,1,0,0:0:0:0:
117,204,112117,1,0,0:0:0:0:
116,197,112129,1,0,0:0:0:0:
115,188,112142,1,0,0:0:0:0:
114,179,112154,1,0,0:0:0:0:
110,169,112166,1,0,0:0:0:0:
106,155,112178,1,0,0:0:0:0:
105,142,112202,1,0,0:0:0:0:
105,136,112215,1,0,0:0:0:0:
105,134,112227,1,0,0:0:0:0:
106,130,112251,1,0,0:0:0:0:
107,129,112263,1,0,0:0:0:0:
109,125,112288,1,0,0:0:0:0:
360,147,112568,1,0,0:0:0:0:
360,147,112580,1,0,0:0:0:0:
368,147,112592,1,0,0:0:0:0:
377,148,112629,1,0,0:0:0:0:
380,151,112641,1,0,0:0:0:0:
384,153,112653,1,0,0:0:0:0:
388,156,112665,1,0,0:0:0:0:
402,166,112689,1,0,0:0:0:0:
409,174,112714,1,0,0:0:0:0:
411,177,112726,1,0,0:0:0:0:
413,186,112738,1,0,0:0:0:0:
414,191,112750,1,0,0:0:0:0:
416,198,112762,1,0,0:0:0:0:
331,277,113067,1,0,0:0:0:0:
331,277,113079,1,0,0:0:0:0:
331,277,113091,1,0,0:0:0:0:
331,277,113103,1,0,0:0:0:0:
306,275,113128,1,0,0:0:0:0:
293,273,113152,1,0,0:0:0:0:
276,271,113164,1,0,0:0:0:0:
262,270,113176,1,0,0:0:0:0:
240,269,113201,1,0,0:0:0:0:
234,269,113213,1,0,0:0:0:0:
200,266,113250,1,0,0:0:0:0:
178,261,113274,1,0,0:0:0:0:
171,258,113286,1,0,0:0:0:0:
161,252,113298,1,0,0:0:0:0:
29,39,116525,2,0,P|491:361|493:364,18,562.499985098839
62,158,121017,1,0,0:0:0:0:
89,300,121334,1,0,0:0:0:0:
237,352,121626,1,0,0:0:0:0:
161,224,121931,1,0,0:0:0:0:
252,37,122393,1,0,0:0:0:0:
481,49,122649,1,0,0:0:0:0:
453,235,122917,1,0,0:0:0:0:
117,178,123185,1,0,0:0:0:0:
117,178,123197,1,0,0:0:0:0:
117,171,123209,1,0,0:0:0:0:
116,165,123233,1,0,0:0:0:0:
114,163,123245,1,0,0:0:0:0:
111,160,123258,1,0,0:0:0:0:
110,159,123270,1,0,0:0:0:0:
110,158,123282,1,0,0:0:0:0:
128,142,123331,1,0,0:0:0:0:
132,138,123343,1,0,0:0:0:0:
133,137,123355,1,0,0:0:0:0:
139,134,123367,1,0,0:0:0:0:
159,132,123379,1,0,0:0:0:0:
168,130,123392,1,0,0:0:0:0:
170,128,123416,1,0,0:0:0:0:
174,127,123428,1,0,0:0:0:0:
177,126,123440,1,0,0:0:0:0:
178,125,123452,1,0,0:0:0:0:
178,124,123465,1,0,0:0:0:0:
178,124,123477,1,0,0:0:0:0:
178,124,123489,1,0,0:0:0:0:
178,124,123513,1,0,0:0:0:0:
194,120,123525,1,0,0:0:0:0:
206,118,123538,1,0,0:0:0:0:
240,116,123550,1,0,0:0:0:0:
263,114,123562,1,0,0:0:0:0:
271,113,123574,1,0,0:0:0:0:
287,112,123586,1,0,0:0:0:0:
289,112,123623,1,0,0:0:0:0:
331,143,123732,1,0,0:0:0:0:
331,143,123745,1,0,0:0:0:0:
340,154,123757,1,0,0:0:0:0:
342,158,123769,1,0,0:0:0:0:
342,160,123781,1,0,0:0:0:0:
341,166,123793,1,0,0:0:0:0:
339,169,123806,1,0,0:0:0:0:
334,174,123818,1,0,0:0:0:0:
333,177,123830,1,0,0:0:0:0:
333,182,123842,1,0,0:0:0:0:
334,183,123854,1,0,0:0:0:0:
334,183,123866,1,0,0:0:0:0:
334,183,123879,1,0,0:0:0:0:
332,185,123891,1,0,0:0:0:0:
323,190,123903,1,0,0:0:0:0:
297,201,123927,1,0,0:0:0:0:
287,206,123939,1,0,0:0:0:0:
209,221,124049,1,0,0:0:0:0:
209,221,124061,1,0,0:0:0:0:
209,221,124073,1,0,0:0:0:0:
209,221,124086,1,0,0:0:0:0:
209,221,124110,1,0,0:0:0:0:
198,219,124122,1,0,0:0:0:0:
192,217,124134,1,0,0:0:0:0:
178,212,124146,1,0,0:0:0:0:
172,210,124159,1,0,0:0:0:0:
173,205,124183,1,0,0:0:0:0:
173,204,124195,1,0,0:0:0:0:
173,202,124207,1,0,0:0:0:0:
168,196,124219,1,0,0:0:0:0:
166,194,124232,1,0,0:0:0:0:
159,186,124244,1,0,0:0:0:0:
157,180,124256,1,0,0:0:0:0:
157,175,124268,1,0,0:0:0:0:
165,157,124341,1,0,0:0:0:0:
176,153,124366,1,0,0:0:0:0:
182,152,124378,1,0,0:0:0:0:
190,147,124402,1,0,0:0:0:0:
191,147,124414,1,0,0:0:0:0:
191,147,124426,1,0,0:0:0:0:
191,147,124439,1,0,0:0:0:0:
192,147,124451,1,0,0:0:0:0:
201,145,124463,1,0,0:0:0:0:
206,144,124475,1,0,0:0:0:0:
222,144,124487,1,0,0:0:0:0:
234,143,124512,1,0,0:0:0:0:
239,143,124536,1,0,0:0:0:0:
252,144,124560,1,0,0:0:0:0:
259,146,124573,1,0,0:0:0:0:
289,164,124670,1,0,0:0:0:0:
298,171,124682,1,0,0:0:0:0:
303,174,124694,1,0,0:0:0:0:
307,177,124706,1,0,0:0:0:0:
308,178,124719,1,0,0:0:0:0:
308,180,124731,1,0,0:0:0:0:
308,182,124743,1,0,0:0:0:0:
306,184,124755,1,0,0:0:0:0:
304,190,124767,1,0,0:0:0:0:
303,197,124780,1,0,0:0:0:0:
306,204,124792,1,0,0:0:0:0:
308,211,124816,1,0,0:0:0:0:
300,222,124840,1,0,0:0:0:0:
296,225,124853,1,0,0:0:0:0:
288,230,124865,1,0,0:0:0:0:
277,241,124889,1,0,0:0:0:0:
276,244,124901,1,0,0:0:0:0:
227,245,124974,1,0,0:0:0:0:
227,245,124987,1,0,0:0:0:0:
227,245,125011,1,0,0:0:0:0:
220,241,125023,1,0,0:0:0:0:
213,237,125035,1,0,0:0:0:0:
209,235,125047,1,0,0:0:0:0:
204,232,125060,1,0,0:0:0:0:
196,226,125072,1,0,0:0:0:0:
196,217,125108,1,0,0:0:0:0:
196,212,125120,1,0,0:0:0:0:
195,209,125133,1,0,0:0:0:0:
192,200,125157,1,0,0:0:0:0:
191,199,125169,1,0,0:0:0:0:
192,197,125181,1,0,0:0:0:0:
194,194,125193,1,0,0:0:0:0:
198,188,125206,1,0,0:0:0:0:
217,173,125279,1,0,0:0:0:0:
222,172,125291,1,0,0:0:0:0:
229,171,125303,1,0,0:0:0:0:
243,169,125315,1,0,0:0:0:0:
246,169,125327,1,0,0:0:0:0:
255,169,125376,1,0,0:0:0:0:
274,173,125413,1,0,0:0:0:0:
275,174,125425,1,0,0:0:0:0:
276,174,125437,1,0,0:0:0:0:
277,177,125461,1,0,0:0:0:0:
279,179,125474,1,0,0:0:0:0:
283,187,125486,1,0,0:0:0:0:
291,210,125583,1,0,0:0:0:0:
291,212,125595,1,0,0:0:0:0:
292,216,125607,1,0,0:0:0:0:
292,218,125620,1,0,0:0:0:0:
288,224,125656,1,0,0:0:0:0:
273,230,125693,1,0,0:0:0:0:
272,231,125705,1,0,0:0:0:0:
272,231,125717,1,0,0:0:0:0:
270,231,125729,1,0,0:0:0:0:
265,231,125741,1,0,0:0:0:0:
257,232,125754,1,0,0:0:0:0:
246,232,125766,1,0,0:0:0:0:
234,231,125778,1,0,0:0:0:0:
224,230,125790,1,0,0:0:0:0:
220,228,125802,1,0,0:0:0:0:
206,202,125900,1,0,0:0:0:0:
207,198,125912,1,0,0:0:0:0:
208,194,125924,1,0,0:0:0:0:
212,184,125936,1,0,0:0:0:0:
222,167,126021,1,0,0:0:0:0:
228,163,126034,1,0,0:0:0:0:
242,156,126082,1,0,0:0:0:0:
245,155,126094,1,0,0:0:0:0:
247,155,126107,1,0,0:0:0:0:
283,167,126228,1,0,0:0:0:0:
297,176,126253,1,0,0:0:0:0:
300,178,126265,1,0,0:0:0:0:
303,182,126277,1,0,0:0:0:0:
304,184,126289,1,0,0:0:0:0:
304,190,126301,1,0,0:0:0:0:
304,196,126326,1,0,0:0:0:0:
304,200,126338,1,0,0:0:0:0:
305,206,126350,1,0,0:0:0:0:
306,209,126375,1,0,0:0:0:0:
303,211,126399,1,0,0:0:0:0:
300,214,126411,1,0,0:0:0:0:
296,217,126423,1,0,0:0:0:0:
295,219,126448,1,0,0:0:0:0:
294,220,126460,1,0,0:0:0:0:
252,228,126545,1,0,0:0:0:0:
252,228,126557,1,0,0:0:0:0:
